VERSION	0.00.00	1.05.00
FES_MODE	0
BPM_DEF	148.000	148.000	148.000	148.000
MET_DEF	4	4
RESOLUTION	384
CLK_DEF	384
COMPATIBLE_CODE	MA2

BPM	0	0	148.000
MET	0	0	4	4

NMTHO	1	312	0	360	C	0	M1
NMTTP	3	96	0	E	0	M1
NMTTP	3	288	0	C	0	M1
NMTTP	4	96	4	E	0	M1
EXTAP	4	288	3
EXTAP	4	288	4
NMTAP	5	0	2
NMTAP	5	96	2
NMTAP	5	96	3
NMTAP	5	192	5
NMTAP	5	288	4
NMTAP	5	288	5
NMTAP	6	0	3
NMTAP	6	96	2
NMTAP	6	96	4
NMHLD	6	192	0	192
BRTAP	7	0	6
NMTAP	7	96	1
NMTAP	7	96	7
NMTAP	7	192	1
NMTAP	7	240	1
NMTAP	7	288	0
NMTAP	8	0	1
NMTAP	8	0	7
NMTAP	8	96	0
NMTAP	8	96	6
NMTAP	8	192	6
NMTAP	8	240	6
EXTAP	8	288	7
NMTAP	9	0	4
NMTAP	9	0	5
NMTAP	9	96	2
NMTAP	9	96	3
NMTAP	9	192	2
NMTAP	9	192	3
NMTAP	9	288	1
NMTAP	9	288	4
NMTAP	10	0	0
NMTAP	10	0	5
NMHLD	10	96	0	96
NMHLD	10	96	5	96
EXTAP	10	240	6
EXTAP	10	240	7
EXTAP	10	288	6
EXTAP	10	288	7
BRTAP	11	0	0
NMTAP	11	96	1
NMTAP	11	96	4
NMTAP	11	192	2
NMTAP	11	240	2
NMTAP	11	288	3
NMTAP	12	0	2
NMTAP	12	0	7
NMTAP	12	96	3
NMSTR	12	96	6
NMSI_	12	96	6	96	96	2
NMTAP	13	0	0
NMTAP	13	0	1
NMTAP	13	96	0
NMTAP	13	96	1
NMTAP	13	192	6
NMTAP	13	192	7
NMTAP	13	288	6
NMTAP	13	288	7
NMTAP	14	0	0
NMTAP	14	48	0
NMTAP	14	96	7
NMTAP	14	144	7
NMTAP	14	192	1
BRTAP	14	288	1
BRTAP	14	288	4
NMHLD	15	0	2	96
NMHLD	15	0	3	96
NMTAP	15	192	1
NMTAP	15	240	1
NMTAP	15	288	3
NMHLD	16	0	1	96
NMHLD	16	0	3	96
EXTAP	16	144	2
EXTAP	16	144	4
EXTAP	16	192	2
EXTAP	16	192	4
NMSTR	16	288	1
NMSI_	16	288	1	96	96	5
NMSTR	17	96	6
NMSI_	17	96	6	96	96	2
NMSTR	17	288	1
NMSCL	17	288	1	96	96	6
NMTAP	18	96	5
BXTAP	18	192	4
BXTAP	18	192	5
NMTAP	18	288	6
NMTAP	18	336	6
NMHLD	19	0	4	96
NMHLD	19	0	6	96
NMTAP	19	192	6
NMTAP	19	240	6
NMTAP	19	288	7
NMHLD	20	0	6	96
NMHLD	20	0	7	96
EXTAP	20	144	0
EXTAP	20	144	7
EXTAP	20	192	0
EXTAP	20	192	7
NMTAP	20	288	0
NMTAP	20	288	1
NMTAP	21	0	2
NMTAP	21	96	2
NMTAP	21	96	3
NMTAP	21	192	1
NMTAP	21	288	0
NMTAP	21	288	1
NMSTR	22	0	7
NMSSR	22	0	7	96	192	3
NMHLD	23	0	1	144
NMTAP	23	144	3
NMTAP	23	192	3
NMTAP	23	288	2
NMTAP	23	288	4
NMHLD	24	0	5	144
NMTAP	24	144	4
NMTAP	24	192	4
BXTAP	24	288	7
NMHLD	25	0	6	144
NMTAP	25	144	4
NMTAP	25	192	4
NMTAP	25	288	3
NMTAP	25	288	5
NMTHO	26	0	0	192	C	0	M1
NMHLD	27	0	0	192
NMHLD	27	0	1	192
NMTAP	27	288	0
NMTAP	27	288	7
NMHLD	28	0	6	192
NMHLD	28	0	7	192
NMSTR	28	288	6
NMSXR	28	288	6	96	240	3
NMSTR	28	288	7
NMSXL	28	288	7	96	240	2
NMTAP	30	0	1
NMHLD	30	0	3	192
NMHLD	30	192	4	192
NMHLD	31	0	6	576
NMTHO	32	0	0	192	C	0	M1
BXTAP	32	288	0
BXTAP	32	288	7
NMTAP	33	0	0
NMTAP	33	0	1
NMTAP	33	96	6
NMTAP	33	96	7
NMTAP	33	192	2
NMTAP	33	192	3
NMTAP	33	288	4
NMTAP	33	288	5
BRTAP	34	0	2
BRTAP	34	0	3
NMTAP	34	96	1
NMTAP	34	96	4
NMTAP	34	192	3
NMTAP	34	192	6
NMTAP	34	288	1
NMTAP	34	288	4
BRTAP	35	0	6
BRTAP	35	0	7
NMTAP	35	96	1
NMTAP	35	96	4
NMTAP	35	192	3
NMTAP	35	192	6
NMTAP	35	288	1
NMTAP	35	288	4
BRTAP	36	0	6
BRTAP	36	0	7
NMTAP	36	96	1
NMTAP	36	96	5
NMTAP	36	192	0
NMTAP	36	192	6
NMTAP	36	240	0
NMTAP	36	240	6
NMSTR	36	288	0
NMSUR	36	288	0	96	96	4
NMSV_	36	288	0	96	96	5
NMTAP	36	288	6
NMTAP	37	192	6
NMTAP	37	240	6
NMTAP	37	288	6
NMSTR	37	288	7
NMSUL	37	288	7	96	96	3
NMSV_	37	288	7	96	96	2
BRTAP	38	192	1
NMTAP	38	240	1
NMTAP	38	288	0
NMSTR	38	288	1
NMSCR	38	288	1	96	96	4
NMSTR	39	96	5
NMSCR	39	96	5	96	96	0
NMHLD	39	288	1	288
NMTAP	40	192	0
NMTAP	40	240	0
BXTAP	40	288	2
BXTAP	40	288	7
NMSTR	41	0	1
NMSLR	41	0	1	96	96	5
NMTAP	41	192	6
NMTAP	41	288	4
NMTAP	41	288	6
NMTAP	42	0	3
NMSTR	42	0	5
NMSLR	42	0	5	96	96	1
NMTAP	42	192	2
NMTAP	42	288	0
NMTAP	42	288	2
NMTAP	43	0	1
NMTAP	43	48	1
NMTAP	43	96	0
NMTAP	43	192	6
NMTAP	43	240	6
NMTAP	43	288	7
NMTAP	44	0	0
NMTAP	44	0	5
NMHLD	44	96	2	96
NMHLD	44	96	7	96
EXTAP	44	240	0
EXTAP	44	240	1
EXTAP	44	288	0
EXTAP	44	288	1
NMTAP	45	0	2
NMSTR	45	0	7
NMSLL	45	0	7	96	120	2
NMTAP	45	192	0
NMTAP	45	288	1
NMTAP	45	288	3
NMSTR	46	0	2
NMSLL	46	0	2	96	120	5
NMTAP	46	192	4
EXTAP	46	288	3
EXTAP	46	288	5
NMHLD	47	0	6	96
NMHLD	47	96	4	96
NMHLD	47	192	2	96
NMHLD	47	288	0	288
NMTTP	48	192	0	C	1	M1
BRSTR	49	0	6
NMSI_	49	0	6	96	48	3
BRSTR	49	0	7
NMSI_	49	0	7	96	48	3
NMSTR	49	192	0
NMSI_	49	192	0	96	48	4
NMSTR	49	192	1
NMSI_	49	192	1	96	48	4
NMTAP	50	0	6
NMTAP	50	0	7
NMTAP	50	96	5
NMTAP	50	96	7
NMTAP	50	192	5
NMTAP	50	192	7
NMTAP	50	288	2
NMTAP	50	288	3
BRTAP	51	0	4
BRTAP	51	0	5
NMTAP	51	96	0
NMTAP	51	96	2
NMTAP	51	192	0
NMTAP	51	192	2
NMTAP	51	288	4
NMTAP	51	288	5
BRTAP	52	0	2
BRTAP	52	0	3
NMTAP	52	96	0
NMTAP	52	96	6
NMTAP	52	192	1
NMTAP	52	192	5
NMTAP	52	240	1
NMTAP	52	240	5
NMTAP	52	288	1
NMTAP	52	288	5
NMTAP	53	0	7
NMTAP	53	48	7
NMTAP	53	96	1
NMTAP	53	144	1
NMTAP	53	192	0
NMHLD	53	288	1	96
NMHLD	54	0	3	96
NMHLD	54	96	4	96
NMTAP	54	192	6
NMTAP	54	288	0
NMTAP	54	288	7
NMHLD	55	0	6	96
NMTAP	55	96	7
NMTAP	55	192	4
NMTAP	55	192	5
NMTAP	55	288	4
NMSTR	55	288	5
NMSCR	55	288	5	96	240	3
NMTTP	56	0	0	C	1	M1
BXSTR	57	0	0
NMSI_	57	0	0	96	48	5
BXSTR	57	0	1
NMSI_	57	0	1	96	48	4
NMSTR	57	192	6
NMSI_	57	192	6	96	48	3
NMSTR	57	192	7
NMSI_	57	192	7	96	48	2
NMTAP	58	0	0
NMTAP	58	0	1
NMTAP	58	96	0
NMTAP	58	96	2
NMTAP	58	192	0
NMTAP	58	192	2
NMTAP	58	288	4
NMTAP	58	288	6
BRTAP	59	0	1
BRTAP	59	0	3
NMTAP	59	96	5
NMTAP	59	96	7
NMTAP	59	192	5
NMTAP	59	192	7
NMTAP	59	288	1
NMTAP	59	288	3
BRTAP	60	0	4
BRTAP	60	0	6
NMTAP	60	96	1
NMTAP	60	96	7
NMTAP	60	192	2
NMTAP	60	192	6
NMTAP	60	240	2
NMTAP	60	240	6
BXTAP	60	288	2
BXTAP	60	288	6
NMTAP	61	0	5
NMTAP	61	48	5
NMTAP	61	96	7
NMTAP	61	144	7
NMTAP	61	192	3
NMTAP	61	240	3
NMHLD	61	288	0	96
NMTAP	62	0	2
EXSTR	62	96	1
NMSUL	62	96	1	96	96	5
NMSUR	62	96	1	96	96	5
NMHLD	63	0	6	96
NMHLD	63	96	4	96
NMHLD	63	192	3	96
NMHLD	63	288	1	96
NMTAP	64	0	7
NMTAP	64	48	7
NMTAP	64	96	0
NMTAP	64	144	0
EXTAP	64	192	6
BXTAP	64	288	1
BXTAP	64	288	5
NMHLD	65	0	2	288
NMTAP	65	96	3
NMTAP	65	192	1
NMTAP	65	288	3
NMHLD	66	0	5	192
NMTAP	66	96	4
NMTAP	66	192	6
BRTAP	66	288	6
BRTAP	66	288	7
NMTAP	67	0	5
NMTAP	67	48	5
NMTAP	67	96	4
NMTAP	67	96	6
NMTAP	67	192	2
NMTAP	67	240	2
NMTAP	67	288	1
NMTAP	67	288	3
NMTAP	68	0	0
NMTAP	68	0	1
NMHLD	68	96	1	96
NMHLD	68	96	7	96
EXTAP	68	240	0
EXTAP	68	240	6
EXTAP	68	288	0
EXTAP	68	288	6
NMHLD	69	0	2	288
NMTAP	69	96	3
NMTAP	69	192	0
NMTAP	69	288	3
NMTAP	70	0	4
NMTAP	70	0	5
NMSTR	70	96	6
NMSCL	70	96	6	96	96	3
NMTAP	70	96	7
BXTAP	70	288	0
NMTAP	71	0	1
NMTAP	71	48	1
NMTAP	71	96	4
NMTAP	71	144	3
NMHLD	71	192	6	96
NMSTR	71	288	7
NMSCR	71	288	7	96	96	2
NMSTR	72	0	6
NMSCL	72	0	6	96	96	3
NMSTR	72	192	2
BRSI_	72	192	2	96	48	6
NMHLD	73	0	7	288
EXTAP	73	336	0
EXTAP	73	336	6
BXTAP	73	360	0
BXTAP	73	360	6

T_REC_TAP	225
T_REC_BRK	21
T_REC_XTP	28
T_REC_BXX	14
T_REC_HLD	44
T_REC_XHO	0
T_REC_BHO	0
T_REC_BXH	0
T_REC_STR	24
T_REC_BST	2
T_REC_XST	1
T_REC_XBS	2
T_REC_TTP	5
T_REC_THO	3
T_REC_SLD	31
T_REC_BSL	1
T_REC_ALL	401
T_NUM_TAP	283
T_NUM_BRK	40
T_NUM_HLD	47
T_NUM_SLD	31
T_NUM_ALL	401
T_JUDGE_TAP	322
T_JUDGE_HLD	153
T_JUDGE_SLD	32
T_JUDGE_ALL	507
TTM_EACHPAIRS	118
TTM_SCR_TAP	141500
TTM_SCR_BRK	104000
TTM_SCR_HLD	47000
TTM_SCR_SLD	46500
TTM_SCR_ALL	339000
TTM_SCR_S	324950
TTM_SCR_SS	335000
TTM_RAT_ACV	10119

