VERSION	0.00.00	1.05.00
FES_MODE	0
BPM_DEF	180.000	180.000	180.000	180.000
MET_DEF	4	4
RESOLUTION	384
CLK_DEF	384
COMPATIBLE_CODE	MA2

BPM	0	0	180.000
MET	0	0	4	4

NMHLD	1	0	1	96
NMHLD	1	96	3	96
NMHLD	1	192	4	96
NMTAP	1	288	5
NMTAP	2	0	6
NMTAP	2	24	7
NMTAP	2	48	6
EXTAP	2	96	0
EXTAP	2	96	5
EXTAP	2	144	0
EXTAP	2	144	5
NMTTP	2	192	1	E	0	M1
NMTTP	2	216	6	E	0	M1
NMTTP	2	240	3	E	0	M1
NMTTP	2	264	4	E	0	M1
NMTHO	2	288	0	48	C	0	M1
NMTTP	3	0	2	B	0	M1
NMTTP	3	0	2	A	1	M1
NMTTP	3	0	2	D	0	M1
NMTTP	3	0	3	D	0	M1
NMTTP	3	0	5	B	0	M1
NMTTP	3	0	5	A	1	M1
NMTTP	3	0	5	D	0	M1
NMTTP	3	0	6	D	0	M1
NMTAP	3	144	0
NMTAP	3	144	1
NMTAP	3	192	0
NMSTR	3	192	1
NMSI_	3	192	1	96	48	4
BXTAP	3	288	7
NMTAP	4	0	6
NMTAP	4	0	7
BXTAP	4	48	6
BXTAP	4	48	7
NMTAP	4	144	4
NMTAP	4	144	5
NMTAP	4	192	4
NMSTR	4	192	5
NMSI_	4	192	5	96	48	2
BXTAP	5	0	0
BXTAP	5	0	1
BXTAP	5	96	2
BXTAP	5	96	3
NMTAP	5	192	1
NMTAP	5	216	0
NMTAP	5	240	1
NMTAP	5	264	0
BXSTR	5	288	1
NMSI_	5	288	1	96	48	3
NMTAP	6	0	7
BXSTR	6	48	7
NMSI_	6	48	7	96	48	5
NMTAP	6	144	4
NMHLD	6	192	4	96
NMTAP	6	288	5
NMTAP	6	336	5
BXTAP	7	0	4
BXTAP	7	0	6
NMSTR	7	96	5
NMSCL	7	96	5	96	48	2
NMTAP	7	192	1
BXTAP	7	288	0
BXTAP	7	288	1
NMTAP	8	0	2
NMTAP	8	0	3
BXTAP	8	48	2
BXTAP	8	48	3
NMTAP	8	144	1
NMTAP	8	168	0
NMHLD	8	192	1	96
NMTTP	8	288	2	E	0	M1
NMTTP	8	312	3	E	0	M1
NMTTP	8	336	4	E	0	M1
BXTAP	9	0	0
BXTAP	9	48	0
BXTAP	9	96	0
BXSTR	9	96	1
NMSI_	9	96	1	96	48	3
NMSTR	9	192	7
NMSI_	9	192	7	96	48	5
BXTAP	9	288	4
NMTAP	9	336	4
BXTAP	10	48	6
BXTAP	10	48	7
NMTAP	10	96	6
NMSTR	10	96	7
NMSCR	10	96	7	96	192	5
NMTHO	10	192	6	192	B	1	M1
NMTAP	11	144	6
NMTAP	11	144	7
NMTAP	11	192	0
NMTAP	11	192	5
NMHLD	11	240	1	96
NMTAP	11	240	4
NMHLD	11	336	3	96
NMTAP	12	48	2
NMTAP	12	96	3
NMTAP	12	144	4
NMTAP	12	192	3
NMHLD	12	192	5	96
NMTTP	12	288	6	B	0	M1
NMTTP	12	288	7	B	0	M1
NMTTP	12	288	7	E	0	M1
NMTAP	13	0	1
NMTAP	13	48	1
NMTAP	13	96	0
NMTAP	13	96	2
NMTAP	13	144	3
NMTAP	13	144	7
NMTTP	13	192	5	A	0	M1
NMTTP	13	192	6	E	0	M1
NMTTP	13	192	6	D	0	M1
NMTTP	13	240	0	A	0	M1
NMTTP	13	240	1	E	0	M1
NMTTP	13	240	1	D	0	M1
NMTTP	13	288	4	E	0	M1
NMTTP	13	288	4	A	0	M1
NMTTP	13	288	4	D	0	M1
NMTTP	13	336	0	C	0	M1
NMTAP	14	0	7
NMTAP	14	48	7
NMSTR	14	96	1
NMSCR	14	96	1	96	48	4
NMTAP	14	144	1
NMTTP	14	192	5	B	0	M1
NMTTP	14	192	6	B	0	M1
BRTAP	14	288	7
NMHLD	15	0	1	96
NMTAP	15	48	0
NMTAP	15	96	7
NMTAP	15	144	6
NMHLD	15	192	5	96
NMTAP	15	240	7
NMTAP	15	288	0
NMSTR	15	336	1
NMSI_	15	336	1	96	48	4
NMTAP	16	48	0
NMSTR	16	96	0
NMSI_	16	96	0	96	48	5
NMSTR	16	192	4
NMSI_	16	192	4	96	48	1
NMSI_	16	192	4	96	48	7
BRTAP	17	0	2
BRTAP	17	0	6
NMTAP	17	48	5
NMTAP	17	96	2
NMTAP	17	96	4
NMTAP	17	144	3
NMTAP	17	192	4
NMTAP	17	192	5
NMTAP	17	240	6
NMTAP	17	288	0
NMTAP	17	288	7
NMTAP	17	336	0
NMTAP	17	336	1
NMTAP	18	0	2
NMTAP	18	48	3
NMSTR	18	96	2
BRSUR	18	96	2	96	144	3
NMTAP	18	96	4
NMTTP	18	192	0	C	1	M1
CNSCR	18	336	3	0	48	5
BXHLD	19	0	7	192
NMSTR	19	192	4
NMSI_	19	192	4	96	48	2
NMTAP	19	288	5
NMSTR	19	336	5
NMSI_	19	336	5	96	48	1
NMTAP	20	48	0
NMTAP	20	96	0
NMTAP	20	192	1
EXTAP	20	240	0
EXTAP	20	240	1
EXSTR	20	288	0
NMSI_	20	288	0	96	48	4
EXTAP	20	288	1
NMSTR	21	0	2
NMSI_	21	0	2	96	48	7
NMTAP	21	96	5
NMTAP	21	192	6
NMTAP	21	288	0
NMTAP	21	288	1
NMHLD	21	336	0	96
NMTAP	21	336	1
NMTAP	22	48	2
NMTAP	22	96	2
NMTAP	22	144	2
NMSTR	22	192	3
NMSI_	22	192	3	96	48	0
NMSI_	22	192	3	96	48	5
NMTTP	22	288	3	A	0	M1
NMTTP	22	288	3	D	0	M1
NMTTP	22	288	4	D	0	M1
BXTAP	23	0	6
BXHLD	23	0	7	192
NMSTR	23	192	5
NMSI_	23	192	5	96	48	0
NMTAP	23	288	0
NMSTR	23	336	1
NMSI_	23	336	1	96	48	4
NMTAP	24	48	7
NMTAP	24	96	7
NMSTR	24	192	4
NMSI_	24	192	4	96	48	7
NMTAP	24	192	5
NMSTR	24	288	6
NMSCL	24	288	6	96	48	3
CNSI_	24	336	7	0	96	2
EXTAP	25	0	6
NMTAP	25	96	0
NMTAP	25	144	0
NMSTR	25	240	2
NMSCR	25	240	2	96	48	5
NMTAP	25	336	0
NMTAP	26	48	6
NMTAP	26	48	7
NMTAP	26	96	6
NMTAP	26	96	7
NMHLD	26	192	1	72
NMTAP	26	192	4
EXTAP	26	264	3
EXTAP	26	288	2
EXTAP	26	336	2
EXTAP	26	360	3
BXTAP	27	0	1
NMTAP	27	96	2
NMTAP	27	96	7
NMTAP	27	144	2
NMSTR	27	144	7
NMSI_	27	144	7	96	48	1
NMTAP	27	240	3
NMHLD	27	336	2	96
NMHLD	28	48	0	96
BRTAP	28	144	1
BRTAP	28	192	1
BRSTR	28	240	3
BRSXR	28	240	3	96	288	7
BRTAP	28	288	5
NMTTP	28	336	3	A	1	M1
BRTAP	28	336	7
NMTAP	29	240	6
NMTAP	29	288	5
NMHLD	29	336	4	240
NMTAP	30	48	7
NMTAP	30	96	7
NMTAP	30	192	0
NMTAP	30	240	0
NMSTR	30	288	1
NMSCL	30	288	1	96	96	6
NMSTR	31	0	6
NMSCL	31	0	6	96	96	3
NMTAP	31	240	7
NMSTR	31	288	6
NMSCR	31	288	6	96	192	4
NMTAP	31	336	5
NMTAP	32	240	0
NMSTR	32	288	1
NMSXR	32	288	1	96	288	6
NMTAP	32	336	2
NMHLD	33	0	3	384
CNSCL	33	288	6	0	96	2
NMTTP	34	192	0	A	0	M1
NMTTP	34	216	6	A	0	M1
NMTTP	34	240	2	E	0	M1
NMTTP	34	264	5	E	0	M1
NMTTP	34	288	3	B	1	M1
NMTTP	34	288	3	A	0	M1
EXTAP	34	336	0
EXTAP	34	336	7
BRTAP	35	0	1
BRSTR	35	0	6
BRSI_	35	0	6	96	48	1
NMSTR	35	96	2
NMSI_	35	96	2	96	48	7
NMTAP	35	144	3
NMSTR	35	192	4
NMSI_	35	192	4	96	48	0
NMTAP	35	240	5
NMSTR	35	288	1
NMSLR	35	288	1	96	96	5
NMTAP	35	336	2
NMTAP	36	0	7
NMTAP	36	48	7
NMTAP	36	96	7
NMSTR	36	144	6
NMSI_	36	144	6	96	48	4
NMSTR	36	192	7
NMSI_	36	192	7	96	48	3
NMSTR	36	240	6
NMSCR	36	240	6	96	96	4
NMTAP	36	288	7
NMTAP	36	336	6
NMTAP	37	48	7
NMTAP	37	96	0
NMTAP	37	144	1
NMTAP	37	192	2
NMTAP	37	192	3
NMTAP	37	240	3
NMTAP	37	240	4
NMTAP	37	288	4
NMTAP	37	288	5
NMTAP	37	336	3
NMTAP	37	336	6
NMTAP	38	0	2
NMTAP	38	0	7
NMTAP	38	48	1
EXTAP	38	72	0
NMTAP	38	96	1
NMTAP	38	144	3
NMTAP	38	144	4
NMSTR	38	192	6
NMSI_	38	192	6	96	48	2
NMSTR	38	192	7
NMSI_	38	192	7	96	48	3
NMTAP	38	240	0
NMTAP	38	240	5
NMTAP	38	288	6
NMTAP	38	288	7
NMHLD	39	0	0	48
NMHLD	39	0	5	48
NMHLD	39	96	2	48
NMHLD	39	96	7	48
NMTAP	39	192	1
NMTAP	39	192	5
NMSTR	39	240	2
NMSI_	39	240	2	96	48	7
NMTAP	39	240	4
NMTAP	39	288	1
NMTAP	39	288	5
BRTAP	39	336	2
NMTAP	39	336	4
NMTAP	40	48	4
NMSTR	40	48	5
NMSI_	40	48	5	96	48	0
NMTAP	40	96	3
NMTAP	40	96	6
BRHLD	40	144	4	96
BRTAP	40	144	5
BRTAP	40	240	7
BRTAP	40	288	7
BRTAP	40	336	3
BRTAP	40	336	5
BRHLD	41	0	1	96
BRTAP	41	0	7
NMTAP	41	96	0
NMSTR	41	144	2
NMSCL	41	144	2	96	48	7
EXTAP	41	144	7
NMTAP	41	240	5
NMTAP	41	288	5
NMTAP	41	336	5
NMTAP	42	0	6
NMTAP	42	0	7
NMTAP	42	48	6
NMTAP	42	48	7
NMTAP	42	96	0
NMTAP	42	96	1
NMTAP	42	144	0
NMTAP	42	144	1
NMTAP	42	192	7
NMTAP	42	204	6
NMTAP	42	216	5
NMTAP	42	228	4
NMTAP	42	240	3
NMTAP	42	252	2
NMTAP	42	264	1
NMTAP	42	276	0
BXTAP	42	288	2
BXSTR	42	288	7
BRSI_	42	288	7	96	48	2
NMSTR	43	0	3
BRSI_	43	0	3	96	48	0
NMTTP	43	0	7	A	1	M1
NMSTR	43	96	5
BRSI_	43	96	5	96	48	0
NMTAP	43	144	6
NMSTR	43	192	2
BRSI_	43	192	2	96	48	7
NMTAP	43	240	1
NMSTR	43	288	3
BRSCR	43	288	3	96	48	6
NMTAP	43	336	4
EXHLD	44	0	0	24
EXHLD	44	48	0	24
EXTAP	44	96	0
NMTAP	44	144	1
NMTAP	44	144	7
NMTAP	44	192	4
NMTAP	44	192	6
NMTAP	44	240	3
NMTAP	44	240	5
NMTAP	44	288	2
NMSTR	44	288	4
NMSCL	44	288	4	96	48	1
NMTAP	44	336	3
NMTAP	44	336	5
NMSTR	45	0	4
NMSCR	45	0	4	96	48	7
NMTAP	45	0	6
NMTAP	45	96	2
NMSTR	45	96	4
NMSF_	45	96	4	96	48	0
NMTAP	45	192	4
NMTAP	45	288	2
NMTAP	45	288	6
EXTAP	46	0	0
NMTAP	46	0	1
EXTAP	46	48	0
NMTAP	46	48	1
NMTAP	46	96	2
NMTAP	46	96	3
NMTAP	46	144	4
NMTAP	46	144	5
NMSTR	46	192	6
BRSCL	46	192	6	96	48	3
NMSTR	46	192	7
BRSUL	46	192	7	96	48	2
NMTAP	46	240	0
NMSTR	47	0	0
NMSI_	47	0	0	96	48	4
NMSTR	47	0	1
NMSI_	47	0	1	96	48	3
NMSTR	47	96	0
NMSI_	47	96	0	96	48	6
NMSTR	47	96	1
NMSI_	47	96	1	96	48	5
NMSTR	47	192	0
NMSF_	47	192	0	96	48	4
NMTAP	47	192	1
NMTTP	47	288	0	A	1	M1
NMTTP	47	288	0	D	0	M1
NMTTP	47	288	1	D	0	M1
NMSTR	48	0	6
NMSI_	48	0	6	96	48	4
NMSTR	48	0	7
NMSI_	48	0	7	96	48	3
NMSTR	48	96	6
NMSI_	48	96	6	96	48	2
NMSTR	48	96	7
NMSI_	48	96	7	96	48	1
NMTAP	48	192	6
NMSTR	48	192	7
NMSF_	48	192	7	96	48	3
NMTTP	48	288	0	D	0	M1
NMTTP	48	288	7	A	1	M1
NMTTP	48	288	7	D	0	M1
NMTAP	49	0	1
NMTAP	49	0	5
NMTAP	49	48	1
NMTAP	49	48	5
NMTAP	49	96	2
NMTAP	49	96	6
NMTAP	49	144	2
NMTAP	49	144	6
NMTAP	49	192	3
NMTAP	49	192	7
NMTAP	49	240	2
NMTAP	49	240	6
NMTAP	49	288	1
NMTAP	49	288	5
NMTAP	49	336	0
NMTAP	49	336	4
NMHLD	50	0	3	192
NMTAP	50	0	7
NMSTR	50	192	7
BRSI_	50	192	7	96	48	3
NMTAP	50	216	0
NMTAP	50	240	1
NMTAP	50	264	2
NMTAP	50	288	3
BXTAP	50	288	7
BRTAP	51	0	1
BRTAP	51	0	5
NMTAP	51	48	2
NMTAP	51	72	3
NMTAP	51	96	2
NMTAP	51	144	2
NMTAP	51	168	3
NMTAP	51	192	2
NMTAP	51	240	2
NMTAP	51	264	3
NMTAP	51	288	2
NMTAP	51	336	2
NMTAP	51	360	3
NMTAP	52	0	2
NMTAP	52	48	1
NMTAP	52	72	0
NMTAP	52	96	1
NMTAP	52	144	1
NMTAP	52	168	0
NMTAP	52	192	1
NMTAP	52	240	1
NMTAP	52	264	0
NMTAP	52	288	1
NMTAP	52	336	1
NMTAP	52	360	0
NMTAP	53	0	1
NMTAP	53	48	6
NMTAP	53	72	7
NMTAP	53	96	6
NMTAP	53	144	6
NMTAP	53	168	7
NMTAP	53	192	6
NMTAP	53	240	6
NMTAP	53	264	7
NMTAP	53	288	6
NMTAP	53	336	6
NMTAP	53	360	7
NMTAP	54	0	6
NMTAP	54	48	5
NMTAP	54	72	4
NMTAP	54	96	5
NMTAP	54	144	5
NMTAP	54	168	3
NMSTR	54	192	4
BRSF_	54	192	4	96	48	0
NMTAP	54	240	3
NMTAP	54	240	5
BXTAP	55	0	2
BXTAP	55	0	6
NMTAP	55	48	5
NMTAP	55	72	4
NMTAP	55	96	5
NMTAP	55	144	5
NMTAP	55	168	4
NMTAP	55	192	5
NMTAP	55	240	5
NMTAP	55	264	4
NMTAP	55	288	5
NMTAP	55	336	3
NMTAP	55	360	4
NMTAP	56	0	2
NMTAP	56	48	2
NMTAP	56	72	3
NMTAP	56	96	2
NMTAP	56	144	2
NMTAP	56	168	3
NMTAP	56	192	2
NMTAP	56	240	2
NMTAP	56	264	3
NMTAP	56	288	2
NMTAP	56	336	2
NMTAP	56	360	3
NMTAP	57	0	1
NMTAP	57	48	1
NMTAP	57	72	0
NMTAP	57	96	1
NMTAP	57	144	1
NMTAP	57	168	0
NMTAP	57	192	1
NMTAP	57	240	1
NMTAP	57	264	0
NMTAP	57	288	1
NMTAP	57	336	7
NMTAP	57	360	0
NMTAP	58	0	7
NMTAP	58	48	6
NMTAP	58	72	7
NMSTR	58	96	6
BRSI_	58	96	6	96	48	1
NMTAP	58	144	4
NMTAP	58	192	2
BRTAP	59	0	1
BRTAP	59	0	7
NMTAP	59	48	1
NMTAP	59	72	3
NMTAP	59	96	2
NMTAP	59	144	2
NMTAP	59	168	3
NMTAP	59	192	2
NMTAP	59	240	2
NMTAP	59	264	3
NMTAP	59	288	1
NMTAP	59	336	7
NMTAP	59	360	0
NMTAP	60	0	6
NMTAP	60	48	6
NMTAP	60	72	4
NMTAP	60	96	5
NMTAP	60	144	5
NMTAP	60	168	4
NMTAP	60	192	5
NMTAP	60	240	5
NMTAP	60	264	4
NMTAP	60	288	6
NMTAP	60	336	0
NMTAP	60	360	7
NMTAP	61	0	1
NMTAP	61	48	1
NMTAP	61	72	3
NMTAP	61	96	2
NMTAP	61	144	2
NMTAP	61	168	3
NMTAP	61	192	2
NMTAP	61	240	2
NMTAP	61	264	3
NMTAP	61	288	1
NMTAP	61	336	1
NMTAP	61	360	0
NMTAP	62	0	1
NMTAP	62	48	6
NMTAP	62	72	7
NMTAP	62	96	6
NMTAP	62	144	0
NMTAP	62	168	7
BRTAP	62	192	0
EXTAP	62	240	0
EXTAP	62	240	1
EXTAP	62	264	2
EXTAP	62	264	7
EXTAP	62	288	3
EXTAP	62	288	6
EXTAP	62	336	3
EXTAP	62	336	6
NMTAP	63	0	4
NMTAP	63	0	5
NMTAP	63	48	2
NMTAP	63	72	3
NMTAP	63	96	1
NMTAP	63	144	1
NMTAP	63	168	3
NMTAP	63	192	2
NMTAP	63	240	5
NMTAP	63	264	4
NMTAP	63	288	6
NMTAP	63	336	6
NMTAP	63	360	4
NMTAP	64	0	5
NMTAP	64	48	1
NMTAP	64	72	0
NMTAP	64	96	2
NMTAP	64	144	2
NMTAP	64	168	0
NMTAP	64	192	1
NMTAP	64	240	6
NMTAP	64	264	7
NMTAP	64	288	5
NMTAP	64	336	5
NMTAP	64	360	7
NMTAP	65	0	6
NMTAP	65	48	1
NMTAP	65	72	3
NMTAP	65	96	2
NMTAP	65	144	6
NMTAP	65	168	4
NMTAP	65	192	5
NMTAP	65	240	1
NMTAP	65	264	0
NMTAP	65	288	2
NMTAP	65	336	3
NMTAP	65	336	7
NMTAP	66	0	2
NMTAP	66	0	6
NMTAP	66	48	2
NMTAP	66	48	6
NMTAP	66	96	3
NMTAP	66	96	5
NMTAP	66	144	3
NMTAP	66	144	5
NMTAP	66	192	2
NMTAP	66	192	4
NMTAP	66	240	2
NMTAP	66	240	4
NMTAP	66	288	1
NMSTR	66	288	5
NMSI_	66	288	5	96	48	0
NMTAP	66	336	0
NMTAP	66	336	6
BRHLD	67	0	1	672
BRTAP	67	0	5
NMSTR	68	288	7
NMSI_	68	288	7	96	48	3
NMTTP	69	0	0	C	1	M1
EXTAP	69	0	7
NMTAP	69	96	0
NMTAP	69	144	0
NMTAP	69	192	1
NMTAP	69	192	3
NMTAP	69	240	1
NMTAP	69	240	3
NMTAP	69	288	2
NMTAP	69	288	4
NMTAP	69	336	2
NMHLD	69	336	4	96
NMTAP	70	48	5
NMTAP	70	96	3
NMTAP	70	144	2
NMSTR	70	192	1
NMSI_	70	192	1	96	48	4
NMSTR	70	192	5
NMSI_	70	192	5	96	48	0
NMTAP	71	0	3
NMTAP	71	48	2
NMTAP	71	96	1
NMTAP	71	96	6
NMTAP	71	144	1
NMTAP	71	144	6
NMTAP	71	192	1
NMTAP	71	192	6
BRTAP	71	240	0
NMHLD	71	240	7	24
BRTAP	71	288	0
NMHLD	71	288	7	24
BRTAP	71	336	0
NMHLD	71	336	7	24
BRTAP	72	0	0
NMHLD	72	0	6	24
BRTAP	72	48	0
NMHLD	72	48	5	24
BRTAP	72	96	0
NMHLD	72	96	4	24
BRTAP	72	144	0
NMHLD	72	144	3	24
BRTAP	72	192	0
NMHLD	72	192	2	24
BRTAP	72	240	0
NMHLD	72	240	1	24
BRTAP	72	288	0
NMHLD	72	288	7	24
BRTAP	72	336	0
NMHLD	72	336	7	24
NMTTP	73	0	1	A	0	M1
NMTTP	73	48	2	A	0	M1
NMTTP	73	96	3	A	0	M1
NMTHO	73	144	4	96	A	0	M1
NMTHO	73	144	5	96	A	0	M1
NMTHO	73	144	5	96	D	0	M1
NMTAP	73	240	7
NMTAP	73	288	7
NMTAP	73	336	0
NMTAP	73	336	6
NMSTR	74	0	1
NMSI_	74	0	1	96	48	4
NMTAP	74	48	1
NMSTR	74	96	5
NMSUL	74	96	5	96	192	3
NMTAP	74	144	5
NMTTP	74	192	0	C	1	M1
BXHLD	75	0	0	192
NMTAP	75	144	3
NMSTR	75	192	3
NMSLR	75	192	3	96	144	0
NMTAP	75	288	0
NMSTR	75	336	0
NMSCR	75	336	0	96	144	5
NMTTP	76	48	2	E	0	M1
NMTTP	76	96	3	E	0	M1
NMSTR	76	192	6
NMSI_	76	192	6	96	48	3
BRTAP	77	0	2
BRTAP	77	0	4
BXTAP	77	96	1
NMTAP	77	120	3
NMTAP	77	144	1
NMTAP	77	168	3
NMTAP	77	192	2
NMTAP	77	216	4
NMTAP	77	240	2
NMTAP	77	264	4
BXTAP	77	288	3
NMTAP	77	312	5
NMTAP	77	336	3
NMTAP	77	360	5
NMTAP	78	0	2
NMTAP	78	24	4
BXTAP	78	48	2
NMTAP	78	72	4
BXTAP	78	96	1
NMTAP	78	120	3
NMTAP	78	144	1
NMTAP	78	168	3
BXTAP	78	192	0
NMTAP	78	216	2
NMTAP	78	240	0
NMTAP	78	264	2
NMSTR	78	288	7
NMSI_	78	288	7	96	48	3
NMTAP	78	312	1
NMTAP	78	336	7
NMTAP	78	360	1
BRTAP	79	0	7
EXTAP	79	96	2
EXTAP	79	96	4
NMTAP	79	144	2
NMTAP	79	168	3
NMHLD	79	192	1	96
NMTAP	79	288	0
NMTAP	79	336	3
NMTAP	79	336	7
NMTAP	80	48	6
NMTAP	80	48	7
NMTAP	80	96	0
NMSTR	80	96	4
NMSSL	80	96	4	96	144	0
BXHLD	81	0	1	96
BXTAP	81	0	7
NMTAP	81	96	7
NMTAP	81	120	6
NMTAP	81	144	5
NMTAP	81	168	4
NMTAP	81	192	0
NMTAP	81	216	1
NMTAP	81	240	2
NMTAP	81	264	3
NMTAP	81	288	7
NMTAP	81	336	7
NMTAP	82	0	0
NMTAP	82	24	6
NMTAP	82	48	0
NMTAP	82	72	6
NMTAP	82	96	1
NMTAP	82	120	5
NMTAP	82	144	1
NMTAP	82	168	5
BRTAP	82	192	2
BRTAP	82	240	4
BRSTR	82	288	6
NMSSR	82	288	6	96	144	2
BRTAP	82	336	1
BRTAP	83	0	3
NMTAP	83	240	2
NMTAP	83	240	3
NMTAP	83	288	1
NMHLD	83	336	0	96
NMSTR	84	48	7
BRSI_	84	48	7	96	48	2
BXTAP	84	144	1
BXTAP	84	192	1
CNSI_	84	192	2	0	48	4
CNSI_	84	240	4	0	96	0
BXTAP	84	288	2
NMTAP	85	0	3
NMTAP	85	48	3
NMTAP	85	96	0
NMTAP	85	96	2
NMHLD	85	144	1	96
NMTAP	85	144	7
NMTAP	85	240	7
NMTAP	85	288	0
NMTAP	85	288	6
NMTAP	85	336	5
NMTAP	85	336	7
NMTAP	86	0	0
NMTAP	86	0	4
NMTAP	86	48	1
NMTAP	86	48	3
NMTAP	86	96	2
NMTAP	86	96	4
NMTAP	86	144	3
NMTAP	86	144	5
NMTAP	86	192	4
NMTAP	86	192	6
NMTAP	86	240	4
NMTAP	86	240	6
BRTAP	86	288	3
BRTAP	86	288	7
NMSTR	87	0	1
NMSCL	87	0	1	96	192	3
NMHLD	87	0	5	96
NMSTR	87	192	3
NMSCL	87	192	3	96	192	5
NMSTR	88	0	5
NMSCL	88	0	5	96	192	7
NMTAP	88	192	6
NMTAP	89	0	7
NMTAP	89	48	7
NMTAP	89	96	5
NMTAP	89	144	5
NMTAP	89	192	3
NMTAP	89	240	3
NMSTR	89	288	1
NMSI_	89	288	1	96	48	5
NMTAP	89	336	1
NMHLD	90	0	7	192
NMSTR	90	192	0
NMSI_	90	192	0	96	48	4
NMTAP	90	216	1
NMTAP	90	240	2
NMTAP	90	264	3
NMTAP	90	288	0
NMTAP	90	288	4
CNSI_	90	336	4	0	48	6
NMTTP	91	0	0	E	1	M1
NMTTP	91	0	7	B	0	M1
NMTTP	91	0	7	A	1	M1
NMTAP	91	288	0
NMSTR	91	288	6
NMSUL	91	288	6	96	96	2
CNSCR	92	96	2	0	96	5
CNSV_	92	192	5	0	192	0
BXHLD	93	0	2	288
NMSTR	93	288	1
NMSUL	93	288	1	96	96	5
CNSCR	94	96	5	0	96	0
CNSUL	94	192	0	0	192	3
BXHLD	95	0	1	192
BXHLD	95	192	3	192
BXHLD	96	0	5	192
BXHLD	96	192	7	192
NMTAP	97	0	0
NMTAP	97	96	5
NMTAP	97	96	7
NMTAP	97	192	3
NMTAP	97	192	5
NMTAP	97	288	1
NMTAP	97	288	3
NMTAP	98	0	0
NMTAP	98	0	4
NMTAP	98	48	0
NMTAP	98	48	4
NMTAP	98	96	1
NMTAP	98	96	3
NMTAP	98	144	1
NMTAP	98	144	3
NMSTR	98	192	2
BRSCL	98	192	2	96	48	7
NMSTR	98	192	4
BRSV_	98	192	4	96	48	7
NMTTP	98	288	2	A	0	M1
NMTTP	98	288	3	A	1	M1
NMTTP	98	288	3	D	0	M1
NMTTP	98	288	4	A	0	M1
NMTTP	98	288	4	D	0	M1
BRHLD	99	0	0	24
BRHLD	99	0	6	24
NMHLD	99	48	0	24
NMHLD	99	48	6	24
NMHLD	99	96	4	24
NMHLD	99	96	5	24
NMHLD	99	144	2	24
NMHLD	99	144	3	24
NMHLD	99	192	0	24
NMHLD	99	192	1	24
NMHLD	99	240	6	24
NMHLD	99	240	7	24
NMHLD	99	288	0	24
NMHLD	99	288	5	24
NMHLD	99	336	1	24
NMHLD	99	336	4	24
NMTAP	100	0	2
NMTAP	100	24	3
NMTAP	100	48	2
NMTAP	100	72	3
NMSTR	100	96	1
BRSI_	100	96	1	96	48	5
NMTAP	100	144	0
BRTAP	100	192	1
NMSTR	100	192	7
BRSI_	100	192	7	96	48	3
NMTAP	100	240	6
NMSTR	100	288	0
NMSI_	100	288	0	96	48	5
BRTAP	100	288	7
NMTAP	100	336	1
NMTAP	101	0	0
NMSTR	101	0	2
NMSI_	101	0	2	96	48	7
NMTAP	101	48	3
NMTAP	101	96	2
NMSTR	101	96	4
NMSI_	101	96	4	96	48	1
NMTAP	101	144	5
NMTAP	101	192	4
NMSTR	101	192	6
NMSI_	101	192	6	96	48	3
NMTAP	101	240	7
NMSTR	101	288	0
NMSCL	101	288	0	96	48	5
NMTAP	101	288	6
NMTAP	101	336	1
NMTAP	102	0	0
NMTAP	102	0	2
NMTAP	102	48	3
NMTAP	102	72	3
NMSTR	102	96	4
BRSF_	102	96	4	96	48	0
NMTAP	102	144	3
NMTAP	102	144	5
BRTAP	102	192	4
BXTAP	102	288	2
BXSTR	102	288	6
BRSI_	102	288	6	96	48	2
BXTAP	102	312	3
BXTAP	102	312	5
BXTAP	102	336	4
NMSTR	103	0	0
NMSI_	103	0	0	96	48	5
NMTAP	103	0	6
NMTAP	103	96	0
NMSTR	103	96	3
NMSI_	103	96	3	96	48	7
NMTAP	103	144	4
NMSTR	103	192	2
NMSI_	103	192	2	96	48	0
NMTAP	103	192	3
NMTAP	103	240	1
NMTAP	103	288	2
BRSTR	103	288	6
NMSI_	103	288	6	96	48	3
NMTAP	103	336	5
NMSTR	104	0	2
NMSI_	104	0	2	96	48	7
NMTAP	104	0	6
NMTAP	104	48	1
NMTAP	104	96	2
NMSTR	104	96	4
NMSI_	104	96	4	96	48	0
BRTAP	104	144	5
NMSTR	104	192	1
NMSCR	104	192	1	96	48	4
NMTAP	104	192	4
NMTAP	104	240	2
BRTAP	104	288	1
BRTAP	104	288	7
NMTAP	105	0	6
NMTAP	105	48	6
NMTAP	105	96	0
NMTAP	105	96	1
NMTAP	105	144	2
NMTAP	105	144	3
NMTAP	105	192	4
NMTAP	105	192	6
NMTAP	105	240	0
NMTAP	105	240	7
NMTAP	105	288	2
NMSTR	105	288	3
NMSCL	105	288	3	96	48	0
NMTAP	105	336	4
BXTAP	106	0	3
BXHLD	106	0	5	192
NMTAP	106	192	0
NMTAP	106	204	1
NMTAP	106	216	2
NMTAP	106	228	3
NMTAP	106	240	4
NMTAP	106	252	5
NMTAP	106	264	6
NMTAP	106	276	7
BRSTR	106	288	0
NMSI_	106	288	0	96	48	2
NMSTR	107	0	0
NMSCL	107	0	0	96	48	6
NMHLD	107	0	3	48
NMSTR	107	96	0
NMSCR	107	96	0	96	48	2
NMHLD	107	96	3	48
NMSTR	107	192	0
NMSI_	107	192	0	96	48	6
NMHLD	107	192	3	48
NMSTR	107	288	0
NMSI_	107	288	0	96	48	3
NMHLD	107	288	3	48
NMSTR	108	0	0
NMSI_	108	0	0	96	48	5
NMHLD	108	0	4	48
NMSTR	108	96	0
NMSCR	108	96	0	96	48	3
NMHLD	108	96	4	48
NMSTR	108	192	0
NMSCL	108	192	0	96	48	5
NMHLD	108	192	4	48
NMSTR	108	288	0
NMSI_	108	288	0	96	48	2
NMHLD	108	288	4	48
NMSTR	109	0	0
NMSI_	109	0	0	96	48	6
NMHLD	109	0	3	48
NMSTR	109	96	0
NMSCR	109	96	0	96	48	2
NMHLD	109	96	5	48
NMSTR	109	192	0
NMSCL	109	192	0	96	48	6
NMHLD	109	192	3	48
NMSTR	109	288	0
NMSCR	109	288	0	96	48	2
NMHLD	109	288	5	48
NMSTR	110	0	0
NMSI_	110	0	0	96	48	6
NMHLD	110	0	3	48
NMSTR	110	96	0
NMSI_	110	96	0	96	48	4
NMHLD	110	96	5	48
NMTAP	110	192	0
EXTAP	110	240	6
EXSTR	110	288	7
NMSCL	110	288	7	96	48	4
BXTAP	110	336	3
NMHLD	111	0	1	48
NMSTR	111	0	7
NMSI_	111	0	7	96	48	2
NMHLD	111	96	3	48
NMSTR	111	96	7
NMSI_	111	96	7	96	48	5
NMHLD	111	192	1	48
NMSTR	111	192	7
NMSI_	111	192	7	96	48	3
BRSTR	111	288	0
NMSI_	111	288	0	96	48	5
BRTAP	111	288	7
NMSTR	112	0	0
NMSCR	112	0	0	96	48	2
NMHLD	112	0	4	48
NMSTR	112	96	0
NMSCL	112	96	0	96	48	6
NMHLD	112	96	3	48
NMTAP	112	192	0
NMHLD	112	192	5	48
NMTAP	112	288	1
NMTAP	112	288	4
NMTAP	112	336	1
NMTAP	112	336	4
NMSTR	113	0	2
BRSI_	113	0	2	96	48	7
NMTAP	113	24	3
NMTAP	113	72	3
NMTAP	113	96	2
NMTAP	113	144	5
NMSTR	113	192	6
BRSI_	113	192	6	96	48	3
NMTAP	113	216	0
NMTAP	113	264	0
NMTAP	113	288	6
NMTAP	113	336	1
NMTAP	114	0	2
NMTAP	114	0	4
NMTAP	114	48	2
NMTAP	114	48	4
NMSTR	114	96	1
BRSI_	114	96	1	96	48	6
NMTAP	114	96	3
NMTAP	114	144	0
NMTAP	114	144	7
BXTAP	114	192	5
BRTAP	115	0	0
BRTAP	115	0	6
NMTAP	115	48	1
NMTAP	115	72	3
NMHLD	115	96	2	48
NMTAP	115	144	6
NMTAP	115	168	4
NMHLD	115	192	5	48
NMTAP	115	240	1
NMTAP	115	264	3
NMHLD	115	288	2	48
NMTAP	115	336	7
NMTAP	115	360	4
NMHLD	116	0	5	48
NMTAP	116	48	0
NMTAP	116	72	3
NMHLD	116	96	2	48
NMTAP	116	144	7
NMTAP	116	168	4
NMHLD	116	192	5	48
NMTAP	116	240	0
NMTAP	116	264	3
NMHLD	116	288	2	48
NMTAP	116	336	7
BXHLD	117	0	3	48
BXHLD	117	0	6	48
NMTAP	117	72	4
NMTAP	117	72	5
NMTAP	117	96	4
NMTAP	117	96	5
NMTAP	117	144	3
NMTAP	117	144	6
NMTAP	117	192	2
NMTAP	117	192	7
NMTAP	117	240	0
NMTAP	117	240	1
NMTAP	117	288	2
NMSTR	117	288	7
BRSCL	117	288	7	96	48	4
EXTAP	117	360	3
EXTAP	118	0	3
NMSTR	118	0	7
BRSCR	118	0	7	96	48	2
EXTAP	118	96	5
EXTAP	118	96	7
NMTAP	118	192	4
NMTAP	118	192	6
NMTAP	118	240	4
NMTAP	118	240	6
BRTAP	118	288	0
BRTAP	118	288	7
NMTAP	118	336	1
NMTAP	118	336	3
NMSTR	119	0	2
NMSI_	119	0	2	96	48	7
NMTAP	119	0	4
NMTAP	119	48	5
NMTAP	119	72	5
NMSTR	119	96	2
NMSI_	119	96	2	96	48	4
NMTAP	119	144	6
NMTAP	119	168	6
NMTAP	119	192	2
NMTAP	119	240	5
NMTAP	119	264	5
EXTAP	119	288	7
NMTAP	119	336	0
NMTAP	119	336	6
NMSTR	120	0	5
NMSI_	120	0	5	96	48	3
NMTAP	120	48	1
NMTAP	120	72	1
NMSTR	120	96	5
NMSI_	120	96	5	96	48	0
NMTAP	120	144	2
NMTAP	120	168	2
NMTAP	120	192	5
NMTAP	120	240	1
NMTAP	120	264	1
NMTAP	120	288	7
NMTAP	120	336	2
NMTAP	120	336	7
NMTAP	121	0	1
NMTAP	121	24	0
NMTAP	121	72	0
NMTAP	121	96	3
NMTAP	121	120	0
NMTAP	121	168	0
NMTAP	121	192	5
NMTAP	121	216	0
NMTAP	121	264	0
NMTAP	121	288	3
NMTAP	121	312	0
NMTAP	121	360	0
NMTAP	122	0	1
NMTAP	122	24	0
NMTAP	122	72	0
NMTAP	122	72	1
NMTAP	122	96	2
NMTAP	122	96	7
NMTAP	122	120	3
NMTAP	122	120	6
NMTAP	122	168	6
NMTAP	122	168	7
NMTAP	122	192	0
NMTAP	122	192	5
NMTAP	122	216	1
NMTAP	122	216	4
NMTAP	122	264	0
NMSTR	122	264	7
BRSF_	122	264	7	96	24	3
NMTAP	122	288	1
NMTAP	122	288	6
NMTAP	122	312	2
NMTAP	122	312	5

T_REC_TAP	671
T_REC_BRK	52
T_REC_XTP	36
T_REC_BXX	41
T_REC_HLD	79
T_REC_XHO	2
T_REC_BHO	5
T_REC_BXH	12
T_REC_STR	122
T_REC_BST	6
T_REC_XST	2
T_REC_XBS	5
T_REC_TTP	63
T_REC_THO	5
T_REC_SLD	111
T_REC_BSL	26
T_REC_ALL	1238
T_NUM_TAP	894
T_NUM_BRK	147
T_NUM_HLD	86
T_NUM_SLD	111
T_NUM_ALL	1238
T_JUDGE_TAP	998
T_JUDGE_HLD	190
T_JUDGE_SLD	137
T_JUDGE_ALL	1325
TTM_EACHPAIRS	250
TTM_SCR_TAP	447000
TTM_SCR_BRK	382200
TTM_SCR_HLD	86000
TTM_SCR_SLD	166500
TTM_SCR_ALL	1081700
TTM_SCR_S	1035000
TTM_SCR_SS	1067000
TTM_RAT_ACV	10137

