VERSION	0.00.00	1.05.00
FES_MODE	0
BPM_DEF	180.000	180.000	180.000	180.000
MET_DEF	4	4
RESOLUTION	384
CLK_DEF	384
COMPATIBLE_CODE	MA2

BPM	0	0	180.000
MET	0	0	4	4

EXTAP	1	0	3
EXTAP	1	144	3
EXSTR	1	288	4
NMSUL	1	288	4	96	192	3
NMTAP	2	288	2
NMHLD	3	0	2	96
NMHLD	3	0	3	96
NMTTP	3	192	3	E	0	M1
NMHLD	3	288	1	144
NMHLD	4	48	3	144
EXTAP	4	192	2
NMTAP	4	288	3
NMTAP	4	288	4
NMTAP	5	0	5
NMTAP	5	48	5
NMTAP	5	96	4
NMTAP	5	192	3
NMTAP	5	192	6
NMHLD	5	288	5	144
NMHLD	6	48	4	144
NMTAP	6	192	6
BRTAP	6	288	3
BRTAP	6	288	7
NMHLD	7	0	0	96
NMHLD	7	0	1	96
NMTTP	7	192	1	E	0	M1
NMHLD	7	288	2	144
NMHLD	8	48	0	144
NMTAP	8	192	1
NMTAP	8	288	0
NMTAP	8	288	7
NMTAP	9	0	6
NMTAP	9	48	6
NMTAP	9	96	7
NMTAP	9	192	0
NMTAP	9	192	5
NMSTR	9	288	1
NMSUL	9	288	1	96	192	4
NMSTR	9	288	6
NMSUR	9	288	6	96	192	3
NMTAP	10	288	2
NMTAP	10	288	5
NMTAP	11	0	1
NMTAP	11	48	1
NMTAP	11	96	3
NMTAP	11	144	3
NMTAP	11	192	2
NMTAP	11	288	3
NMTAP	11	288	4
NMTAP	11	336	3
NMTAP	11	336	4
NMTAP	12	48	5
NMTAP	12	96	5
NMHLD	12	192	4	96
NMHLD	12	192	6	96
NMTAP	13	0	6
NMTAP	13	48	6
NMTAP	13	96	4
NMTAP	13	144	4
NMTAP	13	192	5
NMTAP	13	288	3
NMTAP	13	288	4
NMTAP	13	336	3
NMTAP	13	336	4
NMTAP	14	48	1
NMTAP	14	48	3
NMTAP	14	96	1
NMTAP	14	96	3
BRTAP	14	192	0
BRTAP	14	192	4
NMTAP	15	0	5
NMTAP	15	48	5
NMTAP	15	96	7
NMTAP	15	144	7
NMTAP	15	192	0
NMTAP	15	192	6
NMTAP	15	288	1
NMTAP	15	288	7
NMTAP	16	0	2
NMTAP	16	48	2
NMTAP	16	96	0
NMTAP	16	144	0
NMTAP	16	192	1
NMTAP	16	192	7
NMTAP	16	288	0
NMTAP	16	288	6
NMTAP	17	0	5
NMTAP	17	96	4
NMTAP	17	96	6
NMTAP	17	192	2
NMTAP	17	288	1
NMTAP	17	288	3
NMTAP	18	0	0
NMTAP	18	0	7
NMTAP	18	48	0
NMTAP	18	48	7
NMTAP	18	96	0
NMTAP	18	96	7
BRTAP	18	192	1
BRTAP	18	192	6
NMHLD	19	0	2	192
NMHLD	19	192	3	384
NMTHO	20	0	2	192	E	0	M1
NMHLD	21	0	5	192
NMHLD	21	192	4	384
NMTHO	22	0	6	192	E	0	M1
NMHLD	23	0	2	192
NMHLD	23	192	3	384
NMTHO	24	0	1	192	B	0	M1
NMHLD	25	0	5	192
NMHLD	25	192	4	384
NMTHO	26	0	7	192	E	0	M1
NMSTR	27	0	5
NMSCR	27	0	5	96	96	0
NMSTR	27	192	1
NMSUR	27	192	1	96	96	5
NMTAP	28	0	7
NMTAP	28	96	7
NMTAP	28	192	4
NMTAP	28	192	6
NMTAP	28	288	4
NMTAP	28	288	6
NMSTR	29	0	3
NMSUL	29	0	3	96	96	7
NMSTR	29	192	6
NMSUL	29	192	6	96	96	2
NMTAP	30	0	0
NMTAP	30	96	0
NMTAP	30	192	1
NMTAP	30	192	3
NMTAP	30	288	1
NMTAP	30	288	3
NMTAP	31	0	6
NMHLD	31	96	6	192
NMTAP	31	192	4
NMTAP	31	288	4
NMTAP	32	0	1
NMHLD	32	96	1	192
NMTAP	32	192	3
NMTAP	32	288	3
NMTAP	33	0	1
NMTAP	33	48	1
NMTAP	33	96	0
NMTAP	33	192	6
NMTAP	33	240	6
NMTAP	33	288	7
NMHLD	34	0	0	192
NMHLD	34	0	7	192
BRTAP	35	0	0
BRTAP	35	0	6
NMTAP	35	48	0
NMTAP	35	48	6
NMTAP	35	96	0
NMTAP	35	96	6
NMTAP	35	192	1
NMTAP	35	192	7
NMTAP	35	240	1
NMTAP	35	240	7
NMTAP	35	288	1
NMTAP	35	288	7
NMTAP	36	0	2
NMTAP	36	0	6
NMSTR	36	96	1
NMSCR	36	96	1	96	96	4
NMSTR	36	96	5
NMSCR	36	96	5	96	96	0
NMTAP	37	0	6
NMTAP	37	48	6
NMTAP	37	96	5
NMTAP	37	96	7
NMTAP	37	192	1
NMTAP	37	240	1
NMTAP	37	288	0
NMTAP	37	288	2
EXTAP	38	0	3
EXTAP	38	0	7
NMSTR	38	96	3
NMSI_	38	96	3	96	48	1
NMSTR	38	96	7
NMSI_	38	96	7	96	48	5
EXTAP	38	288	0
EXTAP	38	288	4
NMTAP	39	0	6
NMTAP	39	0	7
NMTAP	39	96	4
NMTAP	39	96	5
NMTAP	39	192	2
NMTAP	39	192	3
NMTAP	39	288	0
NMTAP	39	288	1
NMTAP	40	0	6
NMTAP	40	0	7
NMTAP	40	96	4
NMTAP	40	96	5
NMTAP	40	192	2
NMTAP	40	192	3
NMTAP	40	288	2
NMTAP	40	288	3
NMSTR	41	0	4
NMSCR	41	0	4	96	48	7
NMSTR	41	192	3
NMSCL	41	192	3	96	48	0
NMSTR	42	0	4
NMSCR	42	0	4	96	48	7
NMTAP	42	192	0
BRTAP	42	288	1
BRTAP	42	288	7
NMTAP	43	0	6
NMTAP	43	0	7
NMTAP	43	48	6
NMTAP	43	48	7
NMTAP	43	96	6
NMTAP	43	96	7
NMTAP	43	192	0
NMTAP	43	192	1
NMTAP	43	240	0
NMTAP	43	240	1
NMTAP	43	288	0
NMTAP	43	288	1
NMSTR	44	0	2
NMSCL	44	0	2	96	96	7
NMSTR	44	192	5
NMSCR	44	192	5	96	96	0
NMTAP	45	0	1
NMTAP	45	48	1
NMTAP	45	96	0
NMTAP	45	96	2
NMTAP	45	192	6
NMTAP	45	240	6
NMTAP	45	288	5
NMTAP	45	288	7
EXTAP	46	0	0
EXTAP	46	0	4
NMSTR	46	96	0
NMSI_	46	96	0	96	48	2
NMSTR	46	96	4
NMSI_	46	96	4	96	48	6
EXTAP	46	288	3
EXTAP	46	288	7
NMHLD	47	0	6	96
NMHLD	47	96	4	96
NMHLD	47	192	3	96
NMHLD	47	288	1	96
NMTAP	48	0	0
NMTAP	48	96	0
NMTAP	48	96	1
NMTAP	48	192	2
NMTAP	48	192	7
NMTAP	48	288	2
NMTAP	48	288	7
NMTAP	49	0	1
NMTAP	49	48	1
NMTAP	49	96	4
NMTAP	49	144	4
NMTAP	49	192	3
NMTAP	49	240	3
NMTAP	49	288	6
NMSTR	50	0	3
NMSCL	50	0	3	96	96	0
NMSTR	50	0	7
NMSUR	50	0	7	96	96	4
NMTAP	50	288	0
NMTAP	50	288	5
NMTAP	51	0	6
NMTAP	51	48	6
NMTAP	51	96	4
NMTAP	51	144	4
NMTAP	51	192	5
NMTAP	51	240	5
NMTAP	51	288	1
NMTAP	51	336	1
NMTAP	52	0	3
NMTAP	52	48	3
NMTAP	52	96	2
NMTAP	52	144	2
NMTAP	52	192	6
NMTAP	52	240	6
NMTAP	52	288	3
NMTAP	52	288	5
NMTAP	53	0	1
NMTAP	53	48	1
NMTAP	53	96	3
NMTAP	53	144	3
NMTAP	53	192	2
NMTAP	53	240	2
NMTAP	53	288	6
NMTAP	53	336	6
NMTAP	54	0	4
NMTAP	54	48	4
NMTAP	54	96	5
NMTAP	54	144	5
NMTAP	54	192	1
NMTAP	54	240	1
BRTAP	54	288	2
BRTAP	54	288	6
NMTAP	55	0	2
NMTAP	55	48	2
NMTAP	55	96	3
NMTAP	55	144	3
NMTAP	55	192	1
NMTAP	55	240	1
NMTAP	55	288	7
NMTAP	55	336	7
NMTAP	56	0	4
NMTAP	56	48	4
NMTAP	56	96	5
NMTAP	56	144	5
NMTAP	56	192	0
NMTAP	56	240	0
NMTAP	56	288	1
NMTAP	56	288	3
NMTAP	57	0	5
NMTAP	57	48	5
NMTAP	57	96	4
NMTAP	57	144	4
NMTAP	57	192	6
NMTAP	57	240	6
NMTAP	57	288	0
NMTAP	57	336	0
NMTAP	58	0	3
NMTAP	58	48	3
NMTAP	58	96	2
BRHLD	58	192	0	96
BRHLD	58	192	5	96
NMSTR	59	0	6
NMSI_	59	0	6	96	48	4
NMSTR	59	96	0
NMSI_	59	96	0	96	48	2
NMSTR	59	192	7
NMSI_	59	192	7	96	48	3
NMTAP	59	288	0
NMSTR	60	0	1
NMSI_	60	0	1	96	48	3
NMSTR	60	96	7
NMSI_	60	96	7	96	48	5
NMSTR	60	192	0
NMSI_	60	192	0	96	48	4
NMTAP	60	288	7
NMSTR	61	0	6
NMSI_	61	0	6	96	48	4
NMSTR	61	96	0
NMSI_	61	96	0	96	48	2
NMSTR	61	192	7
NMSI_	61	192	7	96	48	3
NMTAP	61	288	0
NMSTR	62	0	0
NMSI_	62	0	0	96	48	3
NMSI_	62	0	0	96	48	4
BXHLD	62	192	2	96
BXHLD	62	192	5	96
NMSTR	63	0	6
NMSI_	63	0	6	96	48	2
NMSTR	63	96	0
NMSI_	63	96	0	96	48	3
NMSTR	63	192	7
NMSI_	63	192	7	96	48	4
NMTAP	63	288	1
NMSTR	64	0	1
NMSI_	64	0	1	96	48	5
NMSTR	64	96	7
NMSI_	64	96	7	96	48	4
NMSTR	64	192	0
NMSI_	64	192	0	96	48	3
NMTAP	64	288	6
NMSTR	65	0	6
NMSI_	65	0	6	96	48	2
NMSTR	65	96	0
NMSI_	65	96	0	96	48	3
NMSTR	65	192	7
NMSI_	65	192	7	96	48	4
NMTAP	65	288	1
NMTAP	66	0	0
NMTAP	66	0	6
NMTAP	66	48	0
NMTAP	66	48	6
NMTAP	66	96	0
NMTAP	66	96	6
NMTAP	66	192	1
NMTAP	66	192	7
NMTAP	66	240	1
NMTAP	66	240	7
NMTAP	66	288	1
NMTAP	66	288	7
NMSTR	67	0	2
NMSUR	67	0	2	96	480	0
NMSTR	67	0	6
NMSCL	67	0	6	96	480	3
EXTAP	68	288	1
EXTAP	68	288	3
NMHLD	69	0	2	48
NMHLD	69	96	3	48
NMHLD	69	192	4	48
NMSTR	69	288	5
NMSUR	69	288	5	96	192	2
NMTAP	70	288	0
NMTAP	70	288	1
NMTAP	71	0	2
NMTAP	71	0	3
NMTAP	71	96	3
NMTAP	71	96	4
NMTAP	71	192	5
NMTAP	71	216	4
NMTAP	71	240	5
NMTAP	71	264	4
NMTAP	71	288	5
NMTAP	72	0	2
NMTAP	72	24	3
NMTAP	72	48	2
NMTAP	72	72	3
NMTAP	72	96	2
NMTAP	72	192	5
NMTAP	72	216	4
NMTAP	72	240	5
NMTAP	72	264	4
NMTAP	72	288	5
NMTAP	73	0	2
NMTAP	73	48	2
NMTAP	73	96	2
NMTAP	73	96	3
NMTAP	73	192	5
NMTAP	73	240	5
NMTAP	73	288	3
NMTAP	73	336	3
NMTAP	74	0	4
NMTAP	74	96	0
NMTAP	74	96	6
NMTTP	74	192	2	B	0	M1
NMTTP	74	192	2	E	0	M1
NMTTP	74	192	4	B	1	M1
NMTTP	74	192	5	E	0	M1
NMSTR	75	0	0
NMSXR	75	0	0	96	480	3
NMHLD	75	0	1	576
NMSTR	77	0	2
NMSXR	77	0	2	96	480	7
NMHLD	77	0	4	576
NMSTR	79	0	0
NMSI_	79	0	0	96	192	4
NMHLD	79	0	5	576
CNSLL	79	288	4	0	336	6
NMSTR	81	0	4
NMSCR	81	0	4	96	192	7
NMSTR	81	0	7
NMSCR	81	0	7	96	192	2
NMTAP	82	0	0
NMTAP	82	0	1
NMTAP	82	96	2
NMTAP	82	96	3
NMTAP	82	192	4
NMTAP	82	192	6
NMTAP	82	240	4
NMTAP	82	240	6
NMTAP	82	288	4
NMTAP	82	288	6
NMTAP	83	0	3
NMTAP	83	0	7
NMTAP	83	96	4
NMTAP	83	96	5
NMTAP	83	144	4
NMTAP	83	144	5
NMTAP	83	240	2
NMTAP	83	288	2
NMHLD	83	336	3	96
NMHLD	84	48	1	96
NMTAP	84	144	0
NMTAP	84	192	0
NMTAP	84	240	2
NMTAP	84	288	2
NMTAP	84	336	1
NMTAP	84	336	3
NMTAP	85	0	1
NMTAP	85	0	3
NMTAP	85	96	2
NMTAP	85	96	4
NMTAP	85	144	2
NMTAP	85	144	4
NMTAP	85	240	5
NMTAP	85	288	5
NMTAP	85	336	4
NMTAP	86	0	4
NMTAP	86	48	7
NMTAP	86	96	7
NMTAP	86	144	0
NMTAP	86	192	0
NMTAP	86	288	2
NMTAP	86	288	3
NMTAP	87	0	2
NMTAP	87	0	3
NMTAP	87	96	1
NMTAP	87	96	3
NMTAP	87	192	0
NMTAP	87	192	3
NMTAP	87	288	3
NMTAP	87	288	7
NMTAP	88	0	3
NMTAP	88	0	6
NMTAP	88	96	3
NMTAP	88	96	7
NMTAP	88	192	0
NMTAP	88	192	3
NMTAP	88	288	1
NMTAP	88	288	3
NMTAP	89	0	2
NMTAP	89	48	1
NMTAP	89	96	0
NMTAP	89	144	7
NMTAP	89	192	6
NMTAP	89	240	5
NMTAP	89	288	3
NMTAP	89	288	4
EXTAP	90	0	2
EXTAP	90	0	5
NMTHO	91	0	2	336	B	0	M1
NMTHO	91	0	2	336	E	0	M1
NMTHO	91	0	3	336	B	1	M1
NMTHO	91	0	4	336	E	0	M1
NMTHO	93	0	4	336	B	1	M1
NMTHO	93	0	4	336	E	0	M1
NMTHO	93	0	5	336	B	0	M1
NMTHO	93	0	6	336	E	0	M1
EXTAP	94	288	0
EXTAP	94	288	7
NMHLD	95	0	0	96
NMHLD	95	0	1	96
NMHLD	95	192	6	96
NMHLD	95	192	7	96
NMHLD	96	0	0	96
NMHLD	96	0	2	96
NMHLD	96	192	5	96
NMHLD	96	192	7	96
NMTAP	97	0	0
NMHLD	97	0	1	96
NMTAP	97	96	0
NMHLD	97	192	6	96
NMTAP	97	192	7
NMTAP	97	288	7
NMTAP	98	0	1
NMTAP	98	0	5
NMTAP	98	48	1
NMTAP	98	48	5
NMTAP	98	96	1
NMTAP	98	96	5
NMTAP	98	144	1
NMTAP	98	144	5
NMTAP	98	192	1
NMTAP	98	192	5
BRTAP	98	288	0
BRTAP	98	288	4
NMSTR	99	0	1
NMSI_	99	0	1	96	48	4
NMSTR	99	96	6
NMSI_	99	96	6	96	48	3
NMSTR	99	192	0
NMSI_	99	192	0	96	48	4
NMTAP	99	288	7
NMTAP	100	0	5
NMTAP	100	48	5
NMTAP	100	96	4
NMTAP	100	96	6
NMTAP	100	192	2
NMTAP	100	240	2
NMTAP	100	288	1
NMTAP	100	288	3
NMTAP	101	0	6
NMTAP	101	48	6
NMTAP	101	96	4
NMTAP	101	144	5
NMTAP	101	192	2
NMTAP	101	240	2
NMTAP	101	288	1
NMTAP	101	288	3
NMTAP	102	0	0
NMTAP	102	0	6
NMSTR	102	96	0
NMSI_	102	96	0	96	48	4
NMSTR	102	96	6
NMSI_	102	96	6	96	48	3
NMTAP	102	288	1
NMTAP	102	288	5
NMHLD	103	0	1	96
NMHLD	103	96	3	96
NMHLD	103	192	4	96
NMHLD	103	288	6	96
NMTAP	104	0	7
NMTAP	104	96	6
NMTAP	104	96	7
NMTAP	104	192	1
NMTAP	104	192	5
NMTAP	104	288	2
NMTAP	104	288	3
NMTAP	105	0	4
NMTAP	105	48	4
NMTAP	105	96	3
NMTAP	105	96	5
NMTAP	105	144	3
NMTAP	105	144	5
NMTAP	105	192	2
NMTAP	105	192	6
NMTAP	105	240	2
NMTAP	105	240	6
NMTAP	105	288	2
NMTAP	105	288	6
NMSTR	106	0	3
NMSLL	106	0	3	96	96	4
NMSTR	106	0	7
NMSLL	106	0	7	96	96	0
BRTAP	106	288	2
BRTAP	106	288	6
NMSTR	107	0	5
NMSI_	107	0	5	96	48	0
NMSTR	107	96	1
NMSI_	107	96	1	96	48	4
NMSTR	107	192	5
NMSI_	107	192	5	96	48	0
NMSTR	107	288	1
NMSI_	107	288	1	96	48	4
NMSTR	108	0	5
NMSI_	108	0	5	96	48	0
NMSTR	108	96	1
NMSI_	108	96	1	96	48	4
NMSTR	108	192	5
NMSI_	108	192	5	96	48	0
NMSTR	108	288	1
NMSI_	108	288	1	96	48	4
NMSTR	109	0	5
NMSI_	109	0	5	96	48	0
NMSTR	109	96	1
NMSI_	109	96	1	96	48	4
NMSTR	109	192	5
NMSI_	109	192	5	96	48	0
NMSTR	109	288	1
NMSI_	109	288	1	96	48	4
NMSTR	110	0	5
NMSI_	110	0	5	96	48	0
NMTAP	110	96	2
NMTAP	110	192	4
EXHLD	110	288	3	48
EXHLD	110	288	5	48
NMSTR	111	0	2
NMSI_	111	0	2	96	48	7
NMSTR	111	96	6
NMSI_	111	96	6	96	48	3
NMSTR	111	192	2
NMSI_	111	192	2	96	48	7
NMSTR	111	288	6
NMSI_	111	288	6	96	48	3
NMSTR	112	0	2
NMSI_	112	0	2	96	48	7
NMSTR	112	96	6
NMSI_	112	96	6	96	48	3
NMSTR	112	192	2
NMSI_	112	192	2	96	48	7
NMSTR	112	288	6
NMSI_	112	288	6	96	48	3
NMSTR	113	0	2
NMSI_	113	0	2	96	48	7
NMSTR	113	96	6
NMSI_	113	96	6	96	48	3
NMSTR	113	192	2
NMSI_	113	192	2	96	48	7
NMSTR	113	288	6
NMSI_	113	288	6	96	48	3
NMTAP	114	0	0
NMTAP	114	96	6
BRHLD	114	192	0	96
BRHLD	114	192	5	96
NMSTR	115	0	7
NMSI_	115	0	7	96	48	2
NMSTR	115	96	3
NMSI_	115	96	3	96	48	6
NMSTR	115	192	5
NMSI_	115	192	5	96	48	0
NMSTR	115	288	1
NMSI_	115	288	1	96	48	4
NMSTR	116	0	7
NMSI_	116	0	7	96	48	2
NMSTR	116	96	3
NMSI_	116	96	3	96	48	6
NMSTR	116	192	5
NMSI_	116	192	5	96	48	0
NMSTR	116	288	1
NMSI_	116	288	1	96	48	4
NMSTR	117	0	7
NMSI_	117	0	7	96	48	2
NMSTR	117	96	3
NMSI_	117	96	3	96	48	6
NMSTR	117	192	5
NMSI_	117	192	5	96	48	0
NMSTR	117	288	1
NMSI_	117	288	1	96	48	4
NMSTR	118	0	7
NMSI_	118	0	7	96	48	2
NMSTR	118	96	3
NMSI_	118	96	3	96	48	6
NMTAP	118	192	5
BRTAP	118	288	7
NMSTR	119	0	0
NMSI_	119	0	0	96	48	5
NMSTR	119	96	4
NMSI_	119	96	4	96	48	1
NMSTR	119	192	2
NMSI_	119	192	2	96	48	7
NMSTR	119	288	6
NMSI_	119	288	6	96	48	3
NMSTR	120	0	0
NMSF_	120	0	0	96	48	4
NMTAP	120	192	2
NMTAP	120	192	6
NMTAP	120	288	3
NMHLD	120	288	5	96
NMTAP	121	0	4
NMTAP	121	24	5
NMTAP	121	72	2
NMTAP	121	96	3
NMTAP	121	120	2
NMTAP	121	168	2
NMTAP	121	192	3
NMTAP	121	216	2
NMTAP	121	264	2
NMTAP	121	288	3
NMTAP	121	312	2
NMTAP	121	360	2
NMTAP	122	0	3
NMTAP	122	24	2
NMTAP	122	72	5
NMTAP	122	96	4
NMTAP	122	120	5
NMTAP	122	168	5
NMTAP	122	192	4
NMTAP	122	216	5
NMTAP	122	264	5
NMTAP	122	288	4
NMTAP	122	312	5
EXTAP	122	360	3
EXTAP	122	360	6

T_REC_TAP	424
T_REC_BRK	17
T_REC_XTP	19
T_REC_BXX	0
T_REC_HLD	51
T_REC_XHO	2
T_REC_BHO	4
T_REC_BXH	2
T_REC_STR	97
T_REC_BST	0
T_REC_XST	1
T_REC_XBS	0
T_REC_TTP	6
T_REC_THO	12
T_REC_SLD	99
T_REC_BSL	0
T_REC_ALL	734
T_NUM_TAP	547
T_NUM_BRK	23
T_NUM_HLD	65
T_NUM_SLD	99
T_NUM_ALL	734
T_JUDGE_TAP	564
T_JUDGE_HLD	261
T_JUDGE_SLD	99
T_JUDGE_ALL	924
TTM_EACHPAIRS	149
TTM_SCR_TAP	273500
TTM_SCR_BRK	59800
TTM_SCR_HLD	65000
TTM_SCR_SLD	148500
TTM_SCR_ALL	546800
TTM_SCR_S	528200
TTM_SCR_SS	544500
TTM_RAT_ACV	10042

