VERSION	0.00.00	1.05.00
FES_MODE	0
BPM_DEF	180.000	180.000	180.000	180.000
MET_DEF	4	4
RESOLUTION	384
CLK_DEF	384
COMPATIBLE_CODE	MA2

BPM	0	0	180.000
MET	0	0	4	4

NMTAP	3	0	7
NMTAP	3	192	7
NMTAP	4	0	6
NMTAP	4	192	6
NMTAP	5	0	5
NMTAP	5	192	5
NMTAP	6	0	3
NMTAP	6	0	4
NMTAP	6	192	3
NMTAP	6	192	4
NMTAP	7	0	3
NMTAP	7	192	3
NMTAP	8	0	2
NMTAP	8	192	2
NMTAP	9	0	1
NMTAP	9	192	1
NMTAP	10	0	0
NMTAP	10	0	7
NMTAP	11	0	0
NMTAP	11	96	0
NMTAP	11	192	1
NMTAP	12	0	2
NMTAP	12	96	2
NMTAP	12	192	3
NMTAP	13	0	4
NMTAP	13	96	4
NMTAP	13	192	5
NMTAP	14	0	6
NMTAP	14	96	6
NMTAP	14	192	0
NMTAP	14	192	7
NMTAP	15	0	7
NMTAP	15	96	7
NMTAP	15	192	6
NMTAP	16	0	5
NMTAP	16	96	5
NMTAP	16	192	4
NMTAP	17	0	3
NMTAP	17	96	3
NMTAP	17	192	2
NMTAP	18	0	1
NMTAP	18	96	1
NMTAP	18	192	0
NMTAP	18	192	7
NMTAP	19	0	0
NMTAP	19	0	1
NMTAP	19	192	0
NMTAP	19	192	1
NMTAP	20	0	2
NMTAP	20	96	2
NMTAP	20	192	2
NMTAP	21	0	3
NMTAP	21	0	4
NMTAP	21	192	3
NMTAP	21	192	4
NMTAP	22	0	5
NMTAP	22	96	5
NMTAP	22	192	5
NMTAP	23	0	6
NMTAP	23	0	7
NMTAP	23	192	6
NMTAP	23	192	7
NMTAP	24	0	5
NMTAP	24	96	5
NMTAP	24	192	5
NMTAP	25	0	3
NMTAP	25	0	4
NMTAP	25	192	3
NMTAP	25	192	4
NMTAP	26	0	3
NMTAP	26	0	4
NMSTR	27	0	2
NMSI_	27	0	2	96	288	5
NMTAP	28	192	6
NMSTR	29	0	7
NMSI_	29	0	7	96	288	3
NMTAP	30	192	2
NMSTR	31	0	1
NMSI_	31	0	1	96	288	5
NMTAP	32	192	6
NMSTR	33	0	6
NMSI_	33	0	6	96	288	3
NMTAP	35	0	5
NMTAP	35	96	5
NMTAP	35	192	6
NMTAP	35	288	6
NMTAP	36	0	7
NMTAP	36	96	7
NMTAP	36	192	0
NMTAP	36	192	1
NMTAP	37	0	2
NMTAP	37	96	2
NMTAP	37	192	1
NMTAP	37	288	1
NMTAP	38	0	0
NMTAP	38	96	0
NMTAP	38	192	6
NMTAP	38	192	7
NMTAP	39	0	6
NMTAP	39	96	6
NMTAP	39	192	5
NMTAP	39	288	5
NMTAP	40	0	4
NMTAP	40	96	4
NMTAP	40	192	2
NMTAP	40	192	3
NMTAP	41	0	1
NMTAP	41	96	1
NMTAP	41	192	2
NMTAP	41	288	2
NMTAP	42	0	3
NMTAP	42	96	3
NMTAP	42	192	4
NMTAP	42	192	5
NMTAP	43	0	5
NMTAP	43	96	5
NMTAP	43	192	6
NMTAP	43	288	6
NMTAP	44	0	7
NMTAP	44	96	7
NMTAP	44	192	0
NMTAP	44	192	1
NMTAP	44	288	0
NMTAP	44	288	1
NMTAP	45	0	2
NMTAP	45	96	2
NMTAP	45	192	1
NMTAP	45	288	1
NMTAP	46	0	0
NMTAP	46	96	0
NMTAP	46	192	6
NMTAP	46	192	7
NMTAP	47	0	6
NMTAP	47	96	6
NMTAP	47	192	5
NMTAP	47	288	5
NMTAP	48	0	4
NMTAP	48	96	4
NMTAP	48	192	2
NMTAP	48	192	3
NMTAP	48	288	2
NMTAP	48	288	3
NMTAP	49	0	1
NMTAP	49	96	1
NMTAP	49	192	2
NMTAP	49	288	2
NMTAP	50	0	3
NMTAP	50	96	3
NMTAP	50	192	4
NMTAP	50	192	5
NMTAP	51	0	6
NMTAP	51	96	6
NMTAP	51	192	6
NMTAP	51	288	6
NMTAP	51	288	7
NMTAP	52	0	5
NMTAP	52	96	5
NMTAP	52	192	5
NMTAP	52	288	4
NMTAP	52	288	5
NMTAP	53	0	3
NMTAP	53	96	3
NMTAP	53	192	3
NMTAP	53	288	2
NMTAP	53	288	3
NMTAP	54	0	1
NMTAP	54	96	1
NMTAP	54	192	0
NMTAP	54	192	1
NMTAP	55	0	1
NMTAP	55	96	1
NMTAP	55	192	1
NMTAP	55	288	0
NMTAP	55	288	1
NMTAP	56	0	2
NMTAP	56	96	2
NMTAP	56	192	2
NMTAP	56	288	2
NMTAP	56	288	3
NMTAP	57	0	4
NMTAP	57	96	4
NMTAP	57	192	4
NMTAP	57	288	4
NMTAP	57	288	5
NMTAP	58	0	3
NMTAP	58	0	6
NMTTP	59	0	6	B	0	L1
NMTTP	59	96	5	B	0	L1
NMTTP	59	192	4	B	0	L1
NMTTP	60	0	1	B	0	L1
NMTTP	60	96	2	B	0	L1
NMTTP	60	192	3	B	0	L1
NMTTP	61	0	6	B	0	L1
NMTTP	61	96	5	B	0	L1
NMTTP	61	192	4	B	0	L1
NMTTP	61	288	3	B	0	L1
NMTTP	62	0	0	C	0	L1
NMTTP	63	0	0	B	0	L1
NMTTP	63	96	1	B	0	L1
NMTTP	63	192	2	B	0	L1
NMTTP	63	192	3	B	0	L1
NMTTP	64	0	7	B	0	L1
NMTTP	64	96	6	B	0	L1
NMTTP	64	192	4	B	0	L1
NMTTP	64	192	5	B	0	L1
NMTTP	65	0	1	B	0	L1
NMTTP	65	96	2	B	0	L1
NMTTP	65	192	3	B	0	L1
NMTTP	65	288	4	B	0	L1
NMTTP	66	0	0	C	1	L1
NMSTR	67	0	0
NMSI_	67	0	0	96	288	3
NMSTR	67	0	7
NMSI_	67	0	7	96	288	4
NMTAP	69	0	5
NMTAP	69	48	5
NMTAP	69	96	5
NMTAP	69	192	4
NMTAP	69	192	5
NMTAP	70	0	6
NMTAP	70	48	6
NMTAP	70	96	6
NMTAP	70	192	0
NMTAP	70	192	7
NMTAP	71	0	1
NMTAP	71	48	1
NMTAP	71	96	1
NMTAP	71	192	2
NMTAP	71	192	3
NMTAP	72	0	1
NMTAP	72	48	1
NMTAP	72	96	1
NMTAP	72	192	0
NMTAP	72	192	7
NMTAP	73	0	6
NMTAP	73	48	6
NMTAP	73	96	6
NMTAP	73	192	4
NMTAP	73	192	5
NMTAP	74	0	3
NMTAP	74	48	3
NMTAP	74	96	3
NMTAP	74	192	3
NMTAP	74	192	4
NMTAP	75	0	5
NMTAP	75	96	5
NMTAP	75	192	5
NMTAP	75	288	5
NMTAP	76	0	6
NMTAP	76	96	6
NMTAP	76	192	6
NMTAP	76	288	6
NMTAP	77	0	7
NMTAP	77	96	7
NMTAP	77	192	7
NMTAP	77	288	7
NMTAP	78	0	0
NMTAP	78	0	1
NMTAP	78	192	0
NMTAP	78	192	1
NMTAP	79	0	2
NMTAP	79	96	2
NMTAP	79	192	2
NMTAP	79	288	2
NMTAP	80	0	1
NMTAP	80	96	1
NMTAP	80	192	1
NMTAP	80	288	1
NMTAP	81	0	0
NMTAP	81	96	0
NMTAP	81	192	0
NMTAP	81	288	0
NMTAP	82	0	6
NMTAP	82	0	7
NMTAP	82	192	6
NMTAP	82	192	7
NMHLD	83	0	5	192
NMHLD	83	192	4	192
NMHLD	84	0	3	192
NMTAP	84	192	2
NMHLD	85	0	2	192
NMHLD	85	192	3	192
NMHLD	86	0	4	192
NMTAP	86	192	5
NMHLD	87	0	6	192
NMHLD	87	192	5	192
NMHLD	88	0	4	192
NMTAP	88	192	3
NMHLD	89	0	2	192
NMHLD	89	192	1	192
NMTAP	90	0	0
EXSTR	91	0	0
NMSI_	91	0	0	96	288	5
EXSTR	91	0	1
NMSI_	91	0	1	96	288	4
NMTAP	92	192	6
NMTAP	92	192	7
NMSTR	93	0	6
NMSI_	93	0	6	96	288	3
NMSTR	93	0	7
NMSI_	93	0	7	96	288	2
NMTAP	94	192	4
NMTAP	94	192	5
NMSTR	95	0	4
NMSI_	95	0	4	96	288	1
NMSTR	95	0	5
NMSI_	95	0	5	96	288	0
NMTAP	96	192	2
NMTAP	96	192	3
NMSTR	97	0	2
NMSI_	97	0	2	96	288	7
NMSTR	97	0	3
NMSI_	97	0	3	96	288	6
NMTAP	99	0	5
NMTAP	99	96	5
NMTAP	99	192	6
NMTAP	99	192	7
NMTAP	99	288	6
NMTAP	99	288	7
NMTAP	100	0	0
NMTAP	100	96	0
NMTAP	100	192	0
NMTAP	100	192	1
NMTAP	101	0	2
NMTAP	101	96	2
NMTAP	101	192	0
NMTAP	101	192	1
NMTAP	101	288	0
NMTAP	101	288	1
NMTAP	102	0	7
NMTAP	102	96	7
NMTAP	102	192	6
NMTAP	102	192	7
NMTAP	103	0	6
NMTAP	103	96	6
NMTAP	103	192	4
NMTAP	103	192	5
NMTAP	103	288	4
NMTAP	103	288	5
NMTAP	104	0	3
NMTAP	104	96	3
NMTAP	104	192	2
NMTAP	104	192	3
NMTAP	105	0	1
NMTAP	105	96	1
NMTAP	105	192	2
NMTAP	105	192	3
NMTAP	105	288	2
NMTAP	105	288	3
NMTAP	106	0	4
NMTAP	106	96	4
BRTAP	106	192	4
BRTAP	106	192	5
NMTAP	107	0	5
NMTAP	107	48	5
NMTAP	107	96	5
NMTAP	107	192	6
NMTAP	107	192	7
NMTAP	107	288	6
NMTAP	107	288	7
NMTAP	108	0	0
NMTAP	108	48	0
NMTAP	108	96	0
NMTAP	108	192	0
NMTAP	108	192	1
NMTAP	109	0	2
NMTAP	109	48	2
NMTAP	109	96	2
NMTAP	109	192	0
NMTAP	109	192	1
NMTAP	109	288	0
NMTAP	109	288	1
NMTAP	110	0	7
NMTAP	110	48	7
NMTAP	110	96	7
NMTAP	110	192	6
NMTAP	110	192	7
NMTAP	111	0	6
NMTAP	111	48	6
NMTAP	111	96	6
NMTAP	111	192	4
NMTAP	111	192	5
NMTAP	111	288	4
NMTAP	111	288	5
NMTAP	112	0	3
NMTAP	112	48	3
NMTAP	112	96	3
NMTAP	112	192	2
NMTAP	112	192	3
NMTAP	113	0	1
NMTAP	113	48	1
NMTAP	113	96	1
NMTAP	113	192	2
NMTAP	113	192	3
NMTAP	113	288	2
NMTAP	113	288	3
NMTAP	114	0	4
NMTAP	114	48	4
NMTAP	114	96	4
NMTAP	114	192	4
NMTAP	114	192	5
NMTAP	115	0	3
NMTAP	115	96	2
NMTAP	115	192	1
NMTAP	115	288	0
NMTAP	116	0	7
NMTAP	116	96	6
NMTAP	116	192	4
NMTAP	116	192	5
NMTAP	117	0	4
NMTAP	117	96	5
NMTAP	117	192	6
NMTAP	117	288	7
NMTAP	118	0	0
NMTAP	118	96	1
NMTAP	118	192	2
NMTAP	118	192	3
NMTAP	119	0	2
NMTAP	119	96	1
NMTAP	119	192	0
NMTAP	119	288	7
NMTAP	120	0	6
NMTAP	120	96	5
NMTAP	120	192	3
NMTAP	120	192	4
NMTAP	121	0	3
NMTAP	121	0	4
NMTAP	121	96	3
NMTAP	121	96	4
NMTAP	121	192	2
NMTAP	121	192	5
NMTAP	121	288	2
NMTAP	121	288	5
NMTAP	122	0	1
NMTAP	122	0	6
NMTAP	122	96	1
NMTAP	122	96	6
NMTAP	122	192	0
NMTAP	122	192	7
BXTAP	122	288	0
BXTAP	122	288	7

T_REC_TAP	374
T_REC_BRK	2
T_REC_XTP	0
T_REC_BXX	2
T_REC_HLD	11
T_REC_XHO	0
T_REC_BHO	0
T_REC_BXH	0
T_REC_STR	12
T_REC_BST	0
T_REC_XST	2
T_REC_XBS	0
T_REC_TTP	24
T_REC_THO	0
T_REC_SLD	14
T_REC_BSL	0
T_REC_ALL	441
T_NUM_TAP	412
T_NUM_BRK	4
T_NUM_HLD	11
T_NUM_SLD	14
T_NUM_ALL	441
T_JUDGE_TAP	416
T_JUDGE_HLD	44
T_JUDGE_SLD	14
T_JUDGE_ALL	474
TTM_EACHPAIRS	85
TTM_SCR_TAP	206000
TTM_SCR_BRK	10400
TTM_SCR_HLD	11000
TTM_SCR_SLD	21000
TTM_SCR_ALL	248400
TTM_SCR_S	240600
TTM_SCR_SS	248000
TTM_RAT_ACV	10016

