VERSION	0.00.00	1.05.00
FES_MODE	0
BPM_DEF	180.000	180.000	180.000	180.000
MET_DEF	4	4
RESOLUTION	384
CLK_DEF	384
COMPATIBLE_CODE	MA2

BPM	0	0	180.000
MET	0	0	4	4

EXTAP	3	0	7
NMTAP	3	192	7
NMTAP	4	0	6
NMTAP	4	192	6
NMTAP	5	0	5
NMTAP	5	192	5
NMTAP	6	0	3
NMTAP	6	0	4
NMTAP	7	0	3
NMTAP	7	192	3
NMTAP	8	0	2
NMTAP	8	192	2
NMTAP	9	0	1
NMTAP	9	192	1
NMTAP	10	0	0
NMTAP	10	0	7
NMTAP	11	0	0
NMTAP	11	96	0
NMTAP	11	192	0
NMTAP	12	0	1
NMTAP	12	192	1
NMTAP	13	0	2
NMTAP	13	192	2
NMTAP	14	0	3
NMTAP	14	0	4
NMTAP	14	192	3
NMTAP	14	192	4
NMTAP	15	0	4
NMTAP	15	96	4
NMTAP	15	192	4
NMTAP	16	0	5
NMTAP	16	192	5
NMTAP	17	0	6
NMTAP	17	192	6
NMTAP	18	0	0
NMTAP	18	0	7
NMHLD	19	0	6	192
NMHLD	19	0	7	192
NMTAP	20	0	6
NMTAP	20	0	7
NMHLD	21	0	4	192
NMHLD	21	0	5	192
NMTAP	22	0	4
NMTAP	22	0	5
NMHLD	23	0	2	192
NMHLD	23	0	3	192
NMTAP	24	0	2
NMTAP	24	0	3
NMHLD	25	0	0	192
NMHLD	25	0	1	192
NMTAP	26	0	0
NMTAP	26	0	1
EXSTR	27	0	1
NMSI_	27	0	1	96	288	5
EXSTR	29	0	6
NMSI_	29	0	6	96	288	2
EXSTR	31	0	0
NMSI_	31	0	0	96	288	4
EXSTR	33	0	7
NMSI_	33	0	7	96	288	3
BXTAP	35	0	0
NMTAP	35	96	0
NMTAP	35	192	0
NMTAP	36	0	1
NMTAP	36	96	1
NMTAP	36	192	1
NMTAP	37	0	2
NMTAP	37	96	2
NMTAP	37	192	2
NMTAP	38	0	3
NMTAP	38	0	4
NMTAP	38	192	3
NMTAP	38	192	4
NMTAP	39	0	4
NMTAP	39	96	4
NMTAP	39	192	4
NMTAP	40	0	5
NMTAP	40	96	5
NMTAP	40	192	5
NMTAP	41	0	6
NMTAP	41	96	6
NMTAP	41	192	6
BXTAP	42	0	0
BXTAP	42	0	7
NMTAP	43	0	7
NMTAP	43	96	7
NMTAP	43	192	7
NMTAP	44	0	6
NMTAP	44	96	6
NMTAP	44	192	6
NMTAP	45	0	5
NMTAP	45	96	5
NMTAP	45	192	5
NMTAP	46	0	4
NMTAP	46	96	4
NMTAP	46	192	3
NMTAP	46	192	4
NMTAP	47	0	3
NMTAP	47	96	3
NMTAP	47	192	3
NMTAP	48	0	2
NMTAP	48	96	2
NMTAP	48	192	2
NMTAP	49	0	1
NMTAP	49	96	1
NMTAP	49	192	1
EXTAP	50	0	0
EXTAP	50	0	7
NMTAP	51	0	0
NMTAP	51	96	0
NMTAP	51	192	0
NMTAP	52	0	0
NMTAP	52	0	1
NMTAP	52	192	0
NMTAP	52	192	1
NMTAP	53	0	2
NMTAP	53	96	2
NMTAP	53	192	2
NMTAP	54	0	3
NMTAP	54	0	4
NMTAP	54	192	3
NMTAP	54	192	4
NMTAP	55	0	4
NMTAP	55	96	4
NMTAP	55	192	4
NMTAP	56	0	4
NMTAP	56	0	5
NMTAP	56	192	4
NMTAP	56	192	5
NMTAP	57	0	6
NMTAP	57	96	6
NMTAP	57	192	6
NMTAP	58	0	0
NMTAP	58	0	7
BRTAP	58	192	0
BRTAP	58	192	7
NMTAP	59	0	7
NMTAP	59	96	7
NMTAP	59	192	7
NMTAP	60	0	6
NMTAP	60	96	6
NMTAP	60	192	6
NMTAP	61	0	5
NMTAP	61	96	5
NMTAP	61	192	5
NMTAP	62	0	3
NMTAP	62	0	4
BRTAP	62	192	3
BRTAP	62	192	4
NMTAP	63	0	3
NMTAP	63	96	3
NMTAP	63	192	3
NMTAP	64	0	2
NMTAP	64	96	2
NMTAP	64	192	2
NMTAP	65	0	1
NMTAP	65	96	1
NMTAP	65	192	1
NMTAP	66	0	0
NMTAP	66	96	0
NMTAP	66	192	0
BRTAP	67	0	0
BRTAP	67	0	7
NMTTP	69	0	7	B	0	L1
NMTTP	70	0	0	B	0	L1
NMTTP	71	0	6	B	0	L1
NMTTP	72	0	1	B	0	L1
NMTTP	73	0	5	B	0	L1
NMTTP	74	0	0	C	1	L1
NMTAP	75	0	0
NMTAP	75	192	0
NMTAP	76	0	0
NMTAP	76	0	1
NMTAP	76	192	0
NMTAP	76	192	1
NMTAP	77	0	2
NMTAP	77	192	2
NMTAP	78	0	3
NMTAP	78	0	4
NMTAP	78	192	3
NMTAP	78	192	4
NMTAP	79	0	4
NMTAP	79	192	4
NMTAP	80	0	4
NMTAP	80	0	5
NMTAP	80	192	4
NMTAP	80	192	5
NMTAP	81	0	6
NMTAP	81	192	6
NMTAP	82	0	0
NMTAP	82	0	7
NMTAP	83	0	7
NMTAP	83	96	7
NMTAP	83	192	7
NMTAP	84	0	6
NMTAP	84	0	7
BXTAP	84	192	6
BXTAP	84	192	7
NMTAP	85	0	5
NMTAP	85	96	5
NMTAP	85	192	5
NMTAP	86	0	3
NMTAP	86	0	4
NMTAP	86	192	3
NMTAP	86	192	4
NMTAP	87	0	3
NMTAP	87	96	3
NMTAP	87	192	3
NMTAP	88	0	2
NMTAP	88	0	3
NMTAP	88	192	2
NMTAP	88	192	3
NMTAP	89	0	1
NMTAP	89	96	1
NMTAP	89	192	1
BXTAP	90	0	0
BXTAP	90	0	7
NMSTR	91	0	0
NMSI_	91	0	0	96	288	4
NMSTR	93	0	7
NMSI_	93	0	7	96	288	3
NMSTR	95	0	0
NMSI_	95	0	0	96	288	5
NMSTR	97	0	7
NMSI_	97	0	7	96	288	2
BRTAP	99	0	0
NMTAP	99	96	0
NMTAP	99	192	0
NMTAP	99	288	0
NMTAP	100	0	1
NMTAP	100	96	1
NMTAP	100	192	0
NMTAP	100	192	1
NMTAP	101	0	2
NMTAP	101	96	2
NMTAP	101	192	2
NMTAP	101	288	2
NMTAP	102	0	3
NMTAP	102	96	3
NMTAP	102	192	3
NMTAP	102	192	4
NMTAP	103	0	4
NMTAP	103	96	4
NMTAP	103	192	4
NMTAP	103	288	4
NMTAP	104	0	5
NMTAP	104	96	5
NMTAP	104	192	4
NMTAP	104	192	5
NMTAP	105	0	6
NMTAP	105	96	6
NMTAP	105	192	6
NMTAP	105	288	6
EXTAP	106	0	0
EXTAP	106	0	7
NMTAP	107	0	7
NMTAP	107	96	7
NMTAP	107	192	6
NMTAP	107	288	6
NMTAP	108	0	5
NMTAP	108	96	5
NMTAP	108	192	4
NMTAP	108	192	5
NMTAP	109	0	3
NMTAP	109	96	3
NMTAP	109	192	2
NMTAP	109	288	2
NMTAP	110	0	1
NMTAP	110	96	1
NMTAP	110	192	0
NMTAP	110	192	1
NMTAP	111	0	0
NMTAP	111	96	0
NMTAP	111	192	1
NMTAP	111	288	1
NMTAP	112	0	2
NMTAP	112	96	2
NMTAP	112	192	2
NMTAP	112	192	3
NMTAP	113	0	4
NMTAP	113	96	4
NMTAP	113	192	5
NMTAP	113	288	5
NMTAP	114	0	6
NMTAP	114	96	6
BRTAP	114	192	6
BRTAP	114	192	7
NMTAP	115	0	7
NMTAP	115	96	7
NMTAP	115	192	6
NMTAP	115	288	6
NMTAP	116	0	5
NMTAP	116	96	5
NMTAP	116	192	4
NMTAP	116	288	4
NMTAP	117	0	3
NMTAP	117	96	3
NMTAP	117	192	2
NMTAP	117	288	2
NMTAP	118	0	1
NMTAP	118	96	1
NMTAP	118	192	0
NMTAP	118	192	7
NMTAP	119	0	0
NMTAP	119	96	0
NMTAP	119	192	1
NMTAP	119	288	1
NMTAP	120	0	2
NMTAP	120	96	2
NMTAP	120	192	3
NMTAP	120	288	3
NMTAP	121	0	4
NMTAP	121	96	4
NMTAP	121	192	5
NMTAP	121	288	5
NMTAP	122	0	6
NMTAP	122	96	6
NMTAP	122	192	0
NMTAP	122	192	7
BXTAP	122	288	0
BXTAP	122	288	7

T_REC_TAP	268
T_REC_BRK	9
T_REC_XTP	5
T_REC_BXX	9
T_REC_HLD	8
T_REC_XHO	0
T_REC_BHO	0
T_REC_BXH	0
T_REC_STR	4
T_REC_BST	0
T_REC_XST	4
T_REC_XBS	0
T_REC_TTP	6
T_REC_THO	0
T_REC_SLD	8
T_REC_BSL	0
T_REC_ALL	321
T_NUM_TAP	287
T_NUM_BRK	18
T_NUM_HLD	8
T_NUM_SLD	8
T_NUM_ALL	321
T_JUDGE_TAP	305
T_JUDGE_HLD	32
T_JUDGE_SLD	8
T_JUDGE_ALL	345
TTM_EACHPAIRS	54
TTM_SCR_TAP	143500
TTM_SCR_BRK	46800
TTM_SCR_HLD	8000
TTM_SCR_SLD	12000
TTM_SCR_ALL	210300
TTM_SCR_S	202250
TTM_SCR_SS	208500
TTM_RAT_ACV	10086

