VERSION	0.00.00	1.05.00
FES_MODE	0
BPM_DEF	135.000	135.000	135.000	135.000
MET_DEF	4	4
RESOLUTION	384
CLK_DEF	384
COMPATIBLE_CODE	MA2

BPM	0	0	135.000
MET	0	0	4	4

NMSTR	1	0	5
NMSI_	1	0	5	96	48	3
NMTAP	1	96	2
NMSTR	1	192	5
NMSI_	1	192	5	96	48	3
NMTAP	1	288	2
NMSTR	2	0	5
NMSI_	2	0	5	96	48	3
NMSTR	2	48	3
NMSI_	2	48	3	96	48	1
NMTAP	2	240	0
NMHLD	2	288	0	96
NMTAP	2	336	2
NMTAP	3	0	2
NMTAP	3	48	3
NMTAP	3	96	2
NMTAP	3	96	4
NMTAP	3	144	5
NMTAP	3	192	3
NMTAP	3	192	6
NMSTR	3	240	6
NMSV_	3	240	6	96	96	4
NMSTR	3	336	4
NMSUR	3	336	4	96	96	0
NMTAP	4	48	1
NMHLD	4	96	1	288
NMHLD	4	192	2	48
NMHLD	4	288	2	48
NMSTR	5	0	3
NMSI_	5	0	3	96	48	5
NMTAP	5	96	1
NMSTR	5	192	3
NMSI_	5	192	3	96	48	5
NMTAP	5	288	1
NMSTR	6	0	3
NMSI_	6	0	3	96	48	5
NMSTR	6	48	1
NMSI_	6	48	1	96	48	3
NMTAP	6	240	6
NMSTR	6	288	6
NMSI_	6	288	6	96	48	4
NMTAP	6	336	6
NMSTR	7	0	2
NMSI_	7	0	2	96	48	0
NMTAP	7	48	2
NMSTR	7	96	5
NMSI_	7	96	5	96	48	1
NMTAP	7	144	5
NMTAP	7	192	0
NMHLD	7	240	0	96
NMTAP	7	336	7
NMTAP	8	0	0
NMSTR	8	0	6
NMSI_	8	0	6	96	48	2
NMSTR	8	48	1
NMSI_	8	48	1	96	48	5
NMTAP	8	48	5
NMTAP	8	240	1
NMTAP	8	240	6
NMTAP	8	288	1
NMTAP	8	288	6
NMTTP	9	0	0	A	0	M1
NMTTP	9	0	0	D	1	M1
NMTTP	9	0	1	D	0	M1
NMTTP	9	0	7	A	0	M1
NMTTP	9	0	7	D	0	M1
NMTAP	9	96	2
NMTAP	9	120	3
NMTAP	9	144	2
NMTAP	9	192	1
NMTAP	9	192	3
NMTAP	9	240	2
NMTAP	9	264	3
NMTAP	9	312	5
NMTAP	9	336	4
NMTAP	10	0	4
NMTAP	10	0	5
NMTAP	10	48	6
NMTAP	10	72	4
NMTAP	10	120	4
NMHLD	10	144	5	48
EXTAP	10	192	4
NMTAP	10	216	4
NMTAP	10	264	4
NMTAP	10	264	6
NMTAP	10	312	4
NMTAP	10	312	6
BRTAP	11	0	4
BRTAP	11	0	5
NMTAP	11	96	5
NMTAP	11	120	4
NMTAP	11	144	5
NMTAP	11	192	4
NMTAP	11	192	6
NMTAP	11	240	5
NMTAP	11	264	4
NMTAP	11	312	2
NMTAP	11	336	3
NMTAP	12	0	2
NMTAP	12	0	3
NMTAP	12	48	1
NMTAP	12	72	3
NMTAP	12	120	3
NMHLD	12	144	2	48
NMTAP	12	192	3
NMTAP	12	216	2
NMTAP	12	240	3
NMTAP	12	264	2
NMTAP	12	312	1
NMTAP	12	312	3
BRTAP	13	0	2
BRTAP	13	0	3
NMTAP	13	96	2
NMTAP	13	120	3
NMTAP	13	144	1
NMTAP	13	192	2
NMTAP	13	192	3
NMTAP	13	240	1
NMTAP	13	264	3
NMTAP	13	312	5
NMTAP	13	336	3
NMTAP	14	0	4
NMTAP	14	0	6
NMTAP	14	48	7
NMHLD	14	72	7	48
NMTAP	14	120	5
NMHLD	14	144	5	48
EXTAP	14	192	6
NMTAP	14	216	6
NMTAP	14	264	4
NMTAP	14	264	5
NMTAP	14	312	4
NMTAP	14	312	5
BRTAP	15	0	3
BRTAP	15	0	6
NMTAP	15	96	5
NMTAP	15	120	4
NMTAP	15	144	6
NMTAP	15	192	4
NMTAP	15	192	5
NMTAP	15	240	5
NMTAP	15	264	4
NMTAP	15	312	2
NMHLD	15	336	3	48
NMHLD	16	0	1	48
NMTAP	16	48	4
NMTAP	16	72	4
NMTAP	16	120	0
NMTAP	16	144	0
NMHLD	16	192	1	48
NMHLD	16	192	5	48
NMHLD	16	288	1	48
NMHLD	16	288	5	48
BRSTR	17	0	2
NMSI_	17	0	2	96	48	0
BRTAP	17	0	4
NMTAP	17	96	3
NMSTR	17	192	2
NMSI_	17	192	2	96	48	0
NMTAP	17	288	3
NMSTR	18	0	2
NMSI_	18	0	2	96	48	0
NMSTR	18	48	4
NMSI_	18	48	4	96	48	2
NMTAP	18	240	7
NMTAP	18	288	0
NMTAP	18	336	1
NMTAP	19	0	2
NMTAP	19	0	3
NMTAP	19	48	4
NMTAP	19	96	3
NMTAP	19	96	5
NMTAP	19	144	6
NMTAP	19	192	7
NMHLD	19	240	7	240
NMTTP	19	336	7	E	0	M1
NMTTP	20	0	6	E	0	M1
NMTTP	20	48	5	E	0	M1
NMTTP	20	96	4	E	0	M1
NMTTP	20	144	3	E	0	M1
NMHLD	20	192	0	48
NMHLD	20	192	1	48
NMHLD	20	288	0	48
NMHLD	20	288	1	48
NMSTR	21	0	2
NMSI_	21	0	2	96	48	4
NMSTR	21	96	6
NMSI_	21	96	6	96	48	0
NMSTR	21	192	2
NMSI_	21	192	2	96	48	0
NMSTR	21	288	6
NMSI_	21	288	6	96	48	4
NMTAP	22	0	1
NMSTR	22	48	2
NMSCR	22	48	2	96	48	5
NMTAP	22	96	3
NMTAP	22	144	2
NMTAP	22	240	7
NMTAP	22	288	4
NMTAP	22	288	6
NMTAP	22	336	5
NMTAP	23	0	2
NMTAP	23	0	4
NMTAP	23	48	1
NMTAP	23	96	0
NMTAP	23	96	5
NMTAP	23	144	6
NMTAP	23	192	2
NMTAP	23	192	7
NMHLD	23	240	2	336
NMSTR	23	240	7
NMSI_	23	240	7	96	96	3
CNSI_	24	48	3	0	144	7
NMTAP	24	288	3
NMTAP	24	288	7
NMTTP	25	0	4	A	0	M1
NMTTP	25	0	5	A	0	M1
NMTTP	25	0	5	D	1	M1
NMTTP	25	0	6	A	0	M1
NMTTP	25	0	6	D	0	M1
NMTAP	25	96	2
NMTAP	25	120	3
NMTAP	25	144	2
NMTAP	25	192	1
NMTAP	25	192	3
NMTAP	25	240	2
NMTAP	25	264	3
NMTAP	25	312	3
NMTAP	25	336	2
NMTAP	26	0	4
NMTAP	26	24	4
NMTAP	26	48	3
NMHLD	26	72	5	48
NMTAP	26	120	4
NMHLD	26	144	6	48
NMTAP	26	192	5
NMTAP	26	216	5
NMTAP	26	264	4
NMTAP	26	264	6
NMTAP	26	312	4
NMTAP	26	312	6
BRTAP	27	0	3
BRTAP	27	0	7
NMTAP	27	96	6
NMTAP	27	120	4
NMTAP	27	144	5
NMTAP	27	192	4
NMTAP	27	192	5
NMTAP	27	240	6
NMTAP	27	264	4
NMTAP	27	312	4
NMHLD	27	336	5	48
NMTAP	28	0	3
NMTAP	28	24	4
NMTAP	28	48	2
NMTAP	28	72	3
NMTAP	28	120	1
NMTAP	28	120	4
NMTAP	28	144	1
NMTAP	28	144	4
EXHLD	28	192	2	48
EXHLD	28	192	3	48
EXHLD	28	288	2	48
EXHLD	28	288	3	48
NMTAP	29	0	1
NMHLD	29	0	3	480
NMTAP	29	96	1
NMTAP	29	192	2
NMTAP	29	288	2
NMTAP	30	0	4
NMTAP	30	96	4
NMTAP	30	192	3
NMTAP	30	192	5
NMTAP	30	288	3
NMTAP	30	288	5
NMTAP	31	0	6
NMSTR	31	96	6
NMSCL	31	96	6	96	96	4
NMTAP	31	192	2
NMSTR	31	288	0
NMSI_	31	288	0	96	96	3
NMTAP	32	0	3
NMTAP	32	96	4
NMHLD	32	192	2	48
NMHLD	32	192	5	48
NMHLD	32	288	2	48
NMHLD	32	288	5	48
NMTAP	33	0	3
NMTAP	33	0	4
NMTAP	33	48	3
NMTAP	33	48	4
NMTAP	33	96	2
NMTAP	33	96	4
NMTAP	33	144	2
NMTAP	33	144	4
NMTAP	33	192	1
NMTAP	33	192	4
NMTAP	33	240	1
NMTAP	33	240	4
NMTAP	33	288	0
NMTAP	33	288	4
NMTAP	33	336	0
NMTAP	33	336	4
NMTAP	34	0	3
NMTAP	34	0	4
NMTAP	34	48	3
NMTAP	34	48	4
NMTAP	34	96	3
NMTAP	34	96	5
NMTAP	34	144	3
NMTAP	34	144	5
NMTAP	34	192	3
NMTAP	34	192	6
NMTAP	34	240	3
NMTAP	34	240	6
NMTAP	34	288	3
NMTAP	34	288	7
NMTAP	34	336	3
NMTAP	34	336	7
NMTAP	35	0	1
NMTAP	35	24	0
NMTAP	35	48	1
NMTAP	35	72	0
NMTAP	35	96	2
NMTAP	35	120	7
NMTAP	35	144	2
NMTAP	35	168	7
NMTAP	35	192	3
NMTAP	35	216	6
NMTAP	35	240	3
NMTAP	35	264	6
NMTAP	35	288	4
NMTAP	35	312	5
NMTAP	35	336	4
NMTAP	35	360	5
NMTAP	36	0	3
NMTAP	36	24	2
NMTAP	36	48	1
NMTAP	36	72	0
NMTAP	36	96	7
NMTAP	36	120	6
NMTAP	36	144	5
NMTAP	36	168	4
NMTAP	36	192	0
NMTAP	36	204	1
NMTAP	36	216	2
NMTAP	36	228	3
NMTAP	36	240	4
NMTAP	36	252	5
NMTAP	36	264	6
NMTAP	36	276	7
EXSTR	36	288	0
NMSI_	36	288	0	96	48	5
BRTAP	37	0	0
NMTTP	37	0	3	B	1	M1
NMTTP	37	0	3	E	0	M1
NMTTP	37	0	4	E	0	M1
NMTAP	38	0	1
NMTAP	38	0	3
NMTAP	38	96	4
NMTAP	38	96	6
NMTAP	38	192	0
NMTAP	38	192	7
NMTAP	38	240	5
NMTAP	38	264	3
BRSTR	38	288	2
NMSCL	38	288	2	96	96	6
BRTAP	38	288	6
NMSTR	39	0	6
NMSCR	39	0	6	96	96	2
NMSTR	39	96	2
NMSCL	39	96	2	96	96	6
NMTAP	39	192	6
NMSTR	39	288	4
NMSI_	39	288	4	96	48	2
NMSTR	40	0	4
NMSI_	40	0	4	96	48	6
NMTAP	40	0	7
CNSI_	40	48	2	0	48	4
NMTAP	40	48	7
NMSTR	40	96	1
NMSUR	40	96	1	96	96	2
NMTAP	40	144	1
CNSI_	40	144	6	0	48	4
NMSTR	40	288	6
NMSCL	40	288	6	96	96	2
NMSTR	41	0	2
NMSCR	41	0	2	96	96	6
NMSTR	41	96	6
NMSCL	41	96	6	96	96	2
NMTAP	41	192	2
NMSTR	41	288	0
NMSI_	41	288	0	96	48	6
NMSTR	42	0	0
NMSI_	42	0	0	96	48	2
NMTAP	42	0	3
NMTAP	42	48	3
CNSI_	42	48	6	0	48	0
NMSTR	42	96	5
NMSUR	42	96	5	96	96	6
CNSI_	42	144	2	0	48	0
NMTAP	42	144	5
NMSTR	42	288	1
NMSCR	42	288	1	96	96	5
NMSTR	43	0	5
NMSCL	43	0	5	96	96	1
NMSTR	43	96	1
NMSCR	43	96	1	96	96	5
NMTAP	43	192	5
NMSTR	43	288	7
NMSI_	43	288	7	96	48	1
NMTAP	44	0	4
NMSTR	44	0	7
NMSI_	44	0	7	96	48	5
CNSI_	44	48	1	0	48	7
NMTAP	44	48	4
NMSTR	44	96	2
NMSXL	44	96	2	96	96	1
NMTAP	44	144	2
CNSI_	44	144	5	0	48	7
EXTAP	44	288	0
NMSTR	45	0	7
NMSI_	45	0	7	96	48	3
NMTAP	45	24	0
NMTAP	45	48	6
NMTAP	45	96	3
BRTAP	45	96	7
NMTAP	45	144	2
NMTAP	45	168	2
NMSTR	45	192	6
NMSCR	45	192	6	96	48	0
NMTAP	45	240	0
NMSTR	45	288	6
NMSCL	45	288	6	96	48	4
NMTAP	45	336	4
NMTAP	45	360	4
NMSTR	46	0	6
NMSI_	46	0	6	96	48	2
NMTAP	46	48	0
NMTAP	46	72	0
NMSTR	46	96	6
NMSCL	46	96	6	96	48	4
NMTAP	46	144	4
NMTAP	46	168	4
NMSTR	46	192	6
NMSI_	46	192	6	96	48	2
NMTAP	46	240	0
NMTAP	46	288	6
NMSTR	47	0	1
NMSCR	47	0	1	96	48	4
NMSTR	47	0	4
NMSCR	47	0	4	96	48	7
NMTAP	47	48	0
NMSTR	47	192	3
NMSCL	47	192	3	96	48	0
NMSTR	47	192	6
NMSCL	47	192	6	96	48	3
NMTAP	47	240	7
NMSTR	48	0	1
NMSI_	48	0	1	96	48	3
NMSTR	48	0	4
NMSI_	48	0	4	96	48	0
NMSTR	48	96	1
NMSCL	48	96	1	96	96	3
NMTAP	48	96	4
NMTAP	48	192	3
NMSTR	48	288	1
NMSI_	48	288	1	96	48	3
NMSTR	49	0	1
NMSI_	49	0	1	96	48	5
NMTAP	49	48	7
NMTAP	49	72	7
NMSTR	49	96	1
NMSCR	49	96	1	96	48	3
NMTAP	49	144	3
NMTAP	49	168	3
NMSTR	49	192	1
NMSI_	49	192	1	96	48	5
BRTAP	49	240	7
NMSTR	49	288	1
NMSCR	49	288	1	96	48	3
NMTAP	49	336	3
NMTAP	49	360	3
NMSTR	50	0	1
NMSI_	50	0	1	96	48	5
NMTAP	50	48	7
NMSTR	50	96	1
NMSCR	50	96	1	96	48	3
NMTAP	50	144	3
NMTAP	50	168	3
NMSTR	50	192	1
NMSI_	50	192	1	96	48	5
BRTAP	50	240	7
NMTAP	50	288	1
NMSTR	51	0	3
NMSCL	51	0	3	96	48	0
NMSTR	51	0	6
NMSCL	51	0	6	96	48	3
NMTAP	51	48	7
NMSTR	51	192	1
NMSCR	51	192	1	96	48	4
NMSTR	51	192	4
NMSCR	51	192	4	96	48	7
NMTAP	51	240	0
NMSTR	52	0	3
NMSI_	52	0	3	96	48	7
NMSTR	52	0	6
NMSI_	52	0	6	96	48	4
NMTAP	52	96	3
NMTAP	52	96	6
NMTAP	52	192	1
NMTAP	52	192	5
NMSTR	52	288	2
NMSI_	52	288	2	96	48	0
NMSTR	52	288	6
NMSI_	52	288	6	96	48	0
NMSTR	53	0	2
NMSI_	53	0	2	96	48	4
NMSTR	53	0	6
NMSI_	53	0	6	96	48	4
NMSTR	53	96	2
NMSI_	53	96	2	96	48	0
NMSTR	53	96	6
NMSI_	53	96	6	96	48	0
NMTAP	53	192	2
NMTAP	53	192	6
NMSTR	53	288	3
NMSI_	53	288	3	96	48	1
NMTAP	53	288	5
NMTAP	54	0	3
NMSTR	54	0	5
NMSI_	54	0	5	96	48	7
NMTAP	54	48	4
NMSTR	54	96	3
NMSI_	54	96	3	96	48	1
NMTAP	54	96	5
NMTAP	54	144	4
NMTAP	54	192	3
NMTAP	54	192	5
NMTAP	54	240	4
EXSTR	54	288	1
NMSI_	54	288	1	96	48	7
EXSTR	54	288	5
NMSI_	54	288	5	96	48	7
NMSTR	55	0	1
NMSI_	55	0	1	96	48	3
NMSTR	55	0	5
NMSI_	55	0	5	96	48	3
NMSTR	55	96	1
NMSI_	55	96	1	96	48	7
NMSTR	55	96	5
NMSI_	55	96	5	96	48	7
NMTAP	55	192	1
NMTAP	55	192	5
NMTAP	55	288	2
NMSTR	55	288	4
NMSI_	55	288	4	96	48	6
NMSTR	56	0	2
NMSI_	56	0	2	96	48	0
NMTAP	56	0	4
NMTAP	56	48	3
NMTAP	56	96	2
NMSTR	56	96	4
NMSI_	56	96	4	96	48	6
NMTAP	56	144	3
NMTAP	56	192	2
NMTAP	56	192	4
NMTAP	56	240	3
EXSTR	56	288	2
NMSI_	56	288	2	96	48	4
EXSTR	56	288	6
NMSI_	56	288	6	96	48	0
NMSTR	57	0	2
NMSI_	57	0	2	96	48	0
NMSTR	57	0	6
NMSI_	57	0	6	96	48	4
NMSTR	57	96	2
BRSI_	57	96	2	96	48	4
NMSTR	57	96	6
BRSI_	57	96	6	96	48	0
NMTAP	57	192	2
NMTAP	57	192	6
NMSTR	57	288	3
NMSI_	57	288	3	96	48	1
NMTAP	57	288	7
NMTAP	58	0	3
BXSTR	58	0	5
NMSI_	58	0	5	96	48	7
NMTAP	58	48	4
NMSTR	58	96	3
NMSI_	58	96	3	96	48	1
NMTAP	58	96	5
NMTAP	58	144	4
NMTAP	58	192	3
NMTAP	58	192	5
BXTAP	58	240	4
EXSTR	58	288	1
NMSI_	58	288	1	96	48	7
EXSTR	58	288	5
NMSI_	58	288	5	96	48	3
NMSTR	59	0	1
NMSI_	59	0	1	96	48	3
NMSTR	59	0	5
NMSI_	59	0	5	96	48	7
BXSTR	59	96	1
NMSI_	59	96	1	96	48	7
BXSTR	59	96	5
NMSI_	59	96	5	96	48	3
BXSTR	59	192	1
NMSI_	59	192	1	96	48	3
BXSTR	59	192	5
NMSI_	59	192	5	96	48	7
NMTAP	59	288	1
NMTAP	59	288	5
NMTAP	60	0	1
NMTAP	60	0	5
NMHLD	60	96	6	48
NMHLD	60	96	7	48
NMHLD	60	192	0	48
NMHLD	60	192	1	48
NMTAP	60	288	2
NMSTR	60	288	7
NMSV_	60	288	7	96	48	5
NMSTR	61	0	1
NMSI_	61	0	1	96	48	6
CNSI_	61	48	5	0	48	3
BRTAP	61	192	0
BRTAP	61	192	1
NMSTR	61	288	2
NMSCR	61	288	2	96	48	4
NMSTR	61	288	6
NMSCR	61	288	6	96	48	0
NMTAP	62	0	2
NMTAP	62	0	6
NMSTR	62	96	3
NMSXR	62	96	3	96	96	5
NMTAP	62	192	7
NMSTR	62	288	6
NMSI_	62	288	6	96	48	1
NMSTR	63	0	4
NMSUL	63	0	4	96	48	0
NMTTP	63	96	7	A	0	M1
NMTTP	63	108	7	E	0	M1
NMTTP	63	120	6	B	0	M1
NMTTP	63	132	5	B	0	M1
BXSTR	63	192	0
NMSI_	63	192	0	96	48	6
BRTAP	63	192	1
NMSTR	63	288	0
NMSLR	63	288	0	96	96	4
NMTAP	64	0	5
NMTAP	64	48	6
NMSTR	64	96	7
NMSF_	64	96	7	96	48	3
NMTAP	64	192	7
NMSTR	64	288	1
NMSI_	64	288	1	96	48	5
NMSTR	64	288	5
NMSI_	64	288	5	96	48	1
NMSTR	65	0	1
NMSI_	65	0	1	96	48	7
NMSTR	65	0	5
NMSI_	65	0	5	96	48	3
NMSTR	65	192	0
NMSI_	65	192	0	96	48	3
NMSI_	65	192	0	96	48	5
NMTTP	65	288	0	C	0	M1
NMSTR	66	0	7
NMSI_	66	0	7	96	48	4
NMSTR	66	48	3
NMSV_	66	48	3	96	48	0
NMSTR	66	96	7
NMSCR	66	96	7	96	96	6
NMTAP	66	144	3
NMSTR	66	288	7
NMSI_	66	288	7	96	48	1
NMSI_	66	288	7	96	48	2
NMSTR	67	0	7
NMSI_	67	0	7	96	48	4
NMSI_	67	0	7	96	48	5
NMSTR	67	96	7
NMSXL	67	96	7	96	96	3
NMTAP	67	192	6
NMSTR	67	288	5
NMSV_	67	288	5	96	48	0
NMSTR	68	0	2
NMSV_	68	0	2	96	48	7
NMTAP	68	0	5
NMTAP	68	48	3
NMTAP	68	96	2
NMSTR	68	96	5
NMSUL	68	96	5	96	120	2
NMTAP	68	144	4
NMTTP	68	192	0	C	1	M1
NMSTR	69	0	0
NMSI_	69	0	0	96	48	3
NMSTR	69	0	6
NMSI_	69	0	6	96	48	2
BRTAP	69	96	0
BRTAP	69	96	6
EXHLD	69	192	2	48
EXHLD	69	192	3	48
NMHLD	69	264	4	48
NMHLD	69	264	5	48
NMTAP	69	336	6
NMTAP	69	336	7
NMSTR	70	0	6
NMSI_	70	0	6	96	48	2
NMSTR	70	48	7
NMSI_	70	48	7	96	48	1
NMSTR	70	96	6
NMSCL	70	96	6	96	96	1
NMTAP	70	144	7
NMTAP	70	192	6
NMTAP	70	288	0
NMSTR	71	0	1
NMSI_	71	0	1	96	48	5
NMSTR	71	0	7
NMSI_	71	0	7	96	48	4
NMTAP	71	96	1
NMTAP	71	96	7
EXHLD	71	192	4	48
EXHLD	71	192	5	48
NMHLD	71	264	2	48
NMHLD	71	264	3	48
NMTAP	71	336	0
NMTAP	71	336	1
NMSTR	72	0	1
NMSI_	72	0	1	96	48	5
NMSTR	72	48	0
NMSI_	72	48	0	96	48	6
NMSTR	72	96	1
NMSCR	72	96	1	96	96	6
NMTAP	72	144	0
NMTAP	72	192	1
NMTAP	72	288	7
NMSTR	73	0	2
NMSLL	73	0	2	96	96	6
NMTAP	73	0	6
NMSTR	73	96	6
NMSLL	73	96	6	96	96	2
NMTAP	73	192	2
NMTTP	73	288	0	C	0	M1
NMTAP	74	0	1
NMSTR	74	0	5
NMSLR	74	0	5	96	96	1
NMSTR	74	96	1
NMSLR	74	96	1	96	96	5
NMTAP	74	192	5
NMTTP	74	288	0	C	0	M1
NMTAP	75	0	0
NMTAP	75	0	6
NMTAP	75	48	5
NMTAP	75	96	1
NMTAP	75	96	7
NMTAP	75	144	2
NMTAP	75	192	0
NMTAP	75	192	6
NMTAP	75	240	4
NMTAP	75	288	1
NMTAP	75	288	7
NMTAP	75	336	3
NMTAP	76	0	6
NMTAP	76	0	7
NMTAP	76	48	0
NMTAP	76	48	1
NMTAP	76	96	2
NMTAP	76	96	3
NMTAP	76	144	4
NMSTR	76	144	5
BRSLR	76	144	5	96	48	2
NMTAP	76	192	6
NMTAP	76	192	7

T_REC_TAP	374
T_REC_BRK	19
T_REC_XTP	3
T_REC_BXX	1
T_REC_HLD	37
T_REC_XHO	8
T_REC_BHO	0
T_REC_BXH	0
T_REC_STR	132
T_REC_BST	2
T_REC_XST	7
T_REC_XBS	6
T_REC_TTP	26
T_REC_THO	0
T_REC_SLD	147
T_REC_BSL	3
T_REC_ALL	765
T_NUM_TAP	542
T_NUM_BRK	31
T_NUM_HLD	45
T_NUM_SLD	147
T_NUM_ALL	765
T_JUDGE_TAP	570
T_JUDGE_HLD	71
T_JUDGE_SLD	150
T_JUDGE_ALL	791
TTM_EACHPAIRS	143
TTM_SCR_TAP	271000
TTM_SCR_BRK	80600
TTM_SCR_HLD	45000
TTM_SCR_SLD	220500
TTM_SCR_ALL	617100
TTM_SCR_S	595600
TTM_SCR_SS	614000
TTM_RAT_ACV	10050

