VERSION	0.00.00	1.05.00
FES_MODE	0
BPM_DEF	135.000	135.000	135.000	135.000
MET_DEF	4	4
RESOLUTION	384
CLK_DEF	384
COMPATIBLE_CODE	MA2

BPM	0	0	135.000
MET	0	0	4	4

NMHLD	1	0	2	96
NMHLD	1	0	4	96
NMHLD	1	192	3	96
NMHLD	1	192	5	96
NMTAP	2	0	4
NMTAP	2	0	6
NMTAP	2	96	4
NMTAP	2	96	6
NMTAP	2	240	5
NMSTR	2	288	5
NMSI_	2	288	5	96	96	0
NMTAP	3	192	1
NMTAP	3	288	0
NMSTR	3	288	1
NMSI_	3	288	1	96	96	4
NMTAP	4	240	4
NMTAP	4	288	4
NMHLD	5	0	3	96
NMHLD	5	0	5	96
NMHLD	5	192	2	96
NMHLD	5	192	4	96
NMTAP	6	0	1
NMTAP	6	0	3
NMTAP	6	96	1
NMTAP	6	96	3
NMTAP	6	240	2
NMHLD	6	288	2	96
NMTTP	7	0	3	E	0	M1
NMTTP	7	96	1	B	0	M1
NMTTP	7	192	7	E	0	M1
NMTTP	7	288	5	B	0	M1
NMTHO	8	0	0	192	C	0	M1
EXTAP	8	288	0
EXTAP	8	288	7
EXTAP	9	0	0
EXTAP	9	0	7
NMTAP	9	192	1
NMTAP	9	288	1
NMTAP	10	0	2
NMTAP	10	0	7
NMTAP	10	96	2
NMTAP	10	96	7
NMTAP	10	192	0
NMTAP	10	192	5
NMTAP	10	288	0
NMTAP	10	288	5
NMHLD	11	0	1	192
NMTAP	11	0	4
NMTAP	11	96	3
NMTAP	11	192	4
NMTAP	11	288	4
NMTAP	11	288	5
NMTAP	12	0	3
NMHLD	12	0	6	192
NMTAP	12	96	4
NMTAP	12	192	3
NMTAP	12	288	2
NMTAP	12	288	3
NMHLD	13	0	1	96
NMTAP	13	96	0
NMHLD	13	192	6	96
NMTAP	13	288	7
NMSTR	14	0	0
NMSCR	14	0	0	96	96	3
NMSTR	14	192	7
NMSCL	14	192	7	96	96	4
NMHLD	15	0	2	96
NMTAP	15	96	3
NMHLD	15	192	5	96
NMTAP	15	288	4
NMTAP	16	0	3
NMTAP	16	0	4
NMTAP	16	96	2
NMTAP	16	96	3
NMHLD	16	192	1	96
NMHLD	16	192	3	96
BXTAP	17	0	0
NMTAP	17	96	1
NMTAP	17	96	3
NMTAP	17	192	4
NMTAP	17	288	2
NMSTR	17	288	3
NMSCR	17	288	3	96	96	4
CNSI_	18	96	4	0	96	0
NMTAP	18	240	1
NMTAP	18	288	1
NMHLD	19	0	2	96
NMHLD	19	0	3	96
NMTAP	19	192	0
NMTAP	19	192	1
NMTAP	19	288	6
NMTAP	19	288	7
NMHLD	20	0	5	96
NMTAP	20	96	4
NMHLD	20	192	4	96
NMHLD	20	192	6	96
BXTAP	21	0	7
NMTAP	21	96	5
NMTAP	21	192	3
NMSTR	21	288	4
NMSCL	21	288	4	96	96	3
NMTAP	21	288	5
CNSI_	22	96	3	0	96	7
NMTAP	22	240	6
NMHLD	22	288	6	96
NMTAP	23	0	7
NMTAP	23	96	4
NMTAP	23	96	5
NMTAP	23	192	2
NMTAP	23	192	3
NMTAP	23	240	2
NMTAP	23	240	3
NMTAP	23	336	0
NMSTR	24	0	0
NMSI_	24	0	0	96	96	3
BRTAP	24	288	2
BRTAP	24	288	4
BRHLD	25	0	1	96
BRTAP	25	0	3
NMTAP	25	96	0
NMTAP	25	144	0
NMTAP	25	192	0
NMTAP	25	288	1
NMTAP	25	288	7
NMTAP	26	0	0
NMHLD	26	0	6	96
NMTAP	26	96	7
NMTAP	26	144	7
NMTAP	26	192	7
NMTAP	26	288	0
NMTAP	26	288	6
NMHLD	27	0	1	96
NMTAP	27	0	5
NMTAP	27	96	3
NMTAP	27	144	3
NMTAP	27	192	3
NMTAP	27	288	2
NMTAP	27	288	3
NMTAP	28	0	0
NMTAP	28	48	0
NMTAP	28	96	7
NMTAP	28	144	7
NMTHO	28	192	0	192	C	0	M1
NMTTP	29	0	0	E	1	M1
NMTTP	29	96	1	E	0	M1
NMTTP	29	192	2	E	0	M1
NMTTP	29	288	3	E	0	M1
NMTTP	30	0	5	E	0	M1
NMTTP	30	96	6	E	0	M1
NMTHO	30	192	7	480	E	0	M1
NMTTP	31	0	1	B	0	M1
NMTTP	31	0	1	E	0	M1
NMTTP	31	96	0	C	0	M1
NMTTP	31	192	5	B	0	M1
NMTTP	31	192	5	E	0	M1
NMTTP	31	288	4	E	0	M1
NMTHO	32	0	0	192	C	0	M1
NMTAP	33	0	7
NMHLD	33	96	7	96
NMTAP	33	192	1
NMHLD	33	288	1	96
NMTAP	34	0	3
NMHLD	34	96	3	96
NMTAP	34	192	5
NMHLD	34	288	5	96
NMTAP	35	0	7
NMTAP	35	48	7
NMTAP	35	96	4
NMTAP	35	96	6
NMTAP	35	192	3
NMTAP	35	240	3
NMSTR	35	288	2
NMSSR	35	288	2	96	192	6
NMHLD	35	288	4	384
BXTAP	36	288	7
BRHLD	37	0	0	672
BRTAP	37	0	3
NMTTP	38	0	2	B	0	M1
NMTTP	38	0	3	E	0	M1
NMTTP	38	96	5	B	0	M1
NMTTP	38	96	5	E	0	M1
NMTTP	38	192	4	E	0	M1
NMTTP	38	192	4	D	0	M1
NMTTP	38	288	0	C	1	M1
EXTAP	39	0	0
EXHLD	39	0	7	288
NMTAP	39	96	6
NMTAP	39	192	0
NMTAP	39	288	6
NMHLD	40	0	0	48
NMHLD	40	0	1	48
NMHLD	40	96	0	48
NMHLD	40	96	1	48
NMTAP	40	192	2
NMTAP	40	192	7
NMTAP	40	288	4
NMTAP	40	288	5
NMHLD	41	0	0	288
NMTAP	41	0	7
NMTAP	41	96	1
NMTAP	41	192	7
NMTAP	41	288	1
NMHLD	42	0	6	48
NMHLD	42	0	7	48
NMHLD	42	96	6	48
NMHLD	42	96	7	48
NMTAP	42	192	0
NMTAP	42	192	5
NMTAP	42	288	2
NMTAP	42	288	3
NMTAP	43	0	1
NMHLD	43	0	4	288
NMTAP	43	96	7
NMTAP	43	192	1
NMTAP	43	288	7
NMHLD	44	0	0	48
NMHLD	44	0	3	48
NMHLD	44	96	0	48
NMHLD	44	96	3	48
NMTAP	44	192	1
NMTAP	44	192	2
NMSTR	44	288	0
NMSI_	44	288	0	96	48	4
NMTAP	44	288	7
BXTAP	45	96	3
BXTAP	45	96	5
NMTAP	45	192	6
NMTAP	45	240	6
NMTAP	45	288	4
NMTAP	46	0	1
NMTAP	46	48	1
NMTAP	46	96	3
NMTTP	46	192	4	A	0	M1
NMTTP	46	192	5	B	0	M1
NMTTP	46	192	5	E	0	M1
NMTTP	46	192	6	E	0	M1
NMTTP	46	288	2	B	0	M1
NMTTP	46	288	2	E	0	M1
NMTTP	46	288	3	E	0	M1
NMTTP	46	288	3	A	0	M1
NMTAP	47	0	6
NMTAP	47	48	6
NMSTR	47	96	6
NMSCL	47	96	6	96	96	3
NMSTR	47	96	7
NMSCR	47	96	7	96	96	2
NMHLD	48	0	2	96
NMHLD	48	96	0	96
NMHLD	48	192	7	96
NMHLD	48	288	5	96
BRTAP	49	0	4
NMTAP	49	96	6
NMTAP	49	96	7
NMTAP	49	192	0
NMTAP	49	192	2
BXHLD	49	240	0	96
BXHLD	49	240	2	96
EXTAP	50	0	3
EXTAP	50	0	7
NMTAP	50	96	4
NMTAP	50	96	5
NMTAP	50	192	1
NMTAP	50	192	3
BXHLD	50	240	1	96
BXHLD	50	240	3	96
EXTAP	51	0	0
EXTAP	51	0	4
NMTAP	51	96	6
NMTAP	51	144	6
NMTAP	51	192	4
NMTAP	51	240	4
NMHLD	51	288	7	96
NMTTP	52	0	5	E	1	M1
NMTTP	52	96	1	B	0	M1
NMTTP	52	96	1	E	0	M1
NMTTP	52	192	5	B	0	M1
NMTTP	52	192	6	B	0	M1
NMTTP	52	192	7	E	0	M1
NMTTP	52	288	2	A	0	M1
NMTTP	52	288	3	B	0	M1
NMTTP	52	288	3	E	0	M1
NMTTP	52	288	4	E	0	M1
NMHLD	53	0	0	96
NMSTR	53	0	1
BRSI_	53	0	1	96	48	3
NMSTR	53	192	1
BRSI_	53	192	1	96	48	4
NMHLD	53	192	7	96
NMHLD	54	0	5	48
NMHLD	54	0	6	48
NMHLD	54	96	5	48
NMHLD	54	96	6	48
NMTAP	54	192	4
NMTAP	54	192	7
NMTAP	54	288	5
NMTAP	54	288	6
NMSTR	55	0	6
BRSI_	55	0	6	96	48	4
NMHLD	55	0	7	96
NMHLD	55	192	0	96
NMSTR	55	192	6
BRSI_	55	192	6	96	48	3
NMHLD	56	0	1	48
NMHLD	56	0	2	48
NMHLD	56	96	1	48
NMHLD	56	96	2	48
NMTAP	56	192	0
NMTAP	56	192	3
NMTAP	56	288	1
NMTAP	56	288	2
NMSTR	57	0	0
BRSI_	57	0	0	96	48	6
NMHLD	57	0	1	96
NMSTR	57	192	0
BRSI_	57	192	0	96	48	5
BXHLD	57	192	2	48
BXHLD	58	0	4	48
BXHLD	58	0	6	48
BXHLD	58	96	4	48
BXHLD	58	96	6	48
NMTAP	58	192	7
BXTAP	58	240	7
NMTAP	58	288	0
NMTAP	58	288	7
NMHLD	59	0	6	96
NMSTR	59	0	7
BRSI_	59	0	7	96	48	1
BXHLD	59	192	5	48
NMSTR	59	192	7
BRSI_	59	192	7	96	48	2
NMHLD	60	0	1	48
NMHLD	60	0	3	48
NMHLD	60	96	1	48
NMHLD	60	96	3	48
NMSTR	60	192	0
NMSI_	60	192	0	96	48	3
NMSTR	60	192	4
NMSI_	60	192	4	96	48	7
BXTAP	61	0	2
BXTAP	61	0	6
NMHLD	61	192	3	96
NMHLD	61	192	7	96
BRTAP	62	0	4
BRTAP	62	0	6
BRSTR	62	96	4
BRSUR	62	96	4	96	96	1
BRSTR	62	96	5
BRSCR	62	96	5	96	96	0
NMTAP	63	0	0
NMHLD	63	0	1	96
NMHLD	63	96	2	96
NMHLD	63	192	3	96
NMHLD	63	288	0	96
BRTAP	64	0	1
BRSTR	64	96	0
BRSUR	64	96	0	96	96	5
BRSTR	64	96	1
BRSCR	64	96	1	96	96	4
NMHLD	65	0	6	192
NMTAP	65	96	4
NMHLD	65	192	0	192
NMTTP	65	288	3	E	0	M1
BRTAP	66	0	6
BRSTR	66	96	6
BRSUL	66	96	6	96	96	2
BRSTR	66	96	7
BRSCR	66	96	7	96	96	2
NMHLD	67	0	1	192
NMTAP	67	96	0
NMHLD	67	192	7	192
NMTTP	67	288	6	E	0	M1
BRTAP	68	0	1
BRTAP	68	96	1
BRTAP	68	96	5
BRTAP	68	192	0
BRTAP	68	192	6
BRTAP	68	288	2
BRSTR	68	288	6
NMSI_	68	288	6	96	48	3
BXTAP	69	96	0
NMTAP	69	192	1
NMTAP	69	192	3
NMTAP	69	288	5
NMTAP	69	336	5
NMTAP	70	0	4
NMTAP	70	0	6
NMTAP	70	96	2
NMTAP	70	144	2
NMTAP	70	192	1
NMTAP	70	192	3
NMTAP	70	288	3
NMTAP	70	288	5
NMTAP	71	0	3
NMTAP	71	0	5
NMTAP	71	96	6
NMTAP	71	144	6
NMTAP	71	192	5
NMTAP	71	192	7
NMTAP	71	288	1
NMTAP	71	336	1
NMTAP	72	0	0
NMTAP	72	0	2
NMSTR	72	96	1
NMSI_	72	96	1	96	96	4
NMSTR	72	96	3
NMSUL	72	96	3	96	96	5
NMHLD	73	0	6	384
NMTTP	73	96	4	B	0	M1
NMTTP	73	96	5	B	0	M1
NMTTP	73	288	4	E	0	M1
NMHLD	74	0	1	288
NMTTP	74	96	2	B	0	M1
NMTTP	74	96	3	B	0	M1
NMTTP	74	288	4	E	0	M1
NMHLD	75	0	2	96
NMHLD	75	96	6	96
NMHLD	75	192	4	96
NMHLD	75	288	2	96
BXHLD	76	0	4	192
BXSTR	76	96	5
NMSI_	76	96	5	96	48	7
CNSI_	76	240	7	0	72	2

T_REC_TAP	174
T_REC_BRK	15
T_REC_XTP	9
T_REC_BXX	9
T_REC_HLD	83
T_REC_XHO	1
T_REC_BHO	2
T_REC_BXH	11
T_REC_STR	23
T_REC_BST	7
T_REC_XST	0
T_REC_XBS	1
T_REC_TTP	49
T_REC_THO	4
T_REC_SLD	17
T_REC_BSL	14
T_REC_ALL	419
T_NUM_TAP	255
T_NUM_BRK	59
T_NUM_HLD	88
T_NUM_SLD	17
T_NUM_ALL	419
T_JUDGE_TAP	287
T_JUDGE_HLD	240
T_JUDGE_SLD	31
T_JUDGE_ALL	558
TTM_EACHPAIRS	107
TTM_SCR_TAP	127500
TTM_SCR_BRK	153400
TTM_SCR_HLD	88000
TTM_SCR_SLD	25500
TTM_SCR_ALL	394400
TTM_SCR_S	376850
TTM_SCR_SS	388500
TTM_RAT_ACV	10151

