VERSION	0.00.00	1.05.00
FES_MODE	0
BPM_DEF	135.000	135.000	135.000	135.000
MET_DEF	4	4
RESOLUTION	384
CLK_DEF	384
COMPATIBLE_CODE	MA2

BPM	0	0	135.000
MET	0	0	4	4

NMTAP	1	0	0
NMTAP	1	96	0
NMTAP	1	192	0
NMTAP	2	0	1
NMTAP	2	96	1
NMTAP	2	192	1
NMTAP	3	0	2
NMTAP	3	96	2
NMTAP	3	192	2
NMTAP	4	0	3
NMTAP	4	0	4
NMTAP	4	192	3
NMTAP	4	192	4
NMTAP	5	0	4
NMTAP	5	96	4
NMTAP	5	192	4
NMTAP	6	0	5
NMTAP	6	96	5
NMTAP	6	192	5
NMTAP	7	0	6
NMTAP	7	96	6
NMTAP	7	192	6
NMTAP	8	0	0
NMTAP	8	0	7
NMTAP	8	192	0
NMTAP	8	192	7
NMHLD	9	0	6	192
NMTAP	9	192	7
NMTAP	10	0	6
NMTAP	10	0	7
NMTAP	10	192	6
NMTAP	10	192	7
NMHLD	11	0	5	192
NMTAP	11	192	4
NMTAP	12	0	4
NMTAP	12	0	5
NMTAP	12	192	4
NMTAP	12	192	5
NMHLD	13	0	2	192
NMTAP	13	192	3
NMTAP	14	0	2
NMTAP	14	0	3
NMTAP	14	192	2
NMTAP	14	192	3
NMHLD	15	0	1	192
NMTAP	15	192	0
NMTAP	16	0	0
NMTAP	16	0	1
NMTAP	16	192	0
NMTAP	16	192	1
NMTAP	17	0	0
NMTAP	17	96	0
NMTAP	17	192	1
NMTAP	18	0	2
NMTAP	18	96	2
NMTAP	18	192	3
NMTAP	19	0	4
NMTAP	19	96	4
NMTAP	19	192	5
NMTAP	20	0	6
NMTAP	20	96	6
NMTAP	20	192	0
NMTAP	20	192	7
NMTAP	21	0	7
NMTAP	21	96	7
NMTAP	21	192	6
NMTAP	22	0	5
NMTAP	22	96	5
NMTAP	22	192	4
NMTAP	23	0	3
NMTAP	23	96	3
NMTAP	23	192	2
NMTAP	24	0	1
NMTAP	24	96	1
NMTAP	24	192	0
NMTAP	24	192	7
NMHLD	25	0	6	192
NMHLD	25	192	7	192
NMHLD	26	0	0	192
NMTAP	26	192	1
NMHLD	27	0	1	192
NMHLD	27	192	0	192
NMHLD	28	0	7	192
NMTAP	28	192	6
NMTTP	29	0	6	B	0	L1
NMTTP	29	96	5	B	0	L1
NMTTP	29	192	4	B	0	L1
NMTTP	30	0	1	B	0	L1
NMTTP	30	96	2	B	0	L1
NMTTP	30	192	3	B	0	L1
NMTTP	31	0	6	B	0	L1
NMTTP	31	96	5	B	0	L1
NMTTP	31	192	4	B	0	L1
NMTTP	31	288	3	B	0	L1
NMTTP	32	0	2	B	0	L1
NMTTP	32	96	1	B	0	L1
NMTTP	32	192	0	C	0	L1
NMTTP	33	0	0	B	0	L1
NMTTP	33	96	1	B	0	L1
NMTTP	33	192	2	B	0	L1
NMTTP	33	192	3	B	0	L1
NMTTP	34	0	7	B	0	L1
NMTTP	34	96	6	B	0	L1
NMTTP	34	192	4	B	0	L1
NMTTP	34	192	5	B	0	L1
NMTTP	35	0	1	B	0	L1
NMTTP	35	96	2	B	0	L1
NMTTP	35	192	3	B	0	L1
NMTTP	35	288	4	B	0	L1
NMTTP	36	0	5	B	0	L1
NMTTP	36	96	6	B	0	L1
NMTHO	36	192	0	192	C	1	L1
NMTAP	38	0	0
NMTAP	38	0	7
NMTAP	38	96	0
NMTAP	38	96	7
NMTAP	38	192	0
NMTAP	38	192	7
NMTAP	39	0	1
NMTAP	39	96	1
NMTAP	39	192	0
NMTAP	39	288	0
NMTAP	40	0	7
NMTAP	40	96	7
NMTAP	40	192	6
NMTAP	40	192	7
NMTAP	41	0	6
NMTAP	41	96	6
NMTAP	41	192	5
NMTAP	41	288	5
NMTAP	42	0	4
NMTAP	42	96	4
NMTAP	42	192	2
NMTAP	42	192	3
NMTAP	43	0	1
NMTAP	43	96	1
NMTAP	43	192	2
NMTAP	43	288	2
NMTAP	44	0	3
NMTAP	44	96	3
NMTAP	44	192	4
NMTAP	44	192	5
NMTAP	45	0	6
BXTAP	45	96	6
NMTAP	45	192	6
NMTAP	45	288	6
NMTAP	45	288	7
NMTAP	46	0	5
NMTAP	46	96	5
NMTAP	46	192	5
NMTAP	46	288	4
NMTAP	46	288	5
NMTAP	47	0	3
NMTAP	47	96	3
NMTAP	47	192	3
NMTAP	47	288	2
NMTAP	47	288	3
NMTAP	48	0	1
NMTAP	48	96	1
NMTAP	48	192	0
NMTAP	48	192	1
NMTAP	49	0	1
NMTAP	49	96	1
NMTAP	49	192	1
NMTAP	49	288	0
NMTAP	49	288	1
NMTAP	50	0	2
NMTAP	50	96	2
NMTAP	50	192	2
NMTAP	50	288	2
NMTAP	50	288	3
NMTAP	51	0	4
NMTAP	51	96	4
NMTAP	51	192	4
NMTAP	51	288	4
NMTAP	51	288	5
NMTAP	52	0	6
NMTAP	52	96	6
NMTAP	52	192	6
NMTAP	52	192	7
NMTAP	53	0	6
NMTAP	53	0	7
BXTAP	53	96	6
BXTAP	53	96	7
NMTAP	53	192	5
NMTAP	53	288	5
NMTAP	54	0	3
NMTAP	54	0	4
NMTAP	54	96	3
NMTAP	54	96	4
NMTAP	54	192	2
NMTAP	54	288	2
NMTAP	55	0	0
NMTAP	55	0	1
NMTAP	55	96	0
NMTAP	55	96	1
NMTAP	55	192	2
NMTAP	55	288	2
NMTAP	56	0	3
NMTAP	56	0	4
NMTAP	56	96	3
NMTAP	56	96	4
NMTAP	56	192	2
NMTAP	56	192	5
NMTAP	57	0	2
NMTAP	57	0	3
NMTAP	57	96	2
NMTAP	57	96	3
NMTAP	57	192	1
NMTAP	57	288	1
EXTAP	58	0	0
EXTAP	58	0	7
NMTAP	58	96	0
NMTAP	58	96	7
NMTAP	58	192	6
NMTAP	58	288	6
NMTAP	59	0	4
NMTAP	59	0	5
EXTAP	59	96	4
EXTAP	59	96	5
EXTAP	59	192	6
NMTAP	59	288	6
NMTAP	60	0	0
NMTAP	60	0	7
NMTAP	60	96	0
NMTAP	60	96	7
NMTAP	60	192	1
NMTAP	60	192	6
NMSTR	61	0	0
NMSI_	61	0	0	96	192	4
NMSTR	62	0	6
NMSI_	62	0	6	96	192	3
NMSTR	63	0	2
NMSUL	63	0	2	96	480	7
NMSTR	65	0	6
NMSI_	65	0	6	96	192	2
NMSTR	66	0	1
NMSI_	66	0	1	96	192	5
NMSTR	67	0	6
NMSUL	67	0	6	96	480	3
NMTAP	69	0	2
BXTAP	69	96	1
NMTAP	69	192	0
NMTAP	69	288	7
NMTAP	70	0	6
NMTAP	70	96	5
NMTAP	70	192	3
NMTAP	70	192	4
NMTAP	71	0	5
NMTAP	71	96	6
NMTAP	71	192	7
NMTAP	71	288	0
NMTAP	72	0	1
NMTAP	72	96	2
NMTAP	72	192	3
NMTAP	72	192	4
NMTAP	73	0	3
NMTAP	73	96	2
NMTAP	73	192	1
NMTAP	73	288	0
NMTAP	74	0	7
NMTAP	74	96	6
NMTAP	74	192	5
NMTAP	74	288	4
NMTAP	75	0	3
NMTAP	75	96	2
NMTAP	75	192	1
NMTAP	75	288	0
NMTAP	76	0	0
NMTAP	76	0	7
NMTAP	76	96	0
NMTAP	76	96	7
NMTAP	76	192	1
NMTAP	76	192	6
BRTAP	76	288	1
BRTAP	76	288	6

T_REC_TAP	215
T_REC_BRK	2
T_REC_XTP	5
T_REC_BXX	4
T_REC_HLD	10
T_REC_XHO	0
T_REC_BHO	0
T_REC_BXH	0
T_REC_STR	6
T_REC_BST	0
T_REC_XST	0
T_REC_XBS	0
T_REC_TTP	27
T_REC_THO	1
T_REC_SLD	6
T_REC_BSL	0
T_REC_ALL	276
T_NUM_TAP	253
T_NUM_BRK	6
T_NUM_HLD	11
T_NUM_SLD	6
T_NUM_ALL	276
T_JUDGE_TAP	259
T_JUDGE_HLD	44
T_JUDGE_SLD	6
T_JUDGE_ALL	309
TTM_EACHPAIRS	52
TTM_SCR_TAP	126500
TTM_SCR_BRK	15600
TTM_SCR_HLD	11000
TTM_SCR_SLD	9000
TTM_SCR_ALL	162100
TTM_SCR_S	156700
TTM_SCR_SS	161500
TTM_RAT_ACV	10037

