VERSION	0.00.00	1.05.00
FES_MODE	0
BPM_DEF	135.000	135.000	135.000	135.000
MET_DEF	4	4
RESOLUTION	384
CLK_DEF	384
COMPATIBLE_CODE	MA2

BPM	0	0	135.000
MET	0	0	4	4

NMTAP	1	0	0
NMTAP	2	0	1
NMTAP	3	0	2
NMTAP	4	0	3
NMTAP	5	0	4
NMTAP	6	0	5
NMTAP	7	0	6
NMTAP	8	0	0
NMTAP	8	0	7
EXTAP	9	0	7
NMTAP	9	192	7
NMTAP	10	0	6
NMTAP	11	0	5
NMTAP	11	192	5
NMTAP	12	0	3
NMTAP	12	0	4
NMTAP	13	0	3
NMTAP	13	192	3
NMTAP	14	0	2
NMTAP	15	0	1
NMTAP	15	192	1
NMTAP	16	0	0
NMTAP	16	0	7
NMTAP	17	0	0
NMTAP	17	192	0
NMTAP	18	0	1
NMTAP	18	192	1
NMTAP	19	0	2
NMTAP	19	192	2
NMTAP	20	0	3
NMTAP	20	0	4
NMTAP	21	0	4
NMTAP	21	192	4
NMTAP	22	0	5
NMTAP	22	192	5
NMTAP	23	0	6
NMTAP	23	192	6
NMTAP	24	0	0
NMTAP	24	0	7
NMTTP	25	0	0	E	0	L1
NMTTP	26	0	0	B	0	L1
NMTTP	26	0	7	B	0	L1
NMTTP	27	0	1	B	0	L1
NMTTP	27	0	6	B	0	L1
NMTTP	28	0	0	C	1	L1
NMSTR	29	0	0
NMSI_	29	0	0	96	288	4
NMSTR	31	0	7
NMSI_	31	0	7	96	288	3
NMSTR	33	0	1
NMSI_	33	0	1	96	288	4
NMSTR	35	0	6
NMSI_	35	0	6	96	288	3
NMSTR	37	0	1
NMSI_	37	0	1	96	288	5
BXTAP	39	0	7
NMTAP	39	192	6
BXTAP	40	0	5
NMTAP	40	96	5
NMTAP	40	192	5
BXTAP	41	0	4
NMTAP	41	192	3
BXTAP	42	0	2
NMTAP	42	96	2
NMTAP	42	192	2
BXTAP	43	0	1
NMTAP	43	192	0
BXTAP	44	0	7
NMTAP	44	96	7
NMTAP	44	192	7
EXTAP	45	0	0
EXTAP	45	0	7
NMTAP	45	192	0
NMTAP	45	192	7
NMTAP	46	0	1
NMTAP	46	96	1
NMTAP	46	192	1
EXTAP	47	0	2
EXTAP	47	0	3
NMTAP	47	192	2
NMTAP	47	192	3
NMTAP	48	0	4
NMTAP	48	96	4
NMTAP	48	192	4
EXTAP	49	0	4
EXTAP	49	0	5
NMTAP	49	192	4
NMTAP	49	192	5
NMTAP	50	0	6
NMTAP	50	96	6
NMTAP	50	192	6
EXTAP	51	0	0
EXTAP	51	0	7
NMTAP	51	192	0
NMTAP	51	192	7
BXTAP	52	0	0
BXTAP	52	0	7
NMTAP	53	0	7
BXTAP	53	96	7
NMTAP	53	192	7
NMTAP	54	0	6
NMTAP	54	96	6
NMTAP	54	192	6
NMTAP	55	0	5
NMTAP	55	96	5
NMTAP	55	192	5
NMTAP	56	0	4
NMTAP	56	96	4
NMTAP	56	192	3
NMTAP	56	192	4
NMTAP	57	0	3
NMTAP	57	96	3
NMTAP	57	192	3
NMTAP	58	0	2
NMTAP	58	96	2
NMTAP	58	192	2
NMTAP	59	0	1
NMTAP	59	96	1
NMTAP	59	192	1
NMTAP	60	0	0
NMTAP	60	96	0
NMTAP	60	192	0
NMTAP	60	192	7
EXHLD	61	0	0	384
EXHLD	61	0	1	384
NMHLD	63	0	2	384
NMHLD	63	0	3	384
NMHLD	65	0	4	384
NMHLD	65	0	5	384
NMHLD	67	0	6	384
NMHLD	67	0	7	384
NMTAP	69	0	7
BRTAP	69	96	7
NMTAP	69	192	7
NMTAP	70	0	6
NMTAP	70	96	6
NMTAP	70	192	6
NMTAP	70	192	7
NMTAP	71	0	5
NMTAP	71	96	5
NMTAP	71	192	5
NMTAP	72	0	4
NMTAP	72	96	4
NMTAP	72	192	3
NMTAP	72	192	4
NMTAP	73	0	3
NMTAP	73	96	3
NMTAP	73	192	3
NMTAP	74	0	2
NMTAP	74	96	2
NMTAP	74	192	2
NMTAP	74	192	3
NMTAP	75	0	1
NMTAP	75	96	1
NMTAP	75	192	1
NMHLD	76	0	0	288
NMHLD	76	0	7	288

T_REC_TAP	112
T_REC_BRK	1
T_REC_XTP	9
T_REC_BXX	9
T_REC_HLD	8
T_REC_XHO	2
T_REC_BHO	0
T_REC_BXH	0
T_REC_STR	5
T_REC_BST	0
T_REC_XST	0
T_REC_XBS	0
T_REC_TTP	6
T_REC_THO	0
T_REC_SLD	5
T_REC_BSL	0
T_REC_ALL	157
T_NUM_TAP	132
T_NUM_BRK	10
T_NUM_HLD	10
T_NUM_SLD	5
T_NUM_ALL	157
T_JUDGE_TAP	142
T_JUDGE_HLD	76
T_JUDGE_SLD	5
T_JUDGE_ALL	223
TTM_EACHPAIRS	24
TTM_SCR_TAP	66000
TTM_SCR_BRK	26000
TTM_SCR_HLD	10000
TTM_SCR_SLD	7500
TTM_SCR_ALL	109500
TTM_SCR_S	105250
TTM_SCR_SS	108500
TTM_RAT_ACV	10092

