VERSION	0.00.00	1.05.00
FES_MODE	0
BPM_DEF	238.000	238.000	238.000	238.000
MET_DEF	4	4
RESOLUTION	384
CLK_DEF	384
COMPATIBLE_CODE	MA2

BPM	0	0	238.000
MET	0	0	4	4

BRTAP	3	0	6
BRTAP	3	0	7
NMTAP	3	12	0
NMTAP	3	12	5
NMTAP	3	24	1
NMSTR	3	24	4
NMSCR	3	24	4	96	1380	2
NMHLD	3	36	2	540
NMTAP	3	36	3
NMHLD	5	0	3	576
CNSCL	6	348	2	0	1380	4
NMTAP	7	0	4
NMTAP	7	192	4
NMTAP	8	0	3
NMTAP	8	192	3
NMTAP	9	0	2
NMTAP	9	192	2
NMTAP	10	0	1
NMHLD	10	192	0	192
NMTAP	11	0	3
NMTAP	11	48	3
NMHLD	11	96	2	96
NMHLD	11	96	4	96
NMTAP	11	288	4
NMTAP	11	336	4
NMTAP	12	0	3
NMHLD	12	0	5	288
NMTAP	12	192	3
NMTAP	12	288	4
NMTAP	12	336	4
NMTAP	13	0	6
NMTAP	13	48	6
NMHLD	13	96	6	96
NMHLD	13	96	7	96
NMTAP	13	288	1
NMTAP	13	336	1
NMHLD	14	0	0	96
NMSTR	14	0	2
NMSCR	14	0	2	96	96	5
NMTAP	14	192	6
NMTAP	14	240	6
NMTAP	14	288	4
NMTAP	14	336	4
NMTAP	15	0	5
NMTAP	15	48	5
NMHLD	15	96	4	96
NMHLD	15	96	6	96
NMTAP	15	288	3
NMTAP	15	336	3
NMHLD	16	0	2	96
NMHLD	16	0	4	96
NMTTP	16	192	1	B	0	M1
NMTHO	16	192	3	768	B	1	M1
NMTTP	17	0	1	E	0	M1
NMTTP	17	192	0	E	0	M1
NMTTP	18	0	7	E	0	M1
NMSTR	18	192	6
NMSI_	18	192	6	96	96	2
BXTAP	19	0	7
NMTAP	19	96	1
NMTAP	19	96	7
NMTAP	19	192	6
NMTAP	19	240	6
NMTAP	19	288	4
NMTAP	19	336	5
NMTAP	20	0	3
NMTAP	20	0	6
NMTAP	20	96	3
NMTAP	20	96	6
NMTAP	20	192	5
NMTAP	20	240	5
NMTAP	20	288	3
NMTAP	20	336	4
NMTAP	21	0	1
NMTAP	21	0	3
NMTAP	21	96	1
NMTAP	21	96	3
NMTAP	21	192	0
NMTAP	21	192	4
NMTAP	21	240	3
NMHLD	21	288	0	48
NMHLD	21	288	4	48
NMTAP	22	0	1
NMTAP	22	24	3
NMTAP	22	48	2
NMTAP	22	96	2
NMTAP	22	192	1
NMTAP	22	192	4
NMTAP	22	240	1
NMSTR	22	240	4
NMSI_	22	240	4	96	48	6
NMTAP	22	336	3
BXTAP	23	0	3
NMTAP	23	96	4
NMTAP	23	96	7
NMTAP	23	192	4
NMTAP	23	192	7
NMTAP	23	240	5
NMTAP	23	288	4
NMTAP	23	288	6
NMTAP	23	336	5
NMTAP	24	0	1
NMTAP	24	0	4
NMTAP	24	96	1
NMTAP	24	96	4
NMTAP	24	192	1
NMTAP	24	192	4
NMTAP	24	240	3
NMTAP	24	288	2
NMTAP	24	288	4
NMTAP	24	336	3
NMTAP	25	0	4
NMTAP	25	0	7
NMTAP	25	96	4
NMTAP	25	96	7
NMTAP	25	192	3
NMTAP	25	192	6
NMTAP	25	240	4
NMHLD	25	288	3	48
NMHLD	25	288	7	48
NMTAP	26	0	6
NMTAP	26	24	4
NMTAP	26	48	5
NMSTR	26	144	1
NMSI_	26	144	1	96	48	4
NMSTR	26	144	3
NMSI_	26	144	3	96	48	7
EXTAP	26	240	1
EXTAP	26	240	3
BRTAP	27	0	7
NMTAP	27	96	1
NMTAP	27	144	1
NMTAP	27	192	3
NMTAP	27	288	3
NMSTR	27	288	5
NMSI_	27	288	5	96	48	0
NMSTR	28	0	4
NMSCL	28	0	4	96	48	1
NMTAP	28	96	7
NMTAP	28	192	7
NMTAP	28	240	6
NMTAP	28	288	0
NMTAP	28	288	5
NMTAP	29	0	3
NMTAP	29	0	7
NMTAP	29	96	6
NMTAP	29	144	6
NMTAP	29	192	4
NMSTR	29	288	2
NMSI_	29	288	2	96	48	7
NMTAP	29	288	4
NMSTR	30	0	3
NMSCR	30	0	3	96	48	6
NMTAP	30	96	0
NMTAP	30	192	0
NMTAP	30	240	1
NMTAP	30	288	2
NMSTR	30	288	7
NMSCL	30	288	7	96	96	3
NMSTR	31	0	3
NMSUR	31	0	3	96	96	0
NMTAP	31	96	2
NMTAP	31	144	2
NMTAP	31	240	1
NMSTR	31	288	1
NMSCR	31	288	1	96	96	5
NMTAP	32	0	0
CNSV_	32	96	5	0	96	0
NMTAP	32	96	7
NMTAP	32	144	7
NMTAP	32	240	6
NMHLD	32	288	6	96
NMTAP	33	0	7
NMTAP	33	96	0
NMTAP	33	96	1
NMSTR	33	144	2
NMSI_	33	144	2	96	48	4
NMTAP	33	144	7
NMTAP	33	240	6
NMHLD	33	288	6	96
NMTAP	34	0	4
NMTAP	34	48	4
NMTAP	34	72	5
NMTAP	34	96	3
NMSTR	34	144	2
NMSI_	34	144	2	96	48	0
NMSTR	34	144	4
NMSI_	34	144	4	96	48	0
NMTAP	34	240	2
NMTAP	34	240	4
NMTAP	35	0	1
NMTAP	35	0	7
NMTAP	35	96	3
NMTAP	35	144	4
NMSTR	35	192	5
NMSCR	35	192	5	96	48	0
NMTAP	35	288	3
NMTAP	35	336	2
NMHLD	36	0	1	96
NMHLD	36	96	0	96
NMTAP	36	192	1
NMTAP	36	240	0
NMTAP	36	288	2
NMTAP	36	288	7
EXTAP	37	0	0
EXTAP	37	0	5
EXTAP	37	96	4
EXTAP	37	144	3
EXSTR	37	192	2
BRSCL	37	192	2	96	48	7
NMTAP	37	288	4
NMTAP	37	336	5
NMHLD	38	0	6	96
NMHLD	38	96	7	96
NMTAP	38	192	6
NMTAP	38	240	0
NMTAP	38	288	1
NMTAP	38	288	5
NMTAP	39	0	1
NMTAP	39	0	4
NMTAP	39	48	2
NMTAP	39	72	3
NMTAP	39	96	1
NMSTR	39	144	0
NMSI_	39	144	0	96	48	4
NMTAP	39	144	4
CNSI_	39	288	4	0	48	6
NMSTR	39	288	7
NMSCR	39	288	7	96	48	1
NMSTR	40	0	7
BRSUL	40	0	7	96	96	3
NMSTR	40	144	2
NMSXR	40	144	2	96	240	7
NMSTR	40	288	3
BRSCR	40	288	3	96	96	6
NMTAP	41	288	6
NMTAP	41	288	7
NMTAP	42	0	3
NMTAP	42	0	5
NMTAP	42	48	5
NMTAP	42	96	2
NMTAP	42	96	4
NMTAP	42	192	1
NMTAP	42	192	3
NMHLD	42	240	1	96
NMTAP	42	240	3
NMTAP	42	336	0
NMTAP	42	348	7
NMTAP	42	360	6
NMTAP	42	372	5
BXSTR	43	0	4
NMSI_	43	0	4	96	168	2
CNSI_	43	264	2	0	168	7
CNSI_	44	48	7	0	168	5
CNSI_	44	216	5	0	168	1
NMHLD	45	0	0	192
NMHLD	46	0	6	192
NMTAP	46	0	7
NMTAP	46	192	0
NMTAP	46	224	0
NMTAP	46	256	7
EXTAP	46	288	1
EXTAP	46	288	6
BRTAP	47	0	6
NMTAP	47	24	7
NMTAP	47	48	6
NMTAP	47	72	7
NMTAP	47	96	6
NMTAP	47	144	4
NMTAP	47	144	5
NMTAP	47	192	3
NMTAP	47	192	4
NMTAP	47	240	2
NMHLD	47	240	3	96
NMTAP	47	336	2
BRTAP	48	0	1
NMTAP	48	24	4
NMTAP	48	48	1
NMTAP	48	72	4
NMTAP	48	96	1
NMTAP	48	144	2
NMTAP	48	144	3
NMTAP	48	192	3
NMTAP	48	192	4
NMHLD	48	240	4	96
NMTAP	48	240	5
NMTAP	48	336	5
BRTAP	49	0	6
NMTAP	49	24	3
NMTAP	49	48	6
NMTAP	49	72	3
NMTAP	49	96	6
NMTAP	49	144	4
NMTAP	49	144	5
NMTAP	49	192	3
NMTAP	49	192	4
NMTAP	49	240	2
NMHLD	49	240	3	96
NMTAP	49	336	2
BRTAP	50	0	2
NMTAP	50	24	3
NMTAP	50	48	2
NMTAP	50	72	3
NMTAP	50	96	2
NMTAP	50	144	0
NMTAP	50	144	1
NMTAP	50	192	0
NMTAP	50	192	7
NMHLD	50	240	6	96
NMTAP	50	240	7
NMTAP	50	336	7
NMTAP	50	348	0
NMTAP	50	360	1
NMTAP	50	372	2
BXSTR	51	0	3
NMSI_	51	0	3	96	168	5
CNSI_	51	264	5	0	168	0
NMTTP	52	0	3	B	0	M1
NMTTP	52	0	3	E	0	M1
NMTTP	52	0	4	E	0	M1
CNSI_	52	48	0	0	168	2
CNSI_	52	216	2	0	168	6
NMTAP	52	288	4
NMHLD	53	0	4	192
NMHLD	54	0	2	192
NMTAP	54	0	3
NMTAP	54	192	1
NMTAP	54	224	0
NMTAP	54	256	7
NMTAP	54	288	6
NMTAP	54	320	5
NMTAP	54	352	4
NMTAP	55	0	1
NMTAP	55	0	3
NMTAP	55	96	1
NMTAP	55	96	3
NMTAP	55	192	4
NMTAP	55	192	6
NMTAP	55	288	4
NMTAP	55	288	6
NMTAP	56	0	0
NMTAP	56	0	1
NMTAP	56	96	0
NMTAP	56	96	1
NMTAP	56	192	2
NMTAP	56	192	7
NMTAP	56	288	3
NMTAP	56	288	6
NMTAP	57	0	6
NMTAP	57	32	4
NMTAP	57	64	5
NMTAP	57	96	2
NMTAP	57	128	4
NMTAP	57	160	3
NMTAP	57	192	5
NMTAP	57	224	3
NMTAP	57	256	4
NMSTR	57	288	2
NMSI_	57	288	2	96	48	6
NMHLD	58	0	5	288
NMTAP	58	288	7
BRTAP	59	0	6
BRTAP	59	0	7
NMTAP	59	12	0
NMTAP	59	12	5
NMTAP	59	24	1
NMTAP	59	24	4
NMTAP	59	36	2
NMTAP	59	36	3
NMTAP	59	96	4
NMSTR	59	144	2
NMSI_	59	144	2	96	48	5
NMSTR	59	192	6
NMSI_	59	192	6	96	48	0
NMTAP	59	240	2
NMSTR	59	288	6
NMSI_	59	288	6	96	64	2
NMTAP	60	0	3
CNSI_	60	64	2	0	64	4
NMTAP	60	96	1
CNSI_	60	128	4	0	64	7
NMTAP	60	144	1
NMTAP	60	240	0
NMSTR	60	288	1
NMSCR	60	288	1	96	48	3
NMTAP	60	336	7
BRTAP	61	0	1
NMSTR	61	48	6
NMSI_	61	48	6	96	48	0
NMTAP	61	96	4
BRTAP	61	144	6
NMTAP	61	192	2
NMTAP	61	240	2
BRSTR	61	288	0
NMSCL	61	288	0	96	48	5
NMTAP	61	336	3
BRTAP	62	0	0
NMSTR	62	48	2
NMSI_	62	48	2	96	48	6
NMTAP	62	96	4
BRTAP	62	144	2
NMSTR	62	192	5
NMSI_	62	192	5	96	48	0
NMTAP	62	240	7
BRTAP	62	288	5
BRTAP	63	0	1
BRTAP	63	0	7
NMTAP	63	96	6
NMTAP	63	144	0
NMSTR	63	192	5
NMSCL	63	192	5	96	48	3
NMTAP	63	240	7
NMTAP	63	288	5
NMTAP	63	336	2
NMSTR	64	0	0
NMSI_	64	0	0	96	48	4
NMSTR	64	48	1
NMSLR	64	48	1	96	96	5
NMTAP	64	96	0
NMTAP	64	144	1
NMTAP	64	240	6
NMSTR	64	288	7
NMSI_	64	288	7	96	48	2
NMSI_	64	288	7	96	48	4
BRTAP	65	0	7
NMTAP	65	96	0
NMTAP	65	96	1
NMTAP	65	144	2
NMTAP	65	144	7
NMTAP	65	240	6
NMTAP	65	240	7
NMSTR	65	288	0
NMSI_	65	288	0	96	48	4
NMSTR	65	288	5
NMSI_	65	288	5	96	48	0
BRTAP	66	0	0
BRTAP	66	0	5
NMTAP	66	96	3
NMTAP	66	96	7
NMTAP	66	144	2
NMTAP	66	144	6
NMTAP	66	240	0
NMTAP	66	264	7
NMTAP	66	288	0
BXTAP	67	0	1
NMTAP	67	0	7
NMTAP	67	12	2
NMTAP	67	24	3
NMTAP	67	36	4
EXTAP	67	96	6
NMTTP	67	96	4	E	0	M1
NMTAP	67	192	0
BXTAP	67	192	6
NMTAP	67	204	5
NMTAP	67	216	4
NMTAP	67	228	3
EXTAP	67	288	1
NMTTP	67	288	3	E	0	M1
NMTAP	68	0	0
BXTAP	68	0	1
NMTAP	68	12	2
NMTAP	68	24	3
NMTAP	68	36	4
EXTAP	68	96	6
NMTTP	68	96	5	E	0	M1
BXTAP	68	192	6
NMTAP	68	192	7
NMTAP	68	204	5
NMTAP	68	216	4
NMTAP	68	228	3
EXTAP	68	288	0
NMTTP	68	288	4	E	0	M1
BRTAP	69	0	1
NMTAP	69	0	7
NMTAP	69	12	2
NMTAP	69	24	3
NMTAP	69	36	4
EXTAP	69	96	7
NMTTP	69	96	3	E	0	M1
NMTAP	69	192	0
BRTAP	69	192	6
NMTAP	69	204	5
NMTAP	69	216	4
NMTAP	69	228	3
EXSTR	69	288	2
NMSCL	69	288	2	96	96	6
NMTTP	69	288	5	E	0	M1
BRSTR	70	0	6
NMSXL	70	0	6	96	192	2
NMTAP	70	96	4
NMSTR	70	144	4
NMSCL	70	144	4	96	72	3
CNSI_	70	312	3	0	72	6
BRSTR	71	0	0
BRSI_	71	0	0	96	72	4
NMTAP	71	96	7
NMTAP	71	144	7
CNSI_	71	168	4	0	72	1
NMTAP	71	240	0
NMHLD	71	288	0	96
NMTAP	72	0	1
NMSTR	72	48	2
NMSI_	72	48	2	96	48	5
NMSTR	72	96	7
NMSI_	72	96	7	96	48	2
NMTAP	72	144	2
NMTAP	72	192	7
NMTAP	72	240	4
NMSTR	72	288	3
NMSI_	72	288	3	96	48	0
NMSI_	72	288	3	96	48	6
BRTAP	73	0	3
BXTAP	73	192	2
NMTAP	73	224	4
NMTAP	73	256	3
NMSTR	73	288	5
BRSI_	73	288	5	96	48	0
NMTTP	74	0	5	A	1	M1
BXHLD	74	0	2	144
BXHLD	74	144	0	144
BXTAP	74	288	2
NMTAP	74	304	3
NMTAP	74	320	4
NMTAP	74	336	5
NMTAP	74	352	6
NMTAP	74	368	7
BXSTR	75	0	0
NMSXR	75	0	0	96	448	5
BXTAP	75	0	4
CNSXR	76	160	5	0	448	2
CNSXR	77	224	2	0	448	7
NMTHO	78	0	4	192	B	0	M1
NMTHO	78	0	5	192	B	0	M1
NMTHO	78	0	5	192	E	0	M1
EXTAP	79	0	6
EXSTR	79	0	7
NMSXL	79	0	7	96	416	2
NMTTP	80	0	3	B	0	M1
NMTTP	80	0	4	B	0	M1
NMTTP	80	0	4	E	0	M1
CNSXL	80	128	2	0	416	5
NMTTP	81	0	6	B	0	M1
NMTTP	81	0	7	B	0	M1
NMTTP	81	0	7	E	0	M1
CNSXL	81	160	5	0	416	0
NMTHO	82	0	2	192	B	0	M1
NMTHO	82	0	3	192	B	0	M1
NMTHO	82	0	3	192	E	0	M1
NMTAP	83	0	0
NMHLD	83	0	1	192
NMTAP	83	192	2
NMTAP	83	288	2
NMSTR	83	288	3
NMSCL	83	288	3	96	96	0
NMHLD	84	0	5	192
NMTAP	84	192	7
NMTAP	84	288	4
NMSTR	84	288	6
NMSCR	84	288	6	96	96	1
NMHLD	85	0	2	192
NMTAP	85	192	3
NMTAP	85	288	2
NMSTR	85	288	3
NMSCR	85	288	3	96	96	6
NMHLD	86	0	0	192
NMTAP	86	192	7
NMTAP	86	224	0
NMTAP	86	256	7
NMTAP	86	288	0
NMTAP	86	320	7
NMTAP	86	352	0
EXTAP	87	0	1
NMTAP	87	0	7
NMTAP	87	32	6
NMTAP	87	64	5
NMTAP	87	96	4
NMTAP	87	128	5
NMTAP	87	160	6
NMTAP	87	192	0
NMTAP	87	192	7
NMTAP	87	224	1
NMTAP	87	256	2
NMTAP	87	288	3
NMTAP	87	320	2
NMTAP	87	352	1
NMTAP	88	0	0
NMTAP	88	0	6
NMTAP	88	32	5
NMTAP	88	64	4
NMTAP	88	96	3
NMTAP	88	128	4
NMTAP	88	160	5
NMTAP	88	192	1
NMTAP	88	192	6
NMTAP	88	224	2
NMTAP	88	256	3
NMTAP	88	288	4
NMTAP	88	320	3
NMTAP	88	352	2
NMHLD	89	0	1	96
NMTAP	89	0	7
NMTAP	89	96	0
NMTAP	89	128	0
NMTAP	89	160	1
NMTAP	89	192	1
NMTAP	89	224	2
NMTAP	89	256	2
NMSTR	89	288	3
NMSCL	89	288	3	96	288	6
EXTAP	90	0	5
NMTTP	90	192	5	E	1	M1
CNSXL	90	288	6	0	288	2
BRTAP	92	0	1
BRTAP	92	0	4
NMTAP	92	96	2
NMTAP	92	120	3
NMTAP	92	144	2
NMTAP	92	192	4
NMTAP	92	240	2
NMTAP	92	264	3
NMSTR	92	288	2
BRSI_	92	288	2	96	48	7
NMHLD	93	0	5	624
NMTAP	94	240	4
NMSTR	94	288	3
NMSI_	94	288	3	96	48	0
NMSTR	94	288	4
NMSI_	94	288	4	96	48	7
NMTTP	95	0	3	A	0	M1
NMTTP	95	0	4	A	0	M1
NMTTP	95	0	3	D	0	M1
NMTTP	95	0	4	D	1	M1
NMTTP	95	0	5	D	0	M1
NMTAP	95	192	1
NMTAP	95	216	0
NMTAP	95	240	1
NMTAP	95	264	0
NMTAP	95	288	2
NMTAP	95	312	7
NMTAP	95	336	3
NMTAP	95	360	6
NMSTR	96	0	4
NMSI_	96	0	4	96	48	1
NMTAP	96	96	5
NMTAP	96	144	5
NMSTR	96	192	0
NMSCL	96	192	0	96	48	5
NMTAP	96	240	1
NMTAP	96	288	2
NMTAP	96	336	3
NMSTR	97	0	4
NMSCL	97	0	4	96	48	1
NMTAP	97	48	5
NMTAP	97	96	6
NMTAP	97	144	7
NMTAP	97	192	0
NMTAP	97	240	1
NMHLD	97	288	2	48
NMHLD	97	288	7	48
BRTAP	98	0	1
NMTAP	98	24	0
NMTAP	98	48	1
NMTAP	98	96	5
BRTAP	98	144	2
NMTAP	98	168	3
NMTAP	98	192	2
NMTAP	98	240	7
NMTAP	98	288	0
NMTAP	98	336	0
BRTAP	99	0	6
NMTAP	99	24	7
NMTAP	99	48	6
NMTAP	99	96	2
BRTAP	99	144	5
NMTAP	99	168	4
NMTAP	99	192	5
NMTAP	99	240	3
NMTAP	99	240	6
NMTAP	99	288	2
NMSTR	99	288	7
NMSI_	99	288	7	96	48	3
BRTAP	100	0	7
NMTAP	100	48	0
NMSTR	100	96	1
NMSI_	100	96	1	96	48	4
BRSTR	100	192	1
NMSCL	100	192	1	96	48	6
NMSTR	100	288	5
NMSI_	100	288	5	96	48	0
BRSTR	101	0	5
NMSCL	101	0	5	96	48	2
NMTAP	101	48	2
NMSTR	101	96	1
NMSI_	101	96	1	96	48	6
BRSTR	101	192	1
NMSI_	101	192	1	96	48	4
NMSTR	101	288	5
NMSI_	101	288	5	96	48	7
BRSTR	102	0	5
NMSI_	102	0	5	96	48	1
NMSTR	102	48	4
NMSI_	102	48	4	96	48	2
NMTAP	102	96	5
NMTAP	102	144	4
BRTAP	102	192	0
NMSTR	102	288	1
BRSCL	102	288	1	96	84	4
NMTAP	102	288	7
BXHLD	103	0	6	240
EXTAP	103	96	3
EXTAP	103	112	2
EXTAP	103	128	1
EXHLD	103	144	0	96
NMTAP	103	256	1
NMTAP	103	256	5
NMTAP	103	272	2
NMTAP	103	272	4
NMTAP	103	288	3
NMTTP	104	0	0	A	0	M1
NMTTP	104	0	1	A	0	M1
NMTTP	104	0	4	A	0	M1
NMTTP	104	0	7	A	0	M1
NMTTP	104	0	0	B	0	M1
NMTTP	104	0	4	B	0	M1
NMTTP	104	0	0	C	1	M1
NMTTP	104	0	0	E	0	M1
NMTTP	104	0	1	E	0	M1
EXTAP	104	144	2
EXTAP	104	144	6
EXTAP	104	240	1
EXTAP	104	240	5
EXTAP	104	288	1
EXTAP	104	288	5
NMTAP	105	0	2
NMTAP	105	0	3
NMTAP	105	48	2
NMTAP	105	48	3
NMTAP	105	96	3
NMTAP	105	96	4
NMTAP	105	144	3
NMTAP	105	144	4
NMTAP	105	192	4
NMTAP	105	192	5
NMTAP	105	240	4
NMTAP	105	240	5
NMTAP	105	288	6
NMTAP	105	288	7
NMTAP	105	336	0
NMTAP	105	336	7
NMHLD	106	0	0	192
NMTAP	106	0	1
NMHLD	106	192	6	192
NMTHO	107	0	4	192	E	1	M1
BRTAP	107	192	5
BRTAP	107	204	6
BRTAP	107	216	7
BRTAP	107	228	0
BRTAP	107	240	1
BRTAP	107	252	2
BRSTR	108	0	1
BRSV_	108	0	1	96	48	4
BRTAP	108	0	5
NMTAP	108	96	1
NMSTR	108	144	6
BRSUL	108	144	6	96	48	2
NMSTR	108	192	1
BRSI_	108	192	1	96	48	7
NMTAP	108	240	6
NMSTR	108	288	1
BRSI_	108	288	1	96	64	5
NMTAP	108	336	3
EXTAP	109	0	1
CNSI_	109	64	5	0	64	3
NMTAP	109	96	6
CNSI_	109	128	3	0	64	0
NMTAP	109	144	6
NMTAP	109	240	7
NMSTR	109	288	6
BRSCL	109	288	6	96	48	3
NMTAP	109	336	0
BRTAP	110	0	6
NMSTR	110	48	1
BRSI_	110	48	1	96	48	7
NMTAP	110	96	2
BRTAP	110	144	1
NMTAP	110	192	5
NMTAP	110	240	5
BRSTR	110	288	7
BRSCR	110	288	7	96	48	2
NMTAP	110	336	4
BRTAP	111	0	7
NMSTR	111	48	6
BRSI_	111	48	6	96	48	4
NMTAP	111	96	3
BRTAP	111	144	6
NMSTR	111	192	2
NMSI_	111	192	2	96	48	6
NMSI_	111	192	2	96	48	7
NMTAP	111	240	3
BRTAP	111	288	2
BRTAP	112	0	0
BRTAP	112	0	5
NMTAP	112	96	1
NMTAP	112	144	7
NMSTR	112	192	2
BRSCR	112	192	2	96	48	4
NMSTR	112	240	0
BRSV_	112	240	0	96	48	5
NMTAP	112	288	2
NMTAP	112	336	0
NMSTR	113	0	7
BRSI_	113	0	7	96	48	3
NMSTR	113	48	6
BRSLL	113	48	6	96	96	2
NMTAP	113	96	7
NMTAP	113	144	6
NMTAP	113	240	1
NMSTR	113	288	0
BRSF_	113	288	0	96	48	4
BRTAP	114	0	0
NMTAP	114	96	6
NMTAP	114	96	7
NMTAP	114	144	0
NMTAP	114	144	5
NMTAP	114	240	0
NMTAP	114	240	1
NMSTR	114	288	2
NMSV_	114	288	2	96	48	7
NMSTR	114	288	7
NMSUL	114	288	7	96	48	3
BRTAP	115	0	2
BRTAP	115	0	7
NMTAP	115	96	0
NMTAP	115	96	4
NMTAP	115	144	1
NMTAP	115	144	5
NMTAP	115	240	7
NMTAP	115	264	0
NMTAP	115	288	7
EXTAP	116	0	0
BRTAP	116	0	6
NMTAP	116	12	5
NMTAP	116	24	4
NMTAP	116	36	3
EXTAP	116	48	0
EXTAP	116	96	0
NMTTP	116	96	4	E	0	M1
BRTAP	116	192	1
EXTAP	116	192	7
NMTAP	116	204	2
NMTAP	116	216	3
NMTAP	116	228	4
EXTAP	116	240	7
EXTAP	116	288	7
NMTTP	116	288	5	E	0	M1
BRTAP	117	0	6
NMTAP	117	0	7
NMTAP	117	12	5
NMTAP	117	24	4
NMTAP	117	36	3
NMTAP	117	48	7
NMTAP	117	96	7
NMTTP	117	96	3	E	0	M1
NMTAP	117	192	0
BRTAP	117	192	1
NMTAP	117	204	2
NMTAP	117	216	3
NMTAP	117	228	4
NMTAP	117	240	0
NMTAP	117	288	0
NMTTP	117	288	5	E	0	M1
NMTAP	118	0	0
BRTAP	118	0	6
NMTAP	118	12	5
NMTAP	118	24	4
NMTAP	118	36	3
NMTAP	118	48	0
NMTAP	118	96	0
NMTTP	118	96	3	E	0	M1
BRTAP	118	192	1
NMTAP	118	192	6
NMTAP	118	204	2
NMTAP	118	216	3
NMTAP	118	228	4
NMTAP	118	240	6
EXSTR	118	288	5
NMSI_	118	288	5	96	48	2
NMSTR	118	288	6
NMSI_	118	288	6	96	48	1
BXTAP	119	0	5
BXTAP	119	0	6
NMTAP	119	96	0
NMTAP	119	96	3
NMTAP	119	144	0
NMTAP	119	144	3
NMTAP	119	240	4
NMTAP	119	240	5
NMTAP	119	288	3
NMHLD	119	288	6	96
BRTAP	120	0	1
NMTAP	120	24	0
NMTAP	120	48	2
NMTAP	120	96	5
BRTAP	120	144	2
NMTAP	120	168	3
NMTAP	120	192	1
NMTAP	120	240	5
BRTAP	120	288	6
BRTAP	120	288	7
NMTAP	121	0	5
NMHLD	121	48	5	48
NMTAP	121	96	3
NMHLD	121	144	3	48
NMTAP	121	192	1
NMHLD	121	240	1	48
NMTAP	121	288	0
NMTAP	121	336	0
NMTAP	122	0	1
NMTAP	122	0	7
NMSTR	122	96	6
NMSI_	122	96	6	96	48	2
NMSTR	122	144	0
NMSI_	122	144	0	96	48	4
NMSTR	122	192	6
NMSCL	122	192	6	96	48	3
NMSTR	122	240	0
NMSCR	122	240	0	96	48	3
NMTAP	122	288	6
NMTAP	122	336	0
EXTAP	123	0	7
NMSTR	123	288	3
BRSCL	123	288	3	96	84	4
NMTTP	124	0	3	A	1	M1
NMTTP	124	0	3	E	0	M1
NMTTP	124	12	2	E	0	M1
NMTTP	124	24	1	E	0	M1
NMTTP	124	36	0	E	0	M1
NMTTP	124	48	7	E	0	M1
NMTTP	124	60	6	E	0	M1
NMTTP	124	72	5	E	0	M1
NMTTP	124	84	4	E	0	M1
NMTTP	124	96	3	E	0	M1
NMTTP	124	108	2	E	0	M1
NMTTP	124	120	1	E	0	M1
NMTTP	124	132	0	E	0	M1
NMTTP	124	144	7	E	0	M1
NMTTP	124	156	6	E	0	M1
NMTTP	124	168	5	E	0	M1
NMTTP	124	180	4	E	0	M1
NMTTP	124	192	3	E	0	M1
NMTTP	124	204	2	E	0	M1
NMTTP	124	216	1	E	0	M1
NMTTP	124	228	0	E	0	M1
NMTTP	124	240	7	E	0	M1
NMTTP	124	252	6	E	0	M1
NMTTP	124	264	5	E	0	M1
NMTTP	124	276	4	E	0	M1
NMTTP	124	288	3	E	0	M1
NMTTP	124	300	2	E	0	M1
NMTTP	124	312	1	E	0	M1
NMTTP	124	324	0	E	0	M1
NMTTP	124	336	7	E	0	M1
NMTTP	124	348	6	E	0	M1
NMTTP	124	360	5	E	0	M1
NMTTP	124	372	4	E	0	M1
EXTAP	125	0	3
EXTAP	125	12	2
EXTAP	125	24	1
EXTAP	125	36	0
EXTAP	125	48	7
EXTAP	125	60	6
EXTAP	125	72	5
EXTAP	125	84	4
EXTAP	125	96	3
EXTAP	125	108	2
EXTAP	125	120	1
EXTAP	125	132	0
EXTAP	125	144	7
EXTAP	125	156	6
EXTAP	125	168	5
EXTAP	125	180	4
BXTAP	125	192	3
BXTAP	125	204	2
BXTAP	125	216	1
BXTAP	125	228	0
BXTAP	125	240	7
BXTAP	125	252	6
BXTAP	125	264	5
BXTAP	125	276	4
BXTAP	125	288	3
BXTAP	125	300	2
BXTAP	125	312	1
BXTAP	125	324	0
BXTAP	125	336	7
BXTAP	125	348	6
BXTAP	125	360	5
BXTAP	125	372	4
BXTAP	126	0	3
NMTTP	126	0	0	A	0	M1
NMTTP	126	0	7	A	0	M1
NMTTP	126	0	0	B	0	M1
NMTTP	126	0	7	B	0	M1
NMTTP	126	0	0	D	0	M1
NMTTP	126	0	0	E	1	M1
NMTAP	127	0	1
NMTAP	127	48	0
NMTAP	127	96	7
NMTAP	127	144	6
NMTAP	127	192	0
NMTAP	127	192	5
NMTAP	127	240	1
NMSTR	127	240	4
NMSI_	127	240	4	96	48	7
NMTAP	127	336	3
NMSTR	128	0	2
NMSCR	128	0	2	96	48	5
NMTAP	128	48	0
NMTAP	128	96	2
NMSTR	128	144	7
NMSI_	128	144	7	96	48	2
NMSTR	128	240	7
NMSI_	128	240	7	96	48	4
NMTAP	128	336	0
NMSTR	129	0	1
NMSCL	129	0	1	96	48	6
NMTAP	129	48	3
NMTAP	129	96	1
NMSTR	129	144	4
NMSI_	129	144	4	96	48	1
NMSTR	129	240	4
NMSI_	129	240	4	96	48	7
NMTAP	129	336	3
NMSTR	130	0	2
NMSCR	130	0	2	96	48	5
NMTAP	130	48	0
NMTAP	130	96	2
NMSTR	130	144	7
NMSI_	130	144	7	96	48	3
NMSTR	130	240	7
NMSCR	130	240	7	96	48	2
NMTAP	130	336	6
NMHLD	131	0	6	192
NMTAP	131	192	2
NMTAP	131	288	0
NMTAP	131	312	4
NMTAP	131	336	0
NMTAP	131	360	4
BRTAP	132	0	1
NMTAP	132	32	3
NMTAP	132	64	1
BRTAP	132	96	5
NMTAP	132	128	3
NMTAP	132	160	5
BRTAP	132	192	2
NMTAP	132	224	0
NMTAP	132	256	2
BRTAP	132	288	6
NMTAP	132	320	0
NMTAP	132	352	6
BRTAP	133	0	1
NMTAP	133	16	2
NMTAP	133	32	3
NMTAP	133	64	5
BRTAP	133	96	0
NMTAP	133	112	1
NMTAP	133	128	2
NMTAP	133	160	4
BRTAP	133	192	7
NMTAP	133	208	0
NMTAP	133	224	1
NMTAP	133	240	2
NMTAP	133	256	3
NMTAP	133	272	4
NMTAP	133	288	1
NMTAP	133	288	5
NMTAP	133	304	6
NMTAP	133	320	7
NMTAP	133	336	0
NMTAP	133	352	1
NMTAP	133	368	2
BXHLD	134	0	3	144
BRTAP	134	0	6
EXTAP	134	144	0
NMTAP	134	156	7
NMTAP	134	164	6
NMTAP	134	172	5
NMTAP	134	180	4
NMTAP	134	188	3
BRTAP	134	188	1
BRSTR	134	240	7
BRSCR	134	240	7	96	144	5
BRTAP	134	288	5
BRTAP	134	336	3
NMTTP	134	336	7	A	1	M1

T_REC_TAP	573
T_REC_BRK	68
T_REC_XTP	50
T_REC_BXX	28
T_REC_HLD	49
T_REC_XHO	1
T_REC_BHO	0
T_REC_BXH	4
T_REC_STR	88
T_REC_BST	10
T_REC_XST	4
T_REC_XBS	3
T_REC_TTP	80
T_REC_THO	8
T_REC_SLD	86
T_REC_BSL	22
T_REC_ALL	1074
T_NUM_TAP	795
T_NUM_BRK	135
T_NUM_HLD	58
T_NUM_SLD	86
T_NUM_ALL	1074
T_JUDGE_TAP	904
T_JUDGE_HLD	212
T_JUDGE_SLD	108
T_JUDGE_ALL	1224
TTM_EACHPAIRS	152
TTM_SCR_TAP	397500
TTM_SCR_BRK	351000
TTM_SCR_HLD	58000
TTM_SCR_SLD	129000
TTM_SCR_ALL	935500
TTM_SCR_S	894350
TTM_SCR_SS	922000
TTM_RAT_ACV	10146

