VERSION	0.00.00	1.05.00
FES_MODE	0
BPM_DEF	238.000	238.000	238.000	238.000
MET_DEF	4	4
RESOLUTION	384
CLK_DEF	384
COMPATIBLE_CODE	MA2
GENERATED_BY	MuConvert v0.4.0-rc.7+47834d4

BPM	0	0	238.000
MET	0	0	4	4

NMSTR	3	0	0
NMSCR	3	0	0	96	552	5
NMHLD	3	0	6	1152
CNSUL	4	264	5	0	552	7
NMHLD	7	0	4	1152
NMSTR	7	0	5
NMSUR	7	0	5	96	552	3
CNSCL	8	264	3	0	552	6
NMTAP	11	0	6
NMHLD	11	96	6	960
NMTAP	11	288	4
NMTAP	12	0	4
NMTAP	12	288	5
NMTAP	13	0	5
NMTAP	13	288	4
NMTAP	14	0	4
NMTAP	14	192	3
NMTAP	14	192	4
NMHLD	15	0	1	288
NMTAP	15	288	3
NMHLD	16	0	3	192
NMHLD	16	192	4	192
NMHLD	17	0	6	384
NMTAP	18	0	0
NMTAP	18	96	0
BRTAP	18	192	1
BRTAP	18	192	5
NMTAP	19	0	2
NMTAP	19	0	3
NMTAP	19	96	2
NMTAP	19	96	3
NMHLD	19	192	1	96
NMHLD	19	192	4	96
NMTAP	20	0	6
NMTAP	20	0	7
NMTAP	20	96	6
NMTAP	20	96	7
NMHLD	20	192	0	96
NMHLD	20	192	5	96
NMTAP	21	0	4
NMTAP	21	0	5
NMTAP	21	96	4
NMTAP	21	96	5
NMHLD	21	192	3	96
NMHLD	21	192	6	96
NMTAP	22	0	0
NMTAP	22	0	1
NMTAP	22	96	0
NMTAP	22	96	1
NMTAP	22	192	2
NMTAP	22	192	7
NMTAP	22	288	2
NMTAP	22	288	7
NMTAP	23	0	4
NMTAP	23	0	5
NMTAP	23	96	4
NMTAP	23	96	5
NMHLD	23	192	6	96
NMHLD	23	192	7	96
NMTAP	24	0	2
NMTAP	24	0	3
NMTAP	24	96	2
NMTAP	24	96	3
NMHLD	24	192	0	96
NMHLD	24	192	1	96
NMTAP	25	0	4
NMTAP	25	0	5
NMTAP	25	96	4
NMTAP	25	96	5
NMTAP	25	192	6
NMTAP	25	192	7
NMSTR	25	288	6
NMSCL	25	288	6	96	96	3
NMSTR	25	288	7
NMSCR	25	288	7	96	96	2
BXTAP	26	192	1
BXTAP	26	192	4
NMTAP	27	0	2
NMTAP	27	0	3
NMTAP	27	96	1
NMTAP	27	144	1
NMTAP	27	192	3
NMTAP	27	288	2
NMTAP	27	288	4
NMTAP	28	0	5
NMTAP	28	96	4
NMTAP	28	96	5
NMTAP	28	192	2
NMTAP	28	288	2
NMTAP	28	288	3
NMTAP	29	0	4
NMTAP	29	0	5
NMTAP	29	96	6
NMTAP	29	144	6
NMTAP	29	192	4
NMTAP	29	288	3
NMTAP	29	288	5
NMTAP	30	0	2
NMTAP	30	96	2
NMTAP	30	96	3
NMTAP	30	192	5
NMTAP	30	288	4
NMTAP	30	288	5
NMTAP	31	0	1
NMTAP	31	96	2
NMTAP	31	96	3
NMTAP	31	192	6
NMTAP	31	288	4
NMTAP	31	288	5
NMTAP	32	0	2
NMTAP	32	96	1
NMTAP	32	96	3
NMTAP	32	192	5
NMTAP	32	288	4
NMTAP	32	288	6
NMTAP	33	0	4
NMTAP	33	0	5
NMTAP	33	96	4
NMTAP	33	96	5
NMTAP	33	192	2
NMTAP	33	192	3
NMSTR	33	288	2
NMSI_	33	288	2	96	144	7
NMSTR	33	288	3
NMSI_	33	288	3	96	144	6
NMTAP	35	0	4
NMTAP	35	0	5
NMTAP	35	96	6
NMTAP	35	144	6
NMTAP	35	192	4
NMTAP	35	288	3
NMTAP	35	288	5
NMTAP	36	0	2
NMTAP	36	96	2
NMTAP	36	96	3
NMTAP	36	192	5
NMTAP	36	288	4
NMTAP	36	288	5
NMTAP	37	0	2
NMTAP	37	96	1
NMTAP	37	144	1
NMTAP	37	192	0
NMTAP	37	288	0
NMTAP	37	288	1
NMTAP	38	0	6
NMTAP	38	96	6
NMTAP	38	96	7
NMTAP	38	192	1
NMTAP	38	288	0
NMTAP	38	288	1
NMTAP	39	0	7
NMTAP	39	96	4
NMTAP	39	96	6
NMTAP	39	192	0
NMTAP	39	288	1
NMTAP	39	288	3
NMTAP	40	0	6
NMTAP	40	96	6
NMTAP	40	192	4
NMTAP	40	192	5
NMSTR	40	288	4
NMSI_	40	288	4	96	144	1
NMSTR	40	288	5
NMSI_	40	288	5	96	144	0
NMTAP	42	0	1
NMTAP	42	48	1
NMTAP	42	96	7
BRTAP	42	192	2
BRTAP	42	192	6
NMSTR	43	0	3
NMSLL	43	0	3	96	480	7
EXTAP	44	192	6
NMHLD	45	0	5	192
NMHLD	45	192	6	192
NMHLD	46	0	7	192
EXSTR	46	192	0
NMSI_	46	192	0	96	96	4
EXHLD	47	0	6	96
NMTAP	47	192	5
NMTAP	47	192	7
NMTAP	47	288	5
NMTAP	47	288	7
EXHLD	48	0	1	96
NMTAP	48	192	0
NMTAP	48	192	2
NMTAP	48	288	0
NMTAP	48	288	2
EXHLD	49	0	5	96
NMTAP	49	192	4
NMTAP	49	192	6
NMTAP	49	288	4
NMTAP	49	288	6
EXHLD	50	0	2	96
NMTAP	50	192	1
NMTAP	50	192	3
NMTAP	50	288	1
NMTAP	50	288	3
NMSTR	51	0	4
NMSLR	51	0	4	96	528	0
EXTAP	52	192	1
NMHLD	53	0	2	192
NMHLD	53	192	1	192
NMHLD	54	0	0	192
EXSTR	54	192	7
NMSI_	54	192	7	96	96	3
EXTAP	55	0	4
NMTAP	55	96	4
NMTAP	55	192	3
NMTAP	55	192	5
NMTAP	55	288	3
NMTAP	55	288	5
NMTAP	56	0	2
NMTAP	56	0	6
NMTAP	56	96	2
NMTAP	56	96	6
NMTAP	56	192	1
NMTAP	56	192	7
NMSTR	56	288	1
NMSXL	56	288	1	96	240	2
NMSTR	56	288	7
NMSCL	56	288	7	96	240	3
NMHLD	58	0	0	192
NMTTP	58	192	0	C	1	M1
NMTAP	59	0	6
NMTAP	59	0	7
NMSTR	59	96	6
NMSI_	59	96	6	96	48	3
NMSTR	59	96	7
NMSI_	59	96	7	96	48	3
NMTAP	59	288	2
NMTAP	60	0	0
NMTAP	60	0	1
NMSTR	60	96	0
NMSI_	60	96	0	96	48	4
NMSTR	60	96	1
NMSI_	60	96	1	96	48	4
NMTAP	60	288	5
NMTAP	61	0	6
NMTAP	61	0	7
NMTAP	61	96	4
NMTAP	61	192	0
NMTAP	61	192	1
NMTAP	61	288	3
NMTAP	62	0	6
NMTAP	62	0	7
NMTAP	62	96	5
NMTAP	62	192	3
NMTAP	62	192	4
NMTAP	62	288	2
NMTAP	63	0	0
NMTAP	63	0	1
NMSTR	63	96	0
NMSI_	63	96	0	96	48	4
NMSTR	63	96	1
NMSI_	63	96	1	96	48	4
NMTAP	63	288	5
NMTAP	64	0	6
NMTAP	64	0	7
NMSTR	64	96	6
NMSI_	64	96	6	96	48	3
NMSTR	64	96	7
NMSI_	64	96	7	96	48	3
NMTAP	64	288	2
NMTAP	65	0	0
NMTAP	65	0	1
NMTAP	65	96	4
NMTAP	65	192	6
NMTAP	65	192	7
NMTAP	65	288	3
NMTAP	66	0	0
NMTAP	66	0	4
NMSTR	66	96	0
NMSI_	66	96	0	96	96	3
NMSTR	66	96	4
NMSI_	66	96	4	96	96	7
NMHLD	67	0	6	96
EXTAP	67	96	7
NMHLD	67	192	1	96
EXTAP	67	288	0
NMHLD	68	0	5	96
EXTAP	68	96	7
NMHLD	68	192	2	96
EXTAP	68	288	0
NMHLD	69	0	4	96
EXTAP	69	96	7
NMHLD	69	192	3	96
EXTAP	69	288	0
NMTAP	70	0	1
NMTAP	70	0	2
NMSTR	70	96	1
NMSI_	70	96	1	96	96	6
NMSTR	70	96	2
NMSI_	70	96	2	96	96	5
NMHLD	71	0	7	96
NMHLD	71	96	6	96
NMHLD	71	192	5	96
NMTAP	71	288	4
NMTAP	72	0	6
NMTAP	72	48	6
NMTAP	72	96	4
NMTAP	72	144	5
NMTAP	72	192	1
NMTAP	72	240	1
NMTAP	72	288	3
NMTAP	72	336	2
NMHLD	73	0	4	384
NMTTP	73	192	4	E	0	M1
NMTTP	74	0	3	B	0	M1
NMTTP	74	0	4	B	0	M1
NMTTP	74	0	0	C	1	M1
BRTAP	75	0	0
BRSTR	75	0	7
NMSI_	75	0	7	96	240	5
CNSI_	75	336	5	0	240	3
CNSI_	76	192	3	0	240	1
NMSTR	78	0	2
NMSI_	78	0	2	96	144	7
NMHLD	78	0	3	192
NMSTR	79	0	4
NMSUR	79	0	4	96	528	5
NMHLD	79	0	7	576
NMHLD	81	0	5	192
NMHLD	81	192	6	192
BRTAP	82	0	7
NMHLD	83	0	5	192
NMHLD	83	0	7	192
NMTAP	83	288	4
NMTAP	83	336	4
NMHLD	84	0	3	192
NMHLD	84	0	5	192
NMTAP	84	288	2
NMTAP	84	288	3
NMHLD	85	0	0	192
NMHLD	85	0	2	192
NMTAP	85	288	3
NMTAP	85	336	3
NMHLD	86	0	2	192
NMHLD	86	0	4	192
NMTAP	86	288	3
NMTAP	86	288	5
NMHLD	87	0	4	192
NMHLD	87	0	6	192
NMTAP	87	288	7
NMTAP	87	336	7
NMHLD	88	0	0	192
NMHLD	88	0	6	192
NMTAP	88	288	0
NMTAP	88	288	1
NMHLD	89	0	1	192
NMHLD	89	0	3	192
NMTAP	89	288	0
NMTAP	89	336	0
NMHLD	90	0	1	576
NMHLD	90	0	7	576
BRSTR	92	0	0
NMSCR	92	0	0	96	720	6
NMSUL	92	0	0	96	720	7
BRTAP	92	0	6
NMTAP	95	0	0
NMTAP	95	0	7
NMTAP	95	96	1
NMTAP	95	96	3
NMTAP	95	144	1
NMTAP	95	144	3
NMTAP	95	240	4
NMTAP	95	240	6
BRTAP	95	288	4
BRTAP	95	288	6
NMTAP	96	0	6
NMTAP	96	0	7
NMTAP	96	96	0
NMTAP	96	96	5
NMTAP	96	144	0
NMTAP	96	144	5
NMTAP	96	240	2
NMTAP	96	240	3
NMTAP	96	288	2
NMTAP	96	288	3
NMTAP	97	0	1
NMTAP	97	48	1
NMTAP	97	96	3
NMTAP	97	144	2
NMTAP	97	240	0
NMTAP	97	240	1
NMSTR	97	288	0
NMSI_	97	288	0	96	48	4
NMSTR	97	288	1
NMSI_	97	288	1	96	48	4
NMSTR	98	96	6
NMSI_	98	96	6	96	48	3
NMSTR	98	96	7
NMSI_	98	96	7	96	48	3
NMTAP	98	288	2
NMSTR	99	0	1
NMSI_	99	0	1	96	48	4
NMSTR	99	96	0
NMSI_	99	96	0	96	48	5
BXTAP	99	192	3
NMTAP	100	0	6
NMTAP	100	48	6
EXTAP	100	96	7
NMTAP	100	192	1
NMTAP	100	240	1
EXTAP	100	288	0
NMTAP	101	0	5
NMTAP	101	48	5
EXTAP	101	96	7
NMTAP	101	192	2
NMTAP	101	240	2
EXTAP	101	288	0
NMTAP	102	0	4
NMTAP	102	48	4
EXTAP	102	96	7
NMTAP	102	192	3
NMTAP	102	240	3
EXTAP	102	288	0
NMTAP	103	0	1
NMTAP	103	0	2
NMSTR	103	96	1
NMSI_	103	96	1	96	96	4
NMSTR	103	96	2
NMSI_	103	96	2	96	96	7
EXTAP	104	0	5
EXTAP	104	0	7
NMTAP	104	96	0
NMTAP	104	96	6
NMTAP	104	192	1
NMTAP	104	192	7
NMTAP	104	288	0
NMTAP	104	288	2
NMTAP	105	0	1
NMTAP	105	48	1
NMTAP	105	96	7
NMTAP	105	144	7
NMTAP	105	192	5
NMTAP	105	240	5
NMTAP	105	288	3
NMTAP	106	0	2
NMTAP	106	0	6
NMTHO	106	192	1	384	E	0	M1
NMTHO	107	0	5	192	E	0	M1
NMTTP	107	192	1	B	0	M1
NMTTP	107	192	2	B	0	M1
NMTTP	107	192	3	B	0	M1
NMTTP	107	192	4	B	0	M1
NMTTP	107	192	3	E	1	M1
NMTAP	108	0	6
NMTAP	108	0	7
NMTAP	108	96	0
NMTAP	108	96	5
NMTAP	108	144	0
NMTAP	108	144	5
NMTAP	108	240	2
NMTAP	108	240	3
NMTAP	108	288	2
NMTAP	108	288	3
NMTAP	109	0	5
NMTAP	109	48	5
NMTAP	109	96	4
NMHLD	109	144	6	96
NMTAP	109	240	0
NMSTR	109	288	0
NMSCR	109	288	0	96	48	3
NMSTR	110	96	6
NMSV_	110	96	6	96	48	1
NMSTR	110	288	2
NMSV_	110	288	2	96	48	5
NMSTR	111	96	7
NMSCL	111	96	7	96	48	4
NMTAP	111	288	2
NMTAP	112	0	0
NMTAP	112	0	1
NMTAP	112	96	2
NMTAP	112	96	7
NMTAP	112	144	2
NMTAP	112	144	7
NMTAP	112	240	4
NMTAP	112	240	5
NMTAP	112	288	4
NMTAP	112	288	5
NMTAP	113	0	6
NMTAP	113	48	6
NMTAP	113	96	4
NMTAP	113	144	5
NMTAP	113	240	6
NMTAP	113	240	7
NMSTR	113	288	6
NMSI_	113	288	6	96	48	3
NMSTR	113	288	7
NMSI_	113	288	7	96	48	3
NMSTR	114	96	0
NMSI_	114	96	0	96	48	4
NMSTR	114	96	1
NMSI_	114	96	1	96	48	4
NMTAP	114	288	5
NMSTR	115	0	6
NMSI_	115	0	6	96	48	3
NMSTR	115	96	7
NMSI_	115	96	7	96	48	2
BXTAP	115	192	4
NMTAP	116	0	1
NMTAP	116	48	0
BRTAP	116	96	2
NMTAP	116	192	6
NMTAP	116	240	7
BRTAP	116	288	5
NMTAP	117	0	1
NMTAP	117	48	0
BRTAP	117	96	3
NMTAP	117	192	6
NMTAP	117	240	7
BRTAP	117	288	4
NMTAP	118	0	1
NMTAP	118	48	7
BRTAP	118	96	3
NMTAP	118	192	6
NMTAP	118	240	0
BRTAP	118	288	4
NMSTR	119	0	1
NMSLR	119	0	1	96	144	0
NMSTR	119	0	5
NMSLR	119	0	5	96	144	4
EXTAP	120	0	0
EXTAP	120	0	4
NMTAP	120	96	0
NMTAP	120	96	4
NMTAP	120	192	1
NMTAP	120	192	5
NMTAP	120	288	1
NMTAP	120	288	5
NMTAP	121	0	2
NMTAP	121	48	2
NMTAP	121	96	3
NMTAP	121	144	1
NMTAP	121	192	5
NMTAP	121	240	5
NMTAP	121	288	4
NMTAP	121	336	6
NMHLD	122	0	2	288
NMTAP	122	192	3
NMSTR	122	288	3
NMSF_	122	288	3	96	96	7
NMTAP	123	288	0
NMTAP	123	288	7
BRSTR	124	0	0
NMSXL	124	0	0	96	720	3
BRSTR	124	0	7
NMSXR	124	0	7	96	720	4
NMTAP	127	0	3
NMTAP	127	0	4
NMTAP	127	96	3
NMTAP	127	96	4
NMTTP	127	192	2	B	0	M1
NMTTP	127	192	5	B	0	M1
NMTTP	127	192	0	C	1	M1
NMTAP	128	0	6
NMTAP	128	0	7
NMTAP	128	96	6
NMTAP	128	96	7
NMTAP	128	192	5
NMTAP	128	240	5
NMTAP	128	288	4
NMTAP	129	0	0
NMTAP	129	0	1
NMTAP	129	96	0
NMTAP	129	96	1
NMTAP	129	192	2
NMTAP	129	240	2
NMTAP	129	288	3
NMTAP	130	0	5
NMTAP	130	0	7
NMTAP	130	96	5
NMTAP	130	96	7
NMTAP	130	192	0
NMTAP	130	192	2
NMTAP	130	288	0
NMTAP	130	288	2
EXHLD	131	0	1	96
EXHLD	131	0	3	96
EXHLD	131	192	4	96
EXHLD	131	192	6	96
EXTAP	132	0	5
EXTAP	132	32	3
EXTAP	132	64	5
EXTAP	132	96	3
EXTAP	132	192	2
EXTAP	132	224	4
EXTAP	132	256	2
EXTAP	132	288	4
NMTAP	133	0	6
NMTAP	133	32	4
NMTAP	133	64	6
NMTAP	133	96	4
NMTAP	133	192	1
NMTAP	133	224	3
NMTAP	133	256	1
NMTAP	133	288	3
EXHLD	134	0	2	96
EXHLD	134	0	4	96
NMTAP	134	192	1
NMTAP	134	192	5
NMTAP	134	240	1
NMTAP	134	240	5
NMTAP	134	288	2
NMTAP	134	288	6
BRTAP	134	336	2
BRTAP	134	336	6

T_REC_TAP	367
T_REC_BRK	17
T_REC_XTP	27
T_REC_BXX	4
T_REC_HLD	56
T_REC_XHO	10
T_REC_BHO	0
T_REC_BXH	0
T_REC_STR	47
T_REC_BST	4
T_REC_XST	2
T_REC_XBS	0
T_REC_TTP	13
T_REC_THO	2
T_REC_SLD	54
T_REC_BSL	0
T_REC_ALL	603
T_NUM_TAP	456
T_NUM_BRK	25
T_NUM_HLD	68
T_NUM_SLD	54
T_NUM_ALL	603
T_JUDGE_TAP	481
T_JUDGE_HLD	308
T_JUDGE_SLD	54
T_JUDGE_ALL	843
TTM_EACHPAIRS	160
TTM_SCR_TAP	228000
TTM_SCR_BRK	65000
TTM_SCR_HLD	68000
TTM_SCR_SLD	81000
TTM_SCR_ALL	442000
TTM_SCR_S	426350
TTM_SCR_SS	439500
TTM_RAT_ACV	10056

