VERSION	0.00.00	1.05.00
FES_MODE	0
BPM_DEF	238.000	238.000	238.000	238.000
MET_DEF	4	4
RESOLUTION	384
CLK_DEF	384
COMPATIBLE_CODE	MA2
GENERATED_BY	MuConvert v0.4.0-rc.7+47834d4

BPM	0	0	238.000
MET	0	0	4	4

NMSTR	3	0	1
NMSI_	3	0	1	96	288	4
NMSTR	5	0	6
NMSI_	5	0	6	96	288	3
NMSTR	7	0	1
NMSI_	7	0	1	96	288	5
NMHLD	9	0	6	384
NMTAP	10	0	7
NMSTR	11	0	6
NMSI_	11	0	6	96	288	3
NMSTR	13	0	2
NMSI_	13	0	2	96	288	7
NMSTR	15	0	6
NMSI_	15	0	6	96	288	2
NMHLD	17	0	1	384
NMTAP	18	0	0
NMTAP	19	0	0
NMTAP	19	96	0
NMTAP	19	192	0
NMTAP	20	0	1
NMTAP	20	96	1
NMTAP	20	192	1
NMTAP	21	0	2
NMTAP	21	96	2
NMTAP	21	192	2
NMTAP	22	0	3
NMTAP	22	0	4
NMTAP	22	192	3
NMTAP	22	192	4
NMTAP	23	0	4
NMTAP	23	96	4
NMTAP	23	192	4
NMTAP	24	0	5
NMTAP	24	96	5
NMTAP	24	192	5
NMTAP	25	0	6
NMTAP	25	96	6
NMTAP	25	192	6
NMTAP	26	0	0
NMTAP	26	0	7
NMTAP	27	0	7
NMTAP	27	96	7
NMTAP	27	192	6
NMTAP	28	0	5
NMTAP	28	96	5
NMTAP	28	192	4
NMTAP	29	0	3
NMTAP	29	96	3
NMTAP	29	192	2
NMTAP	30	0	1
NMTAP	30	96	1
NMTAP	30	192	0
NMTAP	30	192	1
NMTAP	31	0	0
NMTAP	31	96	0
NMTAP	31	192	1
NMTAP	32	0	2
NMTAP	32	96	2
NMTAP	32	192	3
NMTAP	33	0	4
NMTAP	33	96	4
NMTAP	33	192	5
BRTAP	34	0	6
BRTAP	34	0	7
NMTAP	35	0	6
NMTAP	35	96	6
NMTAP	35	192	6
NMTAP	35	192	7
NMTAP	36	0	5
NMTAP	36	96	5
NMTAP	36	192	4
NMTAP	36	192	5
NMTAP	37	0	3
NMTAP	37	96	3
NMTAP	37	192	2
NMTAP	37	192	3
NMTAP	38	0	0
NMTAP	38	0	1
NMTAP	38	96	0
NMTAP	38	96	1
NMTAP	38	192	0
NMTAP	38	192	1
NMTAP	39	0	1
NMTAP	39	96	1
NMTAP	39	192	0
NMTAP	39	192	1
NMTAP	40	0	2
NMTAP	40	96	2
NMTAP	40	192	2
NMTAP	40	192	3
NMTAP	41	0	4
NMTAP	41	96	4
NMTAP	41	192	4
NMTAP	41	192	5
EXTAP	42	0	6
EXTAP	42	0	7
NMSTR	43	0	6
NMSI_	43	0	6	96	288	3
NMSTR	45	0	1
NMSI_	45	0	1	96	288	5
NMSTR	47	0	6
NMSUL	47	0	6	96	672	3
EXTAP	50	0	2
EXTAP	50	0	3
NMTTP	51	0	1	B	0	L1
NMTTP	51	192	2	B	0	L1
NMTTP	52	0	3	B	0	L1
NMTTP	53	0	6	B	0	L1
NMTTP	53	192	5	B	0	L1
NMTTP	54	0	4	B	0	L1
NMTTP	55	0	1	B	0	L1
NMTTP	55	192	2	B	0	L1
NMTTP	56	0	3	B	0	L1
NMTTP	56	192	4	B	0	L1
NMTTP	57	0	0	C	1	L1
EXTAP	59	0	6
EXTAP	59	96	6
EXTAP	59	192	7
EXTAP	59	288	7
EXTAP	60	0	0
EXTAP	60	96	0
EXTAP	60	192	0
EXTAP	60	192	1
NMTAP	61	0	2
NMTAP	61	96	2
NMTAP	61	192	1
NMTAP	61	288	1
NMTAP	62	0	0
NMTAP	62	96	0
NMTAP	62	192	6
NMTAP	62	192	7
NMTAP	63	0	6
NMTAP	63	96	6
NMTAP	63	192	5
NMTAP	63	288	5
NMTAP	64	0	4
NMTAP	64	96	4
NMTAP	64	192	2
NMTAP	64	192	3
NMTAP	65	0	1
NMTAP	65	96	1
NMTAP	65	192	2
NMTAP	65	288	2
NMTAP	66	0	3
NMTAP	66	96	3
NMTAP	66	192	4
NMTAP	66	192	5
NMTAP	67	0	5
NMTAP	67	96	5
NMTAP	67	192	6
NMTAP	67	288	6
NMTAP	68	0	7
NMTAP	68	96	7
NMTAP	68	192	0
NMTAP	68	192	1
NMTAP	68	288	0
NMTAP	68	288	1
NMTAP	69	0	2
NMTAP	69	96	2
NMTAP	69	192	1
NMTAP	69	288	1
NMTAP	70	0	0
NMTAP	70	96	0
NMTAP	70	192	6
NMTAP	70	192	7
NMTAP	71	0	6
NMTAP	71	96	6
NMTAP	71	192	5
NMTAP	71	288	5
NMTAP	72	0	4
NMTAP	72	96	4
NMTAP	72	192	2
NMTAP	72	192	3
NMTAP	72	288	2
NMTAP	72	288	3
NMTAP	73	0	1
NMTAP	73	96	1
NMTAP	73	192	2
NMTAP	73	288	2
NMTAP	74	0	3
NMTAP	74	96	3
NMTAP	74	192	4
NMTAP	74	192	5
NMHLD	75	0	5	384
NMHLD	76	0	4	384
NMHLD	77	0	3	384
NMTAP	78	0	2
NMHLD	79	0	2	384
NMHLD	80	0	3	384
NMHLD	81	0	4	384
NMTAP	82	0	5
NMHLD	83	0	6	384
NMHLD	84	0	5	384
NMHLD	85	0	4	384
NMTAP	86	0	3
NMHLD	87	0	1	384
NMHLD	88	0	2	384
NMHLD	89	0	3	384
NMTAP	90	0	4
NMTAP	91	0	4
NMTAP	91	0	5
NMSTR	92	0	4
NMSI_	92	0	4	96	288	1
NMSTR	92	0	5
NMSI_	92	0	5	96	288	0
NMSTR	94	0	2
NMSI_	94	0	2	96	288	7
NMSTR	94	0	3
NMSI_	94	0	3	96	288	6
NMTAP	96	0	6
NMTAP	96	96	6
NMTAP	96	192	4
NMTAP	96	192	5
NMTAP	96	288	4
NMTAP	96	288	5
NMTAP	97	0	3
NMTAP	97	96	3
NMTAP	97	192	2
NMTAP	97	192	3
NMTAP	98	0	1
NMTAP	98	96	1
NMTAP	98	192	2
NMTAP	98	192	3
NMTAP	98	288	2
NMTAP	98	288	3
NMTAP	99	0	4
NMTAP	99	96	4
NMTAP	99	192	4
NMTAP	99	192	5
NMTAP	100	0	5
NMTAP	100	96	5
NMTAP	100	192	6
NMTAP	100	192	7
NMTAP	100	288	6
NMTAP	100	288	7
NMTAP	101	0	0
NMTAP	101	96	0
NMTAP	101	192	0
NMTAP	101	192	1
NMTAP	101	288	0
NMTAP	101	288	1
NMTAP	102	0	2
NMTAP	102	96	2
NMTAP	102	192	0
NMTAP	102	192	1
NMTAP	102	288	0
NMTAP	102	288	1
NMTAP	103	0	7
NMTAP	103	96	7
NMTAP	103	192	6
NMTAP	103	192	7
NMTAP	104	0	6
NMTAP	104	96	6
NMTAP	104	192	4
NMTAP	104	192	5
NMTAP	104	288	4
NMTAP	104	288	5
NMTAP	105	0	3
NMTAP	105	96	3
NMTAP	105	192	2
NMTAP	105	192	3
NMTAP	105	288	2
NMTAP	105	288	3
NMTAP	106	0	1
NMTAP	106	96	1
NMTAP	106	192	2
NMTAP	106	192	3
NMTAP	106	288	2
NMTAP	106	288	3
NMTAP	107	0	4
NMTAP	107	96	4
BRTAP	107	192	4
BRTAP	107	192	5
NMTAP	108	0	5
NMTAP	108	48	5
NMTAP	108	96	5
NMTAP	108	192	6
NMTAP	108	192	7
NMTAP	108	288	6
NMTAP	108	288	7
NMTAP	109	0	0
NMTAP	109	48	0
NMTAP	109	96	0
NMTAP	109	192	0
NMTAP	109	192	1
NMTAP	110	0	2
NMTAP	110	48	2
NMTAP	110	96	2
NMTAP	110	192	0
NMTAP	110	192	1
NMTAP	110	288	0
NMTAP	110	288	1
NMTAP	111	0	7
NMTAP	111	48	7
NMTAP	111	96	7
NMTAP	111	192	6
NMTAP	111	192	7
NMTAP	112	0	6
NMTAP	112	48	6
NMTAP	112	96	6
NMTAP	112	192	4
NMTAP	112	192	5
NMTAP	112	288	4
NMTAP	112	288	5
NMTAP	113	0	3
NMTAP	113	48	3
NMTAP	113	96	3
NMTAP	113	192	2
NMTAP	113	192	3
NMTAP	114	0	1
NMTAP	114	48	1
NMTAP	114	96	1
NMTAP	114	192	2
NMTAP	114	192	3
NMTAP	114	288	2
NMTAP	114	288	3
NMTAP	115	0	4
NMTAP	115	48	4
NMTAP	115	96	4
NMTAP	115	192	4
NMTAP	115	192	5
NMTAP	116	0	5
NMTAP	116	48	5
NMTAP	116	96	5
NMTAP	116	192	6
NMTAP	116	240	6
NMTAP	116	288	6
NMTAP	117	0	7
NMTAP	117	48	7
NMTAP	117	96	7
NMTAP	117	192	0
NMTAP	117	192	1
NMTAP	118	0	2
NMTAP	118	48	2
NMTAP	118	96	2
NMTAP	118	192	1
NMTAP	118	240	1
NMTAP	118	288	1
NMTAP	119	0	0
NMTAP	119	48	0
NMTAP	119	96	0
NMTAP	119	192	6
NMTAP	119	192	7
NMTAP	120	0	6
NMTAP	120	48	6
NMTAP	120	96	6
NMTAP	120	192	5
NMTAP	120	240	5
NMTAP	120	288	5
NMTAP	121	0	4
NMTAP	121	48	4
NMTAP	121	96	4
NMTAP	121	192	2
NMTAP	121	192	3
NMTAP	122	0	1
NMTAP	122	48	1
NMTAP	122	96	1
NMTAP	122	192	2
NMTAP	122	240	2
NMTAP	122	288	2
NMTAP	123	0	3
NMTAP	123	48	3
NMTAP	123	96	3
NMTAP	123	192	4
NMTAP	123	192	5
NMSTR	124	0	3
NMSXR	124	0	3	96	864	0
NMSTR	124	0	4
NMSXL	124	0	4	96	864	7
NMTAP	128	0	7
NMTAP	128	96	7
NMTAP	128	192	6
NMTAP	128	288	6
NMTAP	129	0	5
NMTAP	129	96	5
NMTAP	129	192	4
NMTAP	129	288	4
NMTAP	130	0	3
NMTAP	130	96	3
NMTAP	130	192	2
NMTAP	130	288	2
NMTAP	131	0	1
NMTAP	131	96	1
BXTAP	131	192	0
BXTAP	131	192	7
NMTAP	132	0	6
NMTAP	132	48	6
NMTAP	132	96	6
NMTAP	132	192	6
NMTAP	132	192	7
NMTAP	133	0	0
NMTAP	133	48	0
NMTAP	133	96	0
NMTAP	133	192	0
NMTAP	133	192	1
NMTAP	134	0	0
NMTAP	134	0	7
NMTAP	134	96	0
NMTAP	134	96	7
EXTAP	134	192	0
EXTAP	134	192	7
EXTAP	134	288	1
EXTAP	134	288	6
EXTAP	134	336	1
EXTAP	134	336	6

T_REC_TAP	326
T_REC_BRK	4
T_REC_XTP	18
T_REC_BXX	2
T_REC_HLD	14
T_REC_XHO	0
T_REC_BHO	0
T_REC_BXH	0
T_REC_STR	15
T_REC_BST	0
T_REC_XST	0
T_REC_XBS	0
T_REC_TTP	11
T_REC_THO	0
T_REC_SLD	15
T_REC_BSL	0
T_REC_ALL	405
T_NUM_TAP	370
T_NUM_BRK	6
T_NUM_HLD	14
T_NUM_SLD	15
T_NUM_ALL	405
T_JUDGE_TAP	376
T_JUDGE_HLD	112
T_JUDGE_SLD	15
T_JUDGE_ALL	503
TTM_EACHPAIRS	74
TTM_SCR_TAP	185000
TTM_SCR_BRK	15600
TTM_SCR_HLD	14000
TTM_SCR_SLD	22500
TTM_SCR_ALL	237100
TTM_SCR_S	229450
TTM_SCR_SS	236500
TTM_RAT_ACV	10025

