VERSION	0.00.00	1.05.00
FES_MODE	0
BPM_DEF	238.000	238.000	238.000	238.000
MET_DEF	4	4
RESOLUTION	384
CLK_DEF	384
COMPATIBLE_CODE	MA2
GENERATED_BY	MuConvert v0.4.0-rc.7+47834d4

BPM	0	0	238.000
MET	0	0	4	4

EXSTR	3	0	7
NMSI_	3	0	7	96	672	3
NMSTR	7	0	0
NMSI_	7	0	0	96	672	4
NMSTR	11	0	6
NMSI_	11	0	6	96	672	2
NMSTR	15	0	1
NMSI_	15	0	1	96	672	5
NMTAP	19	0	7
NMTAP	19	192	7
NMTAP	20	0	6
NMTAP	20	192	6
NMTAP	21	0	5
NMTAP	21	192	5
NMTAP	22	0	3
NMTAP	22	0	4
NMTAP	23	0	3
NMTAP	23	192	3
NMTAP	24	0	2
NMTAP	24	192	2
NMTAP	25	0	1
NMTAP	25	192	1
NMTAP	26	0	0
NMTAP	26	0	7
NMTAP	27	0	0
NMTAP	27	192	0
NMTAP	28	0	1
NMTAP	28	192	1
NMTAP	29	0	2
NMTAP	29	0	3
NMTAP	29	192	2
NMTAP	29	192	3
NMTAP	30	0	2
NMTAP	30	0	3
NMTAP	31	0	4
NMTAP	31	192	4
NMTAP	32	0	5
NMTAP	32	192	5
NMTAP	33	0	6
NMTAP	33	0	7
NMTAP	33	192	6
NMTAP	33	192	7
NMTAP	34	0	6
NMTAP	34	0	7
NMTAP	35	0	7
NMTAP	35	192	7
NMTAP	36	0	6
NMTAP	36	192	6
NMTAP	37	0	5
NMTAP	37	192	5
NMTAP	38	0	3
NMTAP	38	0	4
NMTAP	38	192	3
NMTAP	38	192	4
NMTAP	39	0	3
NMTAP	39	192	3
NMTAP	40	0	2
NMTAP	40	192	2
NMTAP	41	0	1
NMTAP	41	192	1
EXTAP	42	0	0
EXTAP	42	0	7
NMHLD	43	0	0	384
NMHLD	43	0	1	384
NMTAP	45	0	0
NMTAP	45	0	1
NMTAP	45	192	0
NMTAP	45	192	1
NMTAP	46	0	0
NMTAP	46	0	1
NMHLD	47	0	2	384
NMHLD	47	0	3	384
NMTAP	49	0	3
NMTAP	49	0	4
NMTAP	49	192	3
NMTAP	49	192	4
NMTAP	50	0	3
NMTAP	50	0	4
NMHLD	51	0	4	384
NMHLD	51	0	5	384
NMTAP	53	0	4
NMTAP	53	0	5
NMTAP	53	192	4
NMTAP	53	192	5
NMTAP	54	0	4
NMTAP	54	0	5
NMHLD	55	0	6	384
NMHLD	55	0	7	384
NMTAP	57	0	0
NMTAP	57	0	7
NMTAP	57	192	0
NMTAP	57	192	7
NMTAP	58	0	0
NMTAP	58	0	7
BRTAP	59	0	7
NMTAP	59	96	7
NMTAP	59	192	7
NMTAP	60	0	6
NMTAP	60	192	6
NMTAP	61	0	5
NMTAP	61	96	5
NMTAP	61	192	5
NMTAP	62	0	3
NMTAP	62	0	4
NMTAP	63	0	3
NMTAP	63	96	3
NMTAP	63	192	3
NMTAP	64	0	2
NMTAP	64	192	2
NMTAP	65	0	1
NMTAP	65	96	1
NMTAP	65	192	1
NMTAP	66	0	0
NMTAP	66	0	7
NMTAP	67	0	0
NMTAP	67	96	0
NMTAP	67	192	0
NMTAP	68	0	1
NMTAP	68	192	1
NMTAP	69	0	2
NMTAP	69	96	2
NMTAP	69	192	2
NMTAP	70	0	3
NMTAP	70	0	4
NMTAP	70	192	3
NMTAP	70	192	4
NMTAP	71	0	4
NMTAP	71	96	4
NMTAP	71	192	4
NMTAP	72	0	5
NMTAP	72	192	5
NMTAP	73	0	6
NMTAP	73	96	6
NMTAP	73	192	6
BXTAP	74	0	0
BXTAP	74	0	7
NMTAP	75	0	7
NMTAP	75	192	7
NMTAP	76	0	6
NMTAP	76	0	7
NMTAP	76	192	6
NMTAP	76	192	7
NMTAP	77	0	5
NMTAP	77	192	5
NMTAP	78	0	4
NMTAP	78	0	5
NMTAP	78	192	4
NMTAP	78	192	5
NMTAP	79	0	3
NMTAP	79	192	3
NMTAP	80	0	2
NMTAP	80	0	3
NMTAP	80	192	2
NMTAP	80	192	3
NMTAP	81	0	1
NMTAP	81	192	1
NMTAP	82	0	0
NMTAP	82	0	1
NMTTP	83	0	1	E	0	L1
NMTTP	84	0	2	E	0	L1
NMTTP	85	0	3	E	0	L1
NMTTP	86	0	4	E	0	L1
NMTTP	87	0	5	E	0	L1
NMTTP	88	0	6	E	0	L1
NMTTP	89	0	7	E	0	L1
NMTHO	90	0	0	768	C	1	L1
NMTAP	94	0	0
NMTAP	94	0	7
NMTAP	94	192	0
NMTAP	94	192	7
NMTAP	95	0	0
NMTAP	95	0	7
NMTAP	96	0	1
NMTAP	96	96	1
NMTAP	96	192	1
NMTAP	97	0	0
NMTAP	97	0	1
NMTAP	97	192	0
NMTAP	97	192	1
NMTAP	98	0	7
NMTAP	98	96	7
NMTAP	98	192	7
EXTAP	99	0	0
EXTAP	99	0	7
BRTAP	100	0	0
NMTAP	100	96	0
NMTAP	100	192	0
NMTAP	101	0	1
NMTAP	101	96	1
NMTAP	101	192	1
NMTAP	102	0	2
NMTAP	102	96	2
NMTAP	102	192	2
NMTAP	103	0	3
NMTAP	103	0	4
NMTAP	103	192	3
NMTAP	103	192	4
NMTAP	104	0	4
NMTAP	104	96	4
NMTAP	104	192	4
NMTAP	105	0	5
NMTAP	105	96	5
NMTAP	105	192	5
NMTAP	106	0	6
NMTAP	106	96	6
NMTAP	106	192	6
EXTAP	107	0	0
EXTAP	107	0	7
BRTAP	108	0	7
NMTAP	108	96	7
NMTAP	108	192	7
NMTAP	109	0	6
NMTAP	109	96	6
NMTAP	109	192	6
NMTAP	110	0	5
NMTAP	110	96	5
NMTAP	110	192	5
NMTAP	111	0	3
NMTAP	111	0	4
NMTAP	111	96	3
NMTAP	111	96	4
NMTAP	111	192	3
NMTAP	111	192	4
NMTAP	112	0	3
NMTAP	112	96	3
NMTAP	112	192	3
NMTAP	113	0	2
NMTAP	113	96	2
NMTAP	113	192	2
NMTAP	114	0	1
NMTAP	114	96	1
NMTAP	114	192	1
NMTAP	115	0	0
NMTAP	115	0	7
NMTAP	115	96	0
NMTAP	115	96	7
NMTAP	115	192	0
NMTAP	115	192	7
NMTAP	116	0	1
NMTAP	116	96	1
NMTAP	116	192	1
NMTAP	117	0	2
NMTAP	117	96	2
NMTAP	117	192	2
NMTAP	118	0	3
NMTAP	118	96	3
NMTAP	118	192	3
NMTAP	119	0	4
NMTAP	119	96	4
NMTAP	119	192	4
NMTAP	120	0	5
NMTAP	120	96	5
NMTAP	120	192	5
NMTAP	121	0	6
NMTAP	121	96	6
NMTAP	121	192	6
NMTAP	122	0	7
NMTAP	122	96	7
NMTAP	122	192	7
BRTAP	123	0	0
BRTAP	123	0	7
NMTAP	124	0	7
NMTAP	124	96	7
NMTAP	124	192	7
NMTAP	125	0	6
NMTAP	125	0	7
NMTAP	125	192	6
NMTAP	125	192	7
NMTAP	126	0	5
NMTAP	126	96	5
NMTAP	126	192	5
NMTAP	127	0	4
NMTAP	127	0	5
NMTAP	127	192	4
NMTAP	127	192	5
NMTAP	128	0	3
NMTAP	128	96	3
NMTAP	128	192	3
NMTAP	129	0	2
NMTAP	129	0	3
NMTAP	129	192	2
NMTAP	129	192	3
NMTAP	130	0	1
NMTAP	130	96	1
NMTAP	130	192	1
NMTAP	131	0	0
NMTAP	131	0	1
NMTAP	131	192	0
NMTAP	131	192	1
NMTAP	132	0	7
NMTAP	132	96	7
NMTAP	132	192	7
NMTAP	132	288	7
NMTAP	133	0	0
NMTAP	133	96	0
NMTAP	133	192	0
NMTAP	133	288	0
NMHLD	134	0	0	336
NMHLD	134	0	7	336

T_REC_TAP	260
T_REC_BRK	5
T_REC_XTP	6
T_REC_BXX	2
T_REC_HLD	10
T_REC_XHO	0
T_REC_BHO	0
T_REC_BXH	0
T_REC_STR	3
T_REC_BST	0
T_REC_XST	1
T_REC_XBS	0
T_REC_TTP	7
T_REC_THO	1
T_REC_SLD	4
T_REC_BSL	0
T_REC_ALL	299
T_NUM_TAP	277
T_NUM_BRK	7
T_NUM_HLD	11
T_NUM_SLD	4
T_NUM_ALL	299
T_JUDGE_TAP	284
T_JUDGE_HLD	94
T_JUDGE_SLD	4
T_JUDGE_ALL	382
TTM_EACHPAIRS	64
TTM_SCR_TAP	138500
TTM_SCR_BRK	18200
TTM_SCR_HLD	11000
TTM_SCR_SLD	6000
TTM_SCR_ALL	173700
TTM_SCR_S	167850
TTM_SCR_SS	173000
TTM_RAT_ACV	10040

