VERSION	0.00.00	1.05.00
FES_MODE	0
BPM_DEF	314.000	314.000	314.000	314.000
MET_DEF	4	4
RESOLUTION	384
CLK_DEF	384
COMPATIBLE_CODE	MA2
GENERATED_BY	MuConvert v0.2.0-beta.2+40bb110

BPM	0	0	314.000
MET	0	0	4	4

NMTTP	2	192	3	E	0	M1
NMTTP	2	216	3	B	0	M1
NMTTP	2	240	4	B	0	M1
NMTTP	2	264	5	E	0	M1
NMTTP	3	0	0	C	1	M1
NMSTR	3	0	7
NMSCL	3	0	7	96	1056	0
NMSTR	7	0	7
NMSCL	7	0	7	96	1056	0
BRTAP	11	0	0
NMTAP	11	0	7
NMTAP	11	192	2
NMTAP	11	216	3
NMTAP	11	240	2
NMTAP	11	336	5
NMTAP	11	360	4
NMTAP	12	0	5
NMTAP	12	96	0
NMTAP	12	96	7
NMTAP	12	192	0
NMTAP	12	192	7
BRTAP	13	0	1
NMTAP	13	0	6
NMTAP	13	192	2
NMTAP	13	216	3
NMTAP	13	240	2
NMTAP	13	336	5
NMTAP	13	360	4
NMTAP	14	0	5
NMTAP	14	96	3
NMTAP	14	96	6
NMTAP	14	192	3
NMTAP	14	192	6
NMTAP	15	0	7
BRTAP	15	0	2
NMTAP	15	192	1
NMTAP	15	216	2
NMTAP	15	240	3
NMTAP	15	288	6
NMTAP	15	312	5
NMTAP	15	336	4
NMTAP	16	0	1
NMTAP	16	24	2
NMTAP	16	48	3
NMTAP	16	96	6
NMTAP	16	120	5
NMTAP	16	144	4
NMTAP	16	192	0
NMTAP	16	216	1
NMTAP	16	240	2
NMTAP	16	288	7
NMSTR	16	312	6
BRSI_	16	312	6	96	48	2
NMTAP	16	336	5
BRTAP	19	0	3
BRTAP	19	0	7
NMHLD	19	192	0	96
NMHLD	19	192	1	96
NMHLD	19	336	5	96
NMHLD	19	336	6	96
NMHLD	20	96	1	96
NMHLD	20	96	3	96
NMHLD	20	240	6	96
NMHLD	20	240	7	96
NMHLD	21	0	0	96
NMHLD	21	0	2	96
NMHLD	21	144	5	96
NMHLD	21	144	4	96
NMTAP	21	288	0
NMTAP	21	288	7
NMTAP	22	0	0
NMTAP	22	0	7
NMTAP	22	96	1
NMTAP	22	96	6
NMTTP	22	192	5	E	0	M1
NMTTP	22	256	3	E	0	M1
NMTTP	22	320	4	E	0	M1
NMTTP	23	0	0	C	1	M1
NMSTR	24	96	2
NMSI_	24	96	2	96	48	0
NMSTR	24	96	6
NMSI_	24	96	6	96	48	4
NMTAP	24	192	2
NMTAP	24	192	6
NMSTR	25	0	0
NMSI_	25	0	0	96	48	4
NMTAP	25	0	5
NMTAP	25	96	5
NMSTR	25	192	3
NMSI_	25	192	3	96	48	1
NMTAP	25	192	5
NMTAP	25	288	5
NMTAP	26	0	0
NMTAP	26	0	5
NMTAP	26	96	6
NMTAP	26	144	7
NMTAP	26	240	5
NMTAP	26	288	4
NMTAP	27	0	2
NMSTR	27	0	6
NMSI_	27	0	6	96	48	4
NMTAP	27	96	2
NMTAP	27	192	2
NMSTR	27	192	3
NMSI_	27	192	3	96	48	7
NMTAP	27	288	2
NMTAP	28	0	2
NMTAP	28	0	0
NMTAP	28	96	1
NMTAP	28	144	0
NMTAP	28	240	2
NMTAP	28	288	3
NMTAP	29	0	1
NMTAP	29	48	0
NMTAP	29	96	1
NMTAP	29	144	0
NMTAP	29	192	2
NMTAP	29	240	7
NMTAP	29	288	3
NMTAP	29	336	6
NMTAP	30	0	4
NMTAP	30	48	5
NMTAP	30	96	4
NMTAP	30	144	5
NMTAP	30	192	3
NMTAP	30	240	6
NMHLD	30	288	2	96
NMTAP	31	0	0
NMTAP	31	48	7
NMTAP	31	96	6
NMTAP	31	144	5
NMTAP	31	192	3
NMTAP	31	240	2
NMTAP	31	288	1
NMTAP	31	336	0
EXHLD	32	0	6	96
EXHLD	32	0	7	96
NMHLD	32	144	0	96
NMHLD	32	144	1	96
NMTAP	32	288	3
NMTAP	32	288	5
NMTAP	33	0	2
NMSTR	33	0	6
NMSI_	33	0	6	96	48	4
NMTAP	33	96	2
NMTAP	33	192	2
NMSTR	33	192	3
NMSI_	33	192	3	96	48	7
NMTAP	33	288	2
NMTAP	34	0	0
NMTAP	34	0	2
NMTAP	34	96	1
NMTAP	34	144	0
NMTAP	34	240	6
NMTAP	34	288	7
NMSTR	35	0	0
NMSI_	35	0	0	96	48	4
NMTAP	35	0	5
NMTAP	35	96	5
NMSTR	35	192	3
NMSI_	35	192	3	96	48	1
NMTAP	35	192	5
NMTAP	35	288	5
NMTAP	36	0	0
NMTAP	36	0	5
NMTAP	36	96	6
NMTAP	36	144	7
NMTAP	36	240	1
NMTAP	36	288	0
NMTAP	37	0	2
NMTAP	37	48	2
NMTAP	37	96	3
NMTAP	37	144	1
NMTAP	37	192	5
NMTAP	37	240	5
NMTAP	37	288	4
NMTAP	37	336	6
NMTAP	38	0	1
NMTAP	38	48	7
NMTAP	38	96	0
NMTAP	38	144	6
NMTAP	38	192	7
NMTAP	38	288	1
NMTAP	38	288	4
NMTAP	39	0	2
NMTAP	39	24	3
NMTAP	39	48	2
NMTAP	39	144	4
NMTAP	39	168	3
NMTAP	39	192	4
NMTAP	39	288	2
NMTAP	39	312	3
NMTAP	39	336	1
NMHLD	40	48	0	96
NMHLD	40	48	4	96
BRTAP	40	192	5
BRSTR	40	192	1
NMSI_	40	192	1	96	48	3
CNSI_	40	336	3	0	48	5
NMTTP	41	0	0	C	1	M1
NMTAP	44	192	0
NMTAP	44	192	7
NMSTR	45	0	1
NMSI_	45	0	1	96	48	4
NMTAP	45	96	0
NMSTR	45	192	6
NMSI_	45	192	6	96	48	3
NMTAP	45	288	7
NMTAP	46	0	2
NMTAP	46	96	1
NMTAP	46	144	1
NMTAP	46	144	0
NMTAP	46	240	6
NMTAP	46	288	7
NMTAP	46	288	6
BRTAP	47	0	5
NMTAP	47	48	7
NMTAP	47	96	6
NMTAP	47	144	0
NMTAP	47	192	7
NMTAP	47	240	1
NMTAP	47	288	0
NMHLD	48	0	3	96
NMHLD	48	0	2	96
NMHLD	48	144	5	96
NMHLD	48	144	4	96
BRTAP	48	288	7
BRTAP	48	288	6
NMTAP	49	0	0
NMTAP	49	0	5
NMTAP	49	96	1
NMTAP	49	144	3
NMHLD	49	192	2	96
NMTAP	49	288	5
NMTAP	49	336	4
NMTAP	50	0	6
NMTAP	50	96	3
NMTAP	50	96	7
BRHLD	50	144	3	144
BRHLD	50	144	7	144
NMTAP	51	0	3
NMTAP	51	0	7
NMTAP	51	96	1
NMTAP	51	128	0
NMTAP	51	160	1
NMTAP	51	192	7
NMTAP	51	256	7
NMSTR	51	320	7
NMSSL	51	320	7	96	252	3
NMSV_	51	320	7	96	252	2
NMTAP	53	0	1
NMTAP	53	48	1
NMTAP	53	96	7
NMTAP	53	144	7
NMTAP	53	192	0
NMTAP	53	240	0
NMTAP	53	288	6
NMTAP	53	336	6
NMTAP	54	0	1
NMTAP	54	24	2
NMTAP	54	48	3
NMTAP	54	72	4
NMTAP	54	96	5
NMHLD	54	144	7	96
NMTAP	54	288	0
NMTAP	54	288	6
NMSTR	55	0	1
NMSI_	55	0	1	96	72	6
NMSTR	55	144	5
NMSI_	55	144	5	96	72	2
NMSTR	55	288	0
NMSI_	55	288	0	96	72	4
NMSTR	56	48	7
NMSI_	56	48	7	96	72	3
BRTAP	56	192	2
NMHLD	57	0	1	576
NMHLD	57	0	5	576
NMHLD	59	0	2	144
NMHLD	59	144	3	144
NMHLD	59	288	4	192
BRTAP	60	96	7
NMTAP	60	288	1
NMTAP	60	288	5
NMSTR	61	0	1
NMSI_	61	0	1	96	178	6
NMHLD	61	0	5	192
CNSI_	61	274	6	0	178	3
NMTTP	62	0	7	B	1	M1
NMTTP	62	0	0	E	0	M1
NMTTP	62	0	7	E	0	M1
CNSI_	62	68	3	0	178	0
CNSI_	62	246	0	0	178	5
NMTTP	63	0	1	B	1	M1
NMTTP	63	0	1	E	0	M1
NMTTP	63	0	2	E	0	M1
CNSI_	63	40	5	0	178	2
CNSI_	63	218	2	0	178	7
NMTTP	64	0	6	B	1	M1
NMTTP	64	0	7	E	0	M1
NMTTP	64	0	6	E	0	M1
CNSV_	64	12	7	0	180	4
NMSTR	65	0	6
NMSI_	65	0	6	96	178	1
NMHLD	65	0	2	192
CNSI_	65	274	1	0	178	4
NMTTP	66	0	0	E	0	M1
NMTTP	66	0	1	E	0	M1
NMTTP	66	0	0	B	1	M1
CNSI_	66	68	4	0	178	7
CNSI_	66	246	7	0	178	2
NMTTP	67	0	6	B	1	M1
NMTTP	67	0	7	E	0	M1
NMTTP	67	0	6	E	0	M1
CNSI_	67	40	2	0	178	5
CNSI_	67	218	5	0	178	0
NMTTP	68	0	1	B	1	M1
NMTTP	68	0	1	E	0	M1
NMTTP	68	0	2	E	0	M1
CNSV_	68	12	0	0	180	3
NMSTR	69	0	2
NMSI_	69	0	2	96	208	0
NMHLD	69	0	3	576
CNSI_	69	304	0	0	208	6
CNSI_	70	128	6	0	208	4
CNSI_	70	336	4	0	208	6
NMTHO	71	0	4	576	E	1	M1
CNSI_	71	160	6	0	208	0
CNSI_	71	368	0	0	208	2
BRTAP	73	0	0
BRTAP	73	0	7
NMHLD	73	192	6	48
NMHLD	73	192	4	48
NMHLD	73	288	6	48
NMHLD	73	288	4	48
NMHLD	74	0	3	48
NMHLD	74	0	4	48
NMHLD	74	96	3	48
NMHLD	74	96	4	48
NMHLD	74	192	3	48
NMHLD	74	192	1	48
NMHLD	74	288	3	48
NMHLD	74	288	1	48
NMHLD	75	0	2	192
NMTAP	75	192	3
NMTAP	75	224	4
NMTAP	75	256	5
NMTAP	75	288	6
NMTAP	75	320	7
NMTAP	75	352	0
NMHLD	76	0	1	48
NMHLD	76	96	1	48
NMTAP	76	192	2
NMTAP	76	192	0
NMTAP	76	256	2
NMTAP	76	256	0
NMTAP	76	320	2
NMTAP	76	320	0
BRHLD	77	0	3	96
BRHLD	77	0	7	96
NMTAP	77	192	4
NMTAP	77	192	6
NMTAP	77	288	5
NMTAP	77	336	4
NMTAP	78	0	6
NMTAP	78	96	7
NMTAP	78	96	6
NMHLD	78	192	6	24
NMHLD	78	192	7	24
NMHLD	78	240	0	24
NMHLD	78	240	5	24
NMHLD	78	288	1	24
NMHLD	78	288	4	24
NMSTR	78	336	2
NMSCL	78	336	2	96	528	4
NMHLD	78	336	3	24
NMTTP	79	0	0	C	1	M1
NMTTP	81	0	4	A	0	M1
NMTTP	81	0	2	A	0	M1
NMTTP	81	0	3	A	0	M1
NMTTP	81	0	5	A	0	M1
NMTTP	81	0	3	D	0	M1
NMTTP	81	0	5	D	0	M1
NMTTP	81	0	4	D	0	M1
NMTTP	81	288	2	E	0	M1
NMTTP	81	336	2	B	0	M1
NMTTP	82	0	3	B	0	M1
NMTTP	82	144	5	B	0	M1
NMTTP	82	288	7	B	0	M1
NMTTP	83	0	3	E	0	M1
NMTTP	83	144	2	E	0	M1
NMTTP	83	288	1	E	0	M1
NMTTP	84	0	5	E	0	M1
NMTTP	84	144	6	E	0	M1
NMTTP	84	288	7	E	0	M1
NMTHO	85	0	0	1056	C	0	M1
NMTTP	85	0	2	E	0	M1
NMTTP	85	288	0	A	0	M1
NMTTP	85	312	1	E	0	M1
NMTTP	85	336	2	E	0	M1
NMTTP	85	360	2	A	0	M1
NMTTP	86	288	0	A	0	M1
NMTTP	86	312	0	E	0	M1
NMTTP	86	336	7	E	0	M1
NMTTP	86	360	6	A	0	M1
NMTTP	87	288	0	A	0	M1
NMTTP	87	336	1	A	0	M1
NMTTP	88	0	2	A	0	M1
NMTTP	88	48	3	A	0	M1
NMTTP	88	96	4	A	0	M1
NMTTP	88	144	5	A	0	M1
NMTTP	88	192	6	A	0	M1
NMTTP	88	240	7	A	0	M1
NMTTP	88	288	0	A	0	M1
NMTTP	88	336	1	A	0	M1
BRTAP	89	0	6
BXTAP	89	0	2
NMTAP	89	288	2
NMTAP	89	336	3
BRHLD	90	0	1	192
BRHLD	90	0	4	192
NMTAP	90	288	5
NMTAP	90	336	4
BRTAP	91	0	3
BRTAP	91	0	6
NMTAP	91	96	1
NMTAP	91	144	0
NMTAP	91	192	2
NMTAP	91	192	7
NMTAP	91	288	6
NMTAP	91	336	7
NMTAP	92	0	0
NMTAP	92	0	5
NMTAP	92	96	1
NMTAP	92	144	3
NMTAP	92	192	0
NMTAP	92	192	4
NMTAP	92	288	6
NMTAP	92	336	4
NMHLD	93	0	3	48
NMHLD	93	0	7	48
NMHLD	93	96	3	48
NMHLD	93	96	7	48
NMHLD	93	192	6	48
NMHLD	93	192	2	48
NMHLD	93	288	5	48
NMHLD	93	288	1	48
NMTAP	94	0	0
NMTAP	94	48	0
NMTAP	94	96	2
NMTAP	94	144	2
NMTAP	94	192	4
NMTAP	94	240	4
NMTAP	94	288	6
NMTAP	94	336	6
BRTAP	95	0	0
NMTTP	95	0	0	C	1	M1
NMTAP	96	288	1
NMTAP	96	288	5
BRTAP	97	0	6
NMTAP	97	48	6
NMTAP	97	96	7
NMTAP	97	144	5
NMTAP	97	240	0
NMTAP	97	240	6
NMTAP	97	336	1
NMTAP	97	336	3
NMSTR	98	48	4
NMSCL	98	48	4	96	144	7
NMTAP	98	48	6
NMTAP	98	144	7
NMTAP	98	192	6
NMTAP	98	240	5
NMTAP	98	288	4
NMTAP	98	336	3
NMHLD	99	0	2	96
NMTAP	99	96	0
NMHLD	99	144	0	96
NMHLD	99	240	6	96
NMSTR	99	336	4
NMSCL	99	336	4	96	48	1
NMSTR	100	48	7
NMSI_	100	48	7	96	48	3
NMTAP	100	240	0
NMTAP	100	288	0
NMTAP	101	0	1
NMTAP	101	48	1
NMTAP	101	96	0
NMTAP	101	144	2
NMTAP	101	240	1
NMTAP	101	240	7
NMTAP	101	336	4
NMTAP	101	336	6
NMTAP	102	48	1
NMSTR	102	48	3
NMSCR	102	48	3	96	144	0
NMTAP	102	144	0
NMTAP	102	192	1
NMTAP	102	240	2
NMTAP	102	288	3
NMTAP	102	336	4
NMHLD	103	0	5	96
NMTAP	103	96	7
NMHLD	103	144	7	96
NMHLD	103	240	1	96
NMSTR	103	336	0
NMSI_	103	336	0	96	48	5
NMSTR	104	48	0
NMSI_	104	48	0	96	48	3
BXTAP	104	144	0
NMTAP	105	0	6
NMTAP	105	48	6
NMTAP	105	96	7
NMTAP	105	144	5
NMTAP	105	240	2
NMTAP	105	240	4
NMTAP	105	336	1
NMTAP	105	336	0
NMSTR	106	48	7
NMSCR	106	48	7	96	144	4
NMTAP	106	48	6
NMTAP	106	144	4
NMTAP	106	192	5
NMTAP	106	240	6
NMTAP	106	288	7
NMTAP	106	336	0
EXHLD	107	0	1	96
NMTAP	107	96	3
NMHLD	107	144	3	96
NMHLD	107	240	4	96
NMHLD	107	336	6	96
NMTAP	108	48	7
NMSTR	108	144	1
NMSI_	108	144	1	96	48	4
NMSTR	108	144	5
NMSI_	108	144	5	96	48	0
BRTAP	108	240	1
BRTAP	108	240	5
NMHLD	109	0	2	576
NMHLD	109	0	6	576
BRTAP	111	0	1
NMTAP	111	32	7
NMTAP	111	64	1
NMTAP	111	96	7
NMTAP	111	128	1
NMTAP	111	160	7
EXTAP	111	192	1
NMTAP	111	224	7
NMTAP	111	256	1
NMTAP	111	288	7
NMTAP	111	320	1
NMTAP	111	352	7
EXTAP	112	0	0
NMTAP	112	32	6
NMTAP	112	64	0
NMTAP	112	96	6
NMTAP	112	128	0
NMTAP	112	160	6
EXTAP	112	192	0
NMTAP	112	224	6
NMTAP	112	256	0
NMTAP	112	288	6
NMTAP	112	320	0
NMTAP	112	352	6
EXTAP	113	0	1
NMTAP	113	24	2
NMTAP	113	48	3
NMTAP	113	72	4
NMTAP	113	96	5
NMTAP	113	120	6
NMTAP	113	144	7
NMTAP	113	168	0
NMTAP	113	192	1
NMTAP	113	216	2
NMTAP	113	240	3
NMTAP	113	264	4
NMTAP	113	288	5
NMTAP	113	312	6
NMTAP	113	336	7
NMTAP	113	360	0
NMTAP	114	0	1
EXTAP	114	0	5
NMTAP	114	24	4
NMTAP	114	48	3
NMTAP	114	72	2
NMTAP	114	96	1
NMTAP	114	120	0
NMTAP	114	144	7
NMTAP	114	168	6
NMTAP	114	192	5
NMTAP	114	216	4
NMTAP	114	240	3
NMTAP	114	264	2
NMTAP	114	288	1
NMTAP	114	312	0
NMTAP	114	336	7
NMTAP	114	360	6
NMTTP	115	0	0	C	1	M1
NMTAP	115	0	5
NMSTR	119	0	7
NMSCL	119	0	7	96	1056	0
NMTTP	120	0	3	E	0	M1
NMTTP	120	0	2	E	0	M1
NMTTP	122	0	5	E	0	M1
NMTTP	122	0	6	E	0	M1
EXSTR	123	0	0
NMSCR	123	0	0	96	1056	7
NMTTP	124	0	5	E	0	M1
NMTTP	124	0	6	E	0	M1
NMTTP	126	0	2	E	0	M1
NMTTP	126	0	3	E	0	M1
NMSTR	127	0	6
NMSI_	127	0	6	96	288	4
NMTTP	127	192	1	B	0	M1
NMTTP	127	192	2	E	0	M1
CNSI_	128	0	4	0	288	0
NMTTP	128	192	3	B	0	M1
NMTTP	128	192	4	E	0	M1
NMSTR	129	0	2
NMSI_	129	0	2	96	288	0
NMTTP	129	192	5	B	0	M1
NMTTP	129	192	5	E	0	M1
CNSI_	130	0	0	0	288	4
NMTTP	130	192	7	B	0	M1
NMTTP	130	192	7	E	0	M1
NMTAP	131	0	6
NMHLD	131	96	6	96
NMTAP	131	192	4
NMHLD	131	288	4	96
NMTAP	132	0	3
NMHLD	132	96	3	96
NMSTR	132	192	1
NMSUR	132	192	1	96	480	4
NMTTP	133	0	0	C	1	M1
NMTAP	134	192	5
NMTAP	134	224	4
NMTAP	134	256	5
NMTAP	134	288	4
NMSTR	135	0	3
NMSI_	135	0	3	96	192	0
NMHLD	135	0	6	96
NMHLD	135	192	6	96
NMSTR	136	0	7
NMSI_	136	0	7	96	192	4
NMHLD	136	0	6	96
NMHLD	136	192	6	96
NMTAP	137	0	3
NMHLD	137	0	6	96
NMTAP	137	96	3
NMTAP	137	192	5
NMHLD	137	192	2	96
NMTAP	137	288	5
NMTAP	138	0	1
NMHLD	138	0	4	96
NMTAP	138	96	1
NMTAP	138	192	5
NMHLD	138	192	2	96
NMTAP	138	288	5
NMTAP	139	0	3
NMTAP	139	48	4
NMTAP	139	96	3
NMTAP	139	144	4
NMTAP	139	192	3
NMTAP	139	240	4
NMTAP	139	288	3
NMTAP	139	336	4
NMTAP	140	0	2
NMTAP	140	48	5
NMTAP	140	96	2
NMTAP	140	144	5
NMTAP	140	192	1
NMTAP	140	240	6
NMTAP	140	288	1
NMTAP	140	336	6
NMTAP	141	0	0
NMTAP	141	24	7
NMTAP	141	48	0
NMTAP	141	72	7
NMTAP	141	96	0
NMTAP	141	120	7
NMTAP	141	144	0
NMTAP	141	168	7
NMTAP	141	192	0
NMTAP	141	216	7
NMTAP	141	240	0
NMTAP	141	264	7
NMTAP	141	288	0
NMTAP	141	312	7
NMTAP	141	336	0
NMTAP	141	360	7
EXHLD	142	0	1	288
NMTAP	143	0	1
BRTAP	143	0	0
NMTAP	143	24	7
NMTAP	143	48	6
NMTAP	143	72	5
NMTAP	143	96	4
NMTAP	143	120	3
NMTAP	143	144	2
BRTAP	143	240	4
BRTAP	143	240	0
NMSTR	143	288	0
NMSI_	143	288	0	96	48	4
NMTAP	143	288	4
NMSTR	144	0	5
NMSI_	144	0	5	96	48	0
NMSTR	144	96	3
NMSI_	144	96	3	96	48	7
NMSTR	144	192	6
NMSI_	144	192	6	96	48	2
NMTAP	144	288	0
NMTAP	145	0	1
NMTAP	145	48	1
NMTAP	145	96	3
NMTAP	145	144	0
NMTAP	145	192	5
NMTAP	145	240	5
NMTAP	145	288	4
NMTAP	145	336	7
NMTAP	146	0	1
NMTAP	146	48	0
NMHLD	146	96	2	96
NMTAP	146	192	3
NMTAP	146	288	4
NMTAP	146	288	6
NMSTR	147	0	7
NMSCL	147	0	7	96	72	4
NMTAP	147	96	3
NMTAP	147	96	7
NMTAP	147	120	2
NMTAP	147	144	1
NMTAP	147	168	0
EXTAP	147	288	7
EXTAP	147	288	3
NMSTR	148	0	7
NMSCR	148	0	7	96	72	2
NMTAP	148	96	3
NMTAP	148	96	7
NMTAP	148	120	4
NMTAP	148	144	5
NMTAP	148	168	6
EXTAP	148	288	7
EXTAP	148	288	1
NMTAP	149	0	0
NMTAP	149	48	0
NMTAP	149	96	7
NMTAP	149	144	1
NMTAP	149	192	0
NMTAP	149	240	0
NMTAP	149	288	2
NMTAP	149	336	6
NMTAP	150	0	0
NMTAP	150	48	0
NMTAP	150	96	4
NMTAP	150	192	2
NMTAP	150	192	6
NMSTR	151	0	1
NMSI_	151	0	1	96	48	5
NMTAP	151	96	7
NMHLD	151	144	7	144
NMTAP	151	240	4
NMTAP	151	288	4
BRTAP	152	0	3
BRTAP	152	0	6
NMTAP	152	16	2
NMTAP	152	16	5
NMTAP	152	32	1
NMTAP	152	32	4
NMTAP	152	48	0
NMHLD	152	48	3	96
EXTAP	152	144	0
NMTAP	152	160	1
NMTAP	152	160	4
NMTAP	152	176	2
NMTAP	152	176	5
NMTAP	152	192	3
NMTAP	152	192	6
EXTAP	152	288	7
NMSTR	153	0	6
NMSI_	153	0	6	96	48	2
NMTAP	153	96	0
NMHLD	153	144	0	144
NMTAP	153	240	3
NMTAP	153	288	3
BRTAP	154	0	1
BRTAP	154	0	4
NMTAP	154	16	2
NMTAP	154	16	5
NMTAP	154	32	3
NMTAP	154	32	6
NMTAP	154	48	7
NMHLD	154	48	4	96
EXTAP	154	144	7
NMTAP	154	160	3
NMTAP	154	160	6
NMTAP	154	176	2
NMTAP	154	176	5
NMTAP	154	192	1
NMTAP	154	192	4
EXTAP	154	288	0
NMTAP	155	0	6
NMTAP	155	48	6
NMTAP	155	96	4
NMTAP	155	144	4
NMTAP	155	192	7
NMTAP	155	240	7
NMTAP	155	288	1
NMTAP	155	336	1
NMTAP	156	0	3
NMTAP	156	48	3
NMTAP	156	96	0
NMTAP	156	144	0
NMTAP	156	192	6
NMSTR	156	288	1
NMSCR	156	288	1	96	96	4
NMTAP	156	288	5
NMSTR	157	0	4
NMSCR	157	0	4	96	96	7
NMSTR	157	96	7
NMSCR	157	96	7	96	96	2
NMTAP	157	192	2
NMTAP	157	288	4
BRHLD	158	0	5	288
BRHLD	158	0	1	288
BRTAP	159	0	7
NMTAP	159	0	6
NMTAP	159	24	0
NMTAP	159	48	1
NMTAP	159	72	2
NMTAP	159	96	3
NMTAP	159	120	4
NMTAP	159	144	5
BRTAP	159	240	3
BRTAP	159	240	7
NMTAP	159	288	3
NMSTR	159	288	7
NMSI_	159	288	7	96	48	3
NMSTR	160	0	2
NMSI_	160	0	2	96	48	7
NMSTR	160	96	4
NMSI_	160	96	4	96	48	0
NMSTR	160	192	1
NMSI_	160	192	1	96	48	5
NMTAP	160	288	7
NMTAP	161	0	6
NMTAP	161	48	6
NMTAP	161	96	4
NMTAP	161	144	7
NMTAP	161	192	2
NMTAP	161	240	2
NMTAP	161	288	3
NMTAP	161	336	0
NMTAP	162	0	6
NMTAP	162	48	7
NMHLD	162	96	5	96
NMTAP	162	192	4
NMTAP	162	288	1
NMTAP	162	288	3
NMSTR	163	0	0
BRSCR	163	0	0	96	72	3
NMTAP	163	96	0
NMTAP	163	96	4
NMTAP	163	120	5
NMTAP	163	144	6
NMTAP	163	168	7
EXTAP	163	288	0
EXTAP	163	288	4
NMSTR	164	0	0
BRSCL	164	0	0	96	72	5
NMTAP	164	96	0
NMTAP	164	96	4
NMTAP	164	120	3
NMTAP	164	144	2
NMTAP	164	168	1
EXTAP	164	288	0
EXTAP	164	288	6
NMTAP	165	0	7
NMTAP	165	48	7
NMTAP	165	96	0
NMTAP	165	144	6
NMTAP	165	192	7
NMTAP	165	240	7
NMTAP	165	288	5
NMTAP	165	336	1
NMTAP	166	0	7
NMTAP	166	48	7
NMTAP	166	96	3
NMTAP	166	192	1
NMTAP	166	192	5
NMSTR	167	0	6
NMSI_	167	0	6	96	48	2
NMTAP	167	96	0
NMHLD	167	144	0	144
NMTAP	167	240	3
NMTAP	167	288	3
BRTAP	168	0	1
BRTAP	168	0	4
NMTAP	168	16	2
NMTAP	168	16	5
NMTAP	168	32	3
NMTAP	168	32	6
NMTAP	168	48	7
NMHLD	168	48	4	96
EXTAP	168	144	7
NMTAP	168	160	3
NMTAP	168	160	6
NMTAP	168	176	2
NMTAP	168	176	5
NMTAP	168	192	1
NMTAP	168	192	4
EXTAP	168	288	0
NMSTR	169	0	1
NMSI_	169	0	1	96	48	5
NMTAP	169	96	7
NMHLD	169	144	7	144
NMTAP	169	240	4
NMTAP	169	288	4
BRTAP	170	0	3
BRTAP	170	0	6
NMTAP	170	16	2
NMTAP	170	16	5
NMTAP	170	32	1
NMTAP	170	32	4
NMTAP	170	48	0
NMHLD	170	48	3	96
EXTAP	170	144	0
NMTAP	170	160	1
NMTAP	170	160	4
NMTAP	170	176	2
NMTAP	170	176	5
NMTAP	170	192	3
NMTAP	170	192	6
EXTAP	170	288	7
NMTAP	171	0	1
NMTAP	171	48	1
NMTAP	171	96	3
NMTAP	171	144	3
NMTAP	171	192	0
NMTAP	171	240	0
NMTAP	171	288	6
NMTAP	171	336	6
NMTAP	172	0	4
NMTAP	172	48	4
NMTAP	172	96	7
NMTAP	172	144	7
NMTAP	172	192	1
NMTAP	172	288	0
NMTAP	172	288	7
NMTAP	173	0	1
NMTAP	173	32	2
NMTAP	173	64	3
NMTAP	173	96	4
NMTAP	173	128	5
NMTAP	173	160	6
NMTAP	173	192	2
NMTAP	173	224	3
NMTAP	173	256	4
NMTAP	173	288	5
NMTAP	173	320	6
NMTAP	173	352	7
EXTAP	174	0	1
NMTAP	174	24	0
NMTAP	174	48	1
NMTAP	174	72	0
NMTAP	174	96	1
NMTAP	174	120	0
BRTAP	174	192	7
BRTAP	174	192	2
NMTAP	175	0	2
NMHLD	175	48	2	96
NMHLD	175	144	1	96
NMSTR	175	240	0
BRSI_	175	240	0	96	48	4
EXTAP	175	336	7
EXTAP	176	0	7
NMTAP	176	192	5
NMHLD	176	240	5	96
NMHLD	176	336	6	96
NMSTR	177	48	7
BRSI_	177	48	7	96	48	3
EXTAP	177	144	0
EXTAP	177	192	0
NMTAP	178	0	1
NMSTR	178	48	1
NMSI_	178	48	1	96	48	5
NMTAP	178	144	0
NMSTR	178	192	0
NMSI_	178	192	0	96	48	4
NMTAP	178	288	7
NMSTR	178	336	7
NMSI_	178	336	7	96	48	3
NMTAP	179	48	6
NMSTR	179	96	6
NMSI_	179	96	6	96	48	2
NMTAP	179	192	5
NMSTR	179	240	5
NMSI_	179	240	5	96	48	1
NMTAP	179	336	4
NMSTR	180	0	4
NMSI_	180	0	4	96	48	0
NMTAP	180	96	3
NMTAP	180	144	3
NMTAP	180	240	2
NMTAP	180	288	2
NMTAP	181	0	1
BRTAP	181	0	6
BRTAP	181	96	0
NMTAP	181	120	7
NMTAP	181	144	0
NMTAP	181	168	6
NMTAP	181	192	0
NMTAP	181	216	5
NMTAP	181	240	0
NMTAP	181	264	4
NMTAP	181	288	0
NMTAP	181	312	3
NMTAP	181	336	0
NMTAP	181	360	2
NMTTP	182	0	0	C	1	M1

T_REC_TAP	597
T_REC_BRK	39
T_REC_XTP	26
T_REC_BXX	2
T_REC_HLD	97
T_REC_XHO	4
T_REC_BHO	8
T_REC_BXH	0
T_REC_STR	66
T_REC_BST	1
T_REC_XST	1
T_REC_XBS	0
T_REC_TTP	86
T_REC_THO	2
T_REC_SLD	64
T_REC_BSL	5
T_REC_ALL	998
T_NUM_TAP	776
T_NUM_BRK	55
T_NUM_HLD	103
T_NUM_SLD	64
T_NUM_ALL	998
T_JUDGE_TAP	818
T_JUDGE_HLD	171
T_JUDGE_SLD	69
T_JUDGE_ALL	1058
TTM_EACHPAIRS	151
TTM_SCR_TAP	388000
TTM_SCR_BRK	143000
TTM_SCR_HLD	103000
TTM_SCR_SLD	96000
TTM_SCR_ALL	730000
TTM_SCR_S	702800
TTM_SCR_SS	724500
TTM_RAT_ACV	10075

