VERSION	0.00.00	1.05.00
FES_MODE	0
BPM_DEF	314.000	314.000	314.000	314.000
MET_DEF	4	4
RESOLUTION	384
CLK_DEF	384
COMPATIBLE_CODE	MA2
GENERATED_BY	MuConvert v0.2.0-beta.2+40bb110

BPM	0	0	314.000
MET	0	0	4	4

BXSTR	3	0	0
NMSCR	3	0	0	96	288	3
NMTAP	4	192	4
NMSTR	5	0	4
NMSCR	5	0	4	96	288	7
NMTAP	6	192	1
NMSTR	7	0	1
NMSCR	7	0	1	96	288	4
NMTAP	8	192	5
NMSTR	9	0	6
NMSCR	9	0	6	96	288	1
NMTAP	10	192	2
BXTAP	11	0	0
NMHLD	11	192	6	144
NMHLD	11	336	4	144
NMTAP	12	96	5
NMTAP	12	192	2
NMTAP	12	192	3
BXTAP	13	0	1
NMHLD	13	192	6	144
NMHLD	13	336	4	144
NMTAP	14	96	5
NMTAP	14	192	3
NMTAP	14	192	4
BXTAP	15	0	2
NMTAP	15	192	1
NMTAP	15	192	0
NMTAP	15	288	1
NMTAP	15	288	0
NMTAP	16	0	7
NMTAP	16	96	6
NMTAP	16	192	7
NMTAP	16	192	6
NMTAP	16	288	7
NMTAP	16	288	6
BRHLD	17	0	5	768
NMTTP	19	0	0	E	1	M1
NMHLD	19	192	6	96
NMHLD	19	192	7	96
NMHLD	19	336	6	96
NMHLD	19	336	7	96
NMHLD	20	96	0	96
NMHLD	20	96	5	96
NMHLD	20	240	1	96
NMHLD	20	240	4	96
NMHLD	21	0	3	96
NMHLD	21	0	2	96
NMHLD	21	144	3	96
NMHLD	21	144	2	96
NMTAP	21	288	4
NMTAP	22	0	3
NMTAP	22	0	5
EXTAP	22	96	2
EXHLD	22	96	6	768
NMTTP	23	0	4	E	1	M1
BRTAP	24	96	4
BRHLD	24	192	5	96
BRHLD	24	192	4	96
NMTAP	25	0	3
NMTAP	25	0	6
NMTAP	25	96	3
NMTAP	25	96	6
NMTAP	25	192	1
NMTAP	25	192	4
NMTAP	25	288	1
NMTAP	25	288	4
NMTAP	26	0	2
NMTAP	26	96	2
NMTAP	26	144	3
NMTAP	26	240	3
NMTAP	26	288	2
NMTAP	27	0	1
NMTAP	27	0	4
NMTAP	27	96	1
NMTAP	27	96	4
NMTAP	27	192	3
NMTAP	27	192	6
NMTAP	27	288	3
NMTAP	27	288	6
NMTAP	28	0	5
NMTAP	28	96	5
NMTAP	28	144	4
NMTAP	28	240	4
NMTAP	28	288	5
NMTAP	29	0	3
NMTAP	29	0	6
NMTAP	29	96	3
NMTAP	29	96	6
NMTAP	29	192	1
NMTAP	29	192	4
NMTAP	29	288	1
NMTAP	29	288	4
NMTAP	30	0	2
NMTAP	30	96	2
NMTAP	30	144	3
NMTAP	30	240	3
NMTAP	30	288	1
NMHLD	31	0	0	96
NMHLD	31	0	4	96
NMHLD	31	192	6	96
NMHLD	31	192	2	96
BRTAP	32	0	3
BRTAP	32	0	5
BRTAP	32	144	2
BRTAP	32	144	4
BRTAP	32	288	0
BRTAP	32	288	6
NMTAP	33	0	1
NMTAP	33	96	1
NMTAP	33	192	0
NMTAP	33	192	5
NMTAP	33	288	0
NMTAP	33	288	5
NMTAP	34	0	6
NMTAP	34	96	6
NMTAP	34	144	7
NMTAP	34	240	7
NMTAP	34	288	6
NMTAP	35	0	0
NMTAP	35	0	5
NMTAP	35	96	0
NMTAP	35	96	5
NMTAP	35	192	2
NMTAP	35	192	7
NMTAP	35	288	2
NMTAP	35	288	7
NMTAP	36	0	1
NMTAP	36	96	1
NMTAP	36	144	0
NMTAP	36	240	0
NMTAP	36	288	2
NMHLD	37	0	7	144
NMHLD	37	144	5	144
NMHLD	37	288	4	144
NMHLD	38	48	2	144
NMTAP	38	192	3
NMTAP	38	288	3
EXTAP	39	0	2
EXTAP	39	0	4
EXTAP	39	144	6
EXTAP	39	144	4
BXHLD	39	288	1	96
BXHLD	39	288	4	96
BXTAP	40	48	0
BXTAP	40	48	5
BXTAP	40	192	0
BXTAP	40	192	5
NMTHO	41	0	4	768	E	0	M1
NMTHO	41	0	2	768	E	0	M1
NMTHO	41	0	3	768	E	0	M1
NMTHO	41	0	2	768	B	0	M1
NMTHO	41	0	3	768	B	0	M1
NMTAP	44	192	1
NMTAP	44	288	3
BXTAP	45	0	5
NMHLD	45	96	6	96
NMTAP	45	192	4
NMTAP	45	288	3
NMTAP	46	0	2
NMTAP	46	96	2
NMTAP	46	144	4
NMTAP	46	240	4
NMTAP	46	288	3
NMTAP	47	0	3
NMTAP	47	0	5
NMSTR	47	96	5
NMSCR	47	96	5	96	192	1
NMTAP	47	96	3
BRTAP	48	0	3
BRTAP	48	144	2
BRTAP	48	144	4
BRTAP	48	288	4
BRTAP	48	288	5
NMTAP	49	0	3
NMTAP	49	0	6
NMTAP	49	96	3
NMTAP	49	96	6
NMTAP	49	192	5
NMTAP	49	240	4
NMTAP	49	288	5
NMTAP	50	0	2
NMTAP	50	0	3
NMTAP	50	96	2
NMTAP	50	96	3
BRTAP	50	192	1
BRTAP	50	192	4
NMHLD	51	0	1	96
NMHLD	51	0	3	96
EXTAP	51	192	2
EXSTR	51	256	2
BRSCL	51	256	2	96	228	7
NMSI_	51	256	2	96	228	6
BRTAP	53	0	6
BRTAP	53	0	7
NMTAP	53	96	6
NMTAP	53	96	7
NMTAP	53	192	4
NMTAP	53	192	5
NMTAP	53	288	2
NMTAP	53	288	3
BRTAP	54	0	1
BRTAP	54	0	0
NMTAP	54	96	1
NMTAP	54	96	0
NMTAP	54	192	2
NMTAP	54	192	3
NMTAP	54	288	4
NMTAP	54	288	5
BRTAP	55	0	6
NMTAP	55	96	6
NMTAP	55	144	4
NMTAP	55	240	4
NMTAP	55	288	3
NMTAP	56	0	3
NMTAP	56	48	1
NMTAP	56	144	1
NMTAP	56	192	7
NMTAP	56	288	2
NMTAP	56	288	6
BRHLD	57	0	6	576
BRHLD	57	0	2	576
NMHLD	59	0	1	384
NMTHO	60	0	0	288	C	0	M1
EXSTR	61	0	0
BRSUR	61	0	0	96	144	4
CNSCR	61	240	4	0	144	6
NMTTP	62	0	7	B	1	M1
NMSTR	63	0	0
NMSI_	63	0	0	96	224	4
CNSI_	63	320	4	0	224	2
NMTTP	64	0	6	B	1	M1
CNSI_	64	160	2	0	224	5
NMHLD	65	0	7	192
BXHLD	65	192	6	192
NMHLD	66	0	4	192
NMHLD	66	192	3	192
NMHLD	67	0	1	192
NMHLD	67	192	0	192
NMTHO	68	0	0	192	C	0	M1
NMSTR	69	0	0
NMSCR	69	0	0	96	384	4
NMSTR	69	0	7
NMSUR	69	0	7	96	384	5
NMSTR	71	0	6
NMSCL	71	0	6	96	336	1
NMHLD	71	0	7	576
BRTAP	73	0	0
BRTAP	73	0	7
NMTAP	73	192	1
NMTAP	73	240	0
NMTAP	73	288	1
NMTAP	73	336	0
NMTAP	74	0	1
NMTAP	74	96	2
NMTAP	74	96	7
NMTAP	74	192	3
NMTAP	74	192	6
NMTAP	74	288	3
NMTAP	74	288	6
NMHLD	75	0	5	96
NMHLD	75	0	4	96
NMTAP	75	192	2
NMTAP	75	240	3
NMTAP	75	288	2
NMTAP	75	336	3
NMTAP	76	0	2
NMTAP	76	96	1
NMTAP	76	96	4
NMTAP	76	192	0
NMTAP	76	192	5
NMTAP	76	288	0
NMTAP	76	288	5
NMHLD	77	0	6	96
NMHLD	77	0	7	96
NMTAP	77	192	0
NMTAP	77	192	5
NMTAP	77	288	0
NMTAP	77	288	5
NMTAP	78	0	1
NMTAP	78	0	6
NMTAP	78	96	1
NMTAP	78	96	6
NMTAP	78	192	2
NMTAP	78	192	7
NMTAP	78	288	7
NMSTR	78	288	2
NMSI_	78	288	2	96	192	6
CNSCR	79	192	6	0	192	1
CNSI_	80	0	1	0	192	5
NMTTP	81	0	7	E	0	M1
NMTTP	81	0	7	A	0	M1
NMTTP	81	0	7	D	1	M1
NMTTP	82	0	0	A	0	M1
NMTTP	83	0	2	A	0	M1
NMTTP	83	0	1	A	0	M1
NMTTP	83	0	2	D	0	M1
NMTTP	83	0	2	E	0	M1
NMTTP	84	0	3	A	0	M1
NMTTP	85	0	5	E	0	M1
NMTTP	85	0	4	E	0	M1
NMTTP	85	0	4	B	0	M1
NMTTP	85	0	4	A	0	M1
NMTTP	85	0	5	D	0	M1
NMTAP	86	0	0
NMTAP	86	0	7
NMTTP	87	0	6	D	0	M1
NMTTP	87	0	6	E	0	M1
NMTTP	88	0	7	E	0	M1
NMTTP	88	0	7	B	0	M1
NMTTP	88	0	6	B	0	M1
NMTTP	88	0	7	A	0	M1
NMTTP	88	0	6	A	0	M1
NMTTP	88	0	7	D	0	M1
BXHLD	89	0	5	192
BXHLD	89	0	4	192
NMTAP	89	288	3
BXHLD	90	0	2	192
BXHLD	90	0	3	192
NMTAP	90	288	2
BXTAP	91	0	1
BXTAP	91	0	2
BXTAP	91	192	6
BXTAP	91	192	5
NMHLD	92	0	1	96
NMHLD	92	0	7	96
NMHLD	92	192	0	96
NMHLD	92	192	6	96
NMTAP	93	0	1
NMTAP	93	96	1
NMTAP	93	192	7
NMTAP	93	288	7
NMTAP	94	0	0
NMTAP	94	48	6
NMTAP	94	96	0
NMTAP	94	144	6
NMTAP	94	192	0
NMTAP	94	240	6
NMTAP	94	288	0
NMTAP	94	336	6
BXSTR	95	0	7
NMSI_	95	0	7	96	384	4
NMSSR	95	0	7	96	384	3
BRTAP	97	0	1
NMSTR	97	96	1
NMSI_	97	96	1	96	144	4
NMTAP	97	192	7
NMTAP	97	288	7
NMTAP	98	0	6
NMSTR	98	96	6
NMSI_	98	96	6	96	144	2
NMTAP	98	192	0
NMTAP	98	288	0
NMTAP	99	0	1
NMSTR	99	96	1
NMSI_	99	96	1	96	96	7
NMTAP	99	192	4
NMTAP	99	288	4
NMTAP	100	0	5
NMSTR	100	96	5
NMSI_	100	96	5	96	96	3
EXTAP	100	192	0
EXTAP	100	288	0
EXTAP	101	0	1
EXTAP	101	0	3
EXTAP	101	96	1
EXTAP	101	96	3
NMTAP	101	192	4
NMTAP	101	288	5
NMTAP	102	0	4
NMTAP	102	0	6
NMTAP	102	96	4
NMTAP	102	96	6
NMTAP	102	192	3
NMTAP	102	288	2
NMTAP	102	288	4
NMHLD	103	0	1	96
NMTAP	103	96	3
NMHLD	103	144	3	96
NMTAP	103	240	2
BRTAP	103	336	2
BRTAP	103	336	4
BRTAP	104	48	3
BRTAP	104	48	5
BRTAP	104	144	4
BRHLD	104	144	6	240
NMTAP	105	0	2
NMSTR	105	96	2
NMSI_	105	96	2	96	96	4
NMTAP	105	192	5
NMSTR	105	288	5
NMSI_	105	288	5	96	96	0
NMTAP	106	0	2
NMTAP	106	96	2
NMTAP	106	192	1
NMTAP	106	192	7
NMTAP	106	288	1
NMTAP	106	288	7
NMTAP	107	0	6
NMSTR	107	96	6
NMSI_	107	96	6	96	96	3
NMTAP	107	192	2
NMSTR	107	288	2
NMSI_	107	288	2	96	96	7
EXTAP	108	0	5
EXTAP	108	96	5
EXTAP	108	192	6
EXSTR	108	288	6
NMSXR	108	288	6	96	384	3
EXSTR	108	288	7
NMSXL	108	288	7	96	384	2
EXTAP	110	192	1
EXTAP	110	192	4
NMTAP	111	0	2
NMTAP	111	48	3
NMTAP	111	96	2
NMTAP	111	192	5
NMTAP	111	240	4
NMTAP	111	288	5
NMTAP	112	0	2
NMTAP	112	48	3
NMTAP	112	96	2
NMTAP	112	192	5
NMTAP	112	240	4
NMTAP	112	288	5
NMTTP	113	0	3	E	0	M1
NMTTP	113	48	2	E	0	M1
NMTTP	113	96	1	E	0	M1
NMTTP	113	144	0	E	0	M1
NMTTP	113	192	7	E	0	M1
NMTTP	113	240	6	E	0	M1
NMTTP	113	288	5	E	0	M1
NMTTP	113	336	4	E	0	M1
NMTTP	114	0	3	E	0	M1
NMTTP	114	48	2	E	0	M1
NMTTP	114	96	1	E	0	M1
NMTTP	114	144	0	E	0	M1
NMTTP	114	192	7	E	0	M1
NMTTP	114	240	6	E	0	M1
NMTTP	114	288	5	E	0	M1
NMTTP	114	336	4	E	0	M1
NMTHO	115	0	0	1152	C	0	M1
NMHLD	119	0	0	768
NMHLD	121	0	2	768
NMHLD	123	0	4	768
NMHLD	125	0	6	768
NMHLD	127	0	0	384
NMHLD	128	0	1	384
NMHLD	129	0	2	384
NMHLD	130	0	3	384
NMHLD	131	0	4	384
NMHLD	132	0	5	384
NMHLD	133	0	6	384
BRTAP	134	0	7
NMTAP	135	0	0
NMTAP	135	96	0
NMHLD	135	192	0	192
NMTAP	136	0	6
NMTAP	136	96	6
NMHLD	136	192	6	192
NMTAP	137	0	4
NMTAP	137	96	4
NMHLD	137	192	4	192
NMTAP	138	0	2
NMTAP	138	96	2
NMHLD	138	192	2	192
NMTAP	139	0	1
NMTAP	139	96	1
NMTAP	139	192	1
NMTAP	139	288	1
NMTAP	140	0	6
NMTAP	140	96	6
NMTAP	140	192	6
NMTAP	140	288	6
NMTAP	141	0	0
NMTAP	141	48	7
NMTAP	141	96	0
NMTAP	141	144	7
NMTAP	141	192	1
NMTAP	141	240	6
NMTAP	141	288	1
NMTAP	141	336	6
NMHLD	142	0	2	192
BRTAP	143	0	0
BRTAP	143	0	1
NMTAP	143	96	2
NMTAP	143	192	3
NMTAP	143	192	4
NMTAP	143	288	5
NMTAP	144	0	7
NMTAP	144	0	6
NMTAP	144	96	5
NMTAP	144	192	3
NMTAP	144	192	4
NMTAP	144	288	2
NMTAP	145	0	2
NMTAP	145	0	3
NMTAP	145	96	2
NMTAP	145	96	3
NMTAP	145	192	1
NMTAP	145	192	0
NMTAP	145	288	7
NMTAP	145	288	6
NMTAP	146	0	4
NMTAP	146	0	5
NMTAP	146	96	4
NMTAP	146	96	5
NMTAP	146	192	7
NMTAP	146	192	6
NMTAP	146	288	1
NMTAP	146	288	0
NMTAP	147	0	2
NMTAP	147	0	3
NMTAP	147	96	4
NMTAP	147	192	4
NMTAP	147	192	5
NMTAP	147	288	3
NMTAP	148	0	2
NMTAP	148	0	3
NMTAP	148	96	4
NMTAP	148	192	4
NMTAP	148	192	6
NMTAP	148	288	5
NMTAP	149	0	4
NMTAP	149	0	5
NMTAP	149	96	4
NMTAP	149	96	5
NMTAP	149	192	7
NMTAP	149	192	6
NMTAP	149	288	1
NMTAP	149	288	0
NMTAP	150	0	2
NMTAP	150	0	3
NMTAP	150	96	3
NMTAP	150	96	2
BRTAP	150	192	1
BRTAP	150	192	4
NMTAP	151	0	5
NMTAP	151	96	5
NMTAP	151	144	4
NMTAP	151	240	4
NMTAP	151	288	6
NMSTR	152	0	6
NMSI_	152	0	6	96	144	3
NMSTR	152	0	7
NMSI_	152	0	7	96	144	2
NMTAP	153	0	2
NMTAP	153	96	2
NMTAP	153	144	3
NMTAP	153	240	3
NMTAP	153	288	1
NMSTR	154	0	1
NMSI_	154	0	1	96	144	4
NMSTR	154	0	0
NMSI_	154	0	0	96	144	5
NMHLD	155	0	6	96
NMHLD	155	96	4	96
NMHLD	155	192	2	96
NMHLD	155	288	4	96
NMHLD	156	0	6	96
NMHLD	156	96	0	96
NMHLD	156	192	2	96
NMHLD	156	288	6	96
BRTAP	157	0	0
NMTAP	157	192	1
NMTAP	157	192	5
NMSTR	157	288	1
BRSI_	157	288	1	96	96	4
NMSTR	157	288	5
BRSI_	157	288	5	96	96	0
BRTAP	159	0	7
BRTAP	159	0	6
NMTAP	159	96	5
NMTAP	159	192	1
NMTAP	159	192	0
NMTAP	159	288	2
NMTAP	160	0	1
NMTAP	160	0	3
NMTAP	160	96	1
NMTAP	160	96	3
NMTAP	160	192	4
NMTAP	160	192	6
NMTAP	160	288	4
NMTAP	160	288	6
NMTAP	161	0	5
NMTAP	161	48	4
NMTAP	161	96	5
NMTAP	161	192	7
NMTAP	161	192	6
NMTAP	161	288	7
NMTAP	161	288	6
NMTAP	162	0	2
NMTAP	162	48	3
NMTAP	162	96	2
NMTAP	162	192	1
NMTAP	162	192	0
NMTAP	162	288	1
NMTAP	162	288	0
NMTAP	163	0	2
NMTAP	163	0	3
NMTAP	163	96	4
NMTAP	163	96	6
NMTAP	163	192	7
NMTAP	163	192	6
NMTAP	163	288	7
NMTAP	163	288	6
NMTAP	164	0	4
NMTAP	164	0	5
NMTAP	164	96	1
NMTAP	164	96	3
NMTAP	164	192	1
NMTAP	164	192	0
NMTAP	164	288	1
NMTAP	164	288	0
NMTAP	165	0	7
NMSTR	165	96	7
NMSI_	165	96	7	96	96	3
NMTAP	165	192	0
NMSTR	165	288	0
NMSI_	165	288	0	96	96	4
NMTAP	166	0	5
NMTAP	166	96	5
BRTAP	166	192	6
BXTAP	166	192	3
NMTAP	167	0	5
NMTAP	167	48	4
NMTAP	167	96	5
NMTAP	167	144	4
NMTAP	167	192	5
NMTAP	167	288	3
NMTAP	167	288	4
NMTAP	168	0	2
NMTAP	168	48	3
NMTAP	168	96	2
NMTAP	168	144	3
BRTAP	168	192	1
NMTAP	169	0	1
NMTAP	169	48	0
NMTAP	169	96	1
NMTAP	169	144	0
NMTAP	169	192	1
NMTAP	169	288	0
NMTAP	169	288	7
NMTAP	170	0	6
NMTAP	170	48	7
NMTAP	170	96	6
NMTAP	170	144	7
BRTAP	170	192	5
NMHLD	171	0	5	96
NMHLD	171	0	4	96
NMHLD	171	144	6	96
NMHLD	171	144	7	96
BRTAP	171	288	0
BRTAP	171	288	5
NMHLD	172	0	3	96
NMHLD	172	0	2	96
NMHLD	172	144	0	96
NMHLD	172	144	1	96
BRTAP	172	288	2
BRTAP	172	288	7
NMTAP	173	0	3
NMSTR	173	96	3
NMSI_	173	96	3	96	96	7
NMTAP	173	192	5
NMSTR	173	288	5
NMSI_	173	288	5	96	96	0
NMTAP	174	0	1
NMTAP	174	96	1
BRTAP	174	192	2
BXTAP	174	192	7
NMTAP	175	0	1
NMTAP	175	48	0
NMTAP	175	144	3
NMTAP	175	144	2
NMTAP	175	240	4
NMTAP	175	240	5
NMTAP	175	336	3
NMTAP	175	336	6
BRTAP	176	0	3
BRTAP	176	0	6
NMTAP	176	192	6
NMTAP	176	240	7
NMTAP	176	336	4
NMTAP	176	336	5
NMTAP	177	48	2
NMTAP	177	48	3
NMTAP	177	144	4
NMTAP	177	144	1
BRTAP	177	192	1
BRTAP	177	192	4
NMTAP	178	0	1
NMTAP	178	48	3
NMTAP	178	144	3
NMTAP	178	192	1
NMTAP	178	288	6
NMTAP	178	336	4
NMTAP	179	48	4
NMTAP	179	96	6
NMTAP	179	192	2
NMTAP	179	240	3
NMTAP	179	336	5
NMTAP	180	0	4
NMTAP	180	96	1
NMTAP	180	144	0
NMTAP	180	240	6
NMTAP	180	288	7
BRTAP	181	0	0
BRTAP	181	0	5
BRTAP	181	96	5
BRSTR	181	96	0
NMSCR	181	96	0	96	192	4
NMTTP	182	0	7	B	1	M1
NMTTP	182	0	6	B	0	M1
NMTTP	182	0	7	E	0	M1
NMTTP	182	0	5	B	0	M1

T_REC_TAP	414
T_REC_BRK	50
T_REC_XTP	17
T_REC_BXX	14
T_REC_HLD	76
T_REC_XHO	1
T_REC_BHO	6
T_REC_BXH	7
T_REC_STR	27
T_REC_BST	1
T_REC_XST	4
T_REC_XBS	2
T_REC_TTP	46
T_REC_THO	8
T_REC_SLD	32
T_REC_BSL	4
T_REC_ALL	709
T_NUM_TAP	508
T_NUM_BRK	84
T_NUM_HLD	85
T_NUM_SLD	32
T_NUM_ALL	709
T_JUDGE_TAP	575
T_JUDGE_HLD	253
T_JUDGE_SLD	36
T_JUDGE_ALL	864
TTM_EACHPAIRS	164
TTM_SCR_TAP	254000
TTM_SCR_BRK	218400
TTM_SCR_HLD	85000
TTM_SCR_SLD	48000
TTM_SCR_ALL	605400
TTM_SCR_S	579100
TTM_SCR_SS	597000
TTM_RAT_ACV	10140

