VERSION	0.00.00	1.05.00
FES_MODE	0
BPM_DEF	314.000	314.000	314.000	314.000
MET_DEF	4	4
RESOLUTION	384
CLK_DEF	384
COMPATIBLE_CODE	MA2
GENERATED_BY	MuConvert v0.2.0-beta.2+40bb110

BPM	0	0	314.000
MET	0	0	4	4

NMTAP	3	0	7
NMTAP	4	0	7
NMTAP	5	0	6
NMTAP	6	0	6
NMTAP	7	0	5
NMTAP	8	0	5
NMTAP	9	0	3
NMTAP	9	0	4
NMTAP	10	0	4
NMTAP	10	0	3
NMTAP	11	0	3
NMTAP	12	0	3
NMTAP	13	0	2
NMTAP	14	0	2
NMTAP	15	0	1
NMTAP	16	0	1
NMTAP	17	0	0
NMTAP	17	0	7
NMTAP	18	0	7
NMTAP	18	0	0
NMSTR	19	0	0
NMSXL	19	0	0	96	1440	3
NMTAP	25	0	2
NMTAP	25	192	2
NMTAP	26	0	1
NMTAP	26	192	1
NMTAP	27	0	0
NMTAP	27	192	0
NMTAP	28	0	7
NMTAP	28	0	6
NMTAP	29	0	5
NMTAP	29	192	5
NMTAP	30	0	6
NMTAP	30	192	6
NMTAP	31	0	7
NMTAP	31	192	7
NMTAP	32	0	0
NMTAP	32	0	1
NMTAP	33	0	1
NMTAP	33	192	1
NMTAP	34	0	2
NMTAP	34	192	2
NMTAP	35	0	3
NMTAP	35	192	3
NMTAP	36	0	4
NMTAP	36	0	5
NMTAP	37	0	6
NMTAP	37	192	6
NMTAP	38	0	5
NMTAP	38	192	5
NMTAP	39	0	4
NMTAP	39	192	4
NMTAP	40	0	3
NMTAP	40	0	2
NMTAP	41	0	2
NMTAP	41	192	2
NMTAP	42	0	1
NMTAP	42	192	1
NMTAP	43	0	0
NMTAP	43	192	0
NMTAP	44	0	7
NMTAP	44	0	6
NMTAP	44	192	6
NMTAP	44	192	7
NMTAP	45	0	5
NMTAP	45	192	5
NMTAP	46	0	6
NMTAP	46	192	6
NMTAP	47	0	7
NMTAP	47	192	7
BXTAP	48	0	0
BXTAP	48	0	1
NMTAP	49	0	1
NMTAP	49	192	1
NMTAP	50	0	2
NMTAP	50	192	2
NMTAP	51	0	3
NMTAP	51	192	3
NMTAP	52	0	4
NMTAP	52	0	5
NMTAP	52	192	5
NMTAP	52	192	4
NMTAP	53	0	6
NMTAP	53	192	6
NMTAP	54	0	5
NMTAP	54	192	5
NMTAP	55	0	4
NMTAP	55	192	4
NMTAP	56	0	3
NMTAP	56	0	2
NMHLD	57	0	2	384
NMHLD	58	0	3	384
NMHLD	59	0	4	384
NMTAP	60	0	5
NMHLD	61	0	5	384
NMHLD	62	0	4	384
NMHLD	63	0	3	384
NMTAP	64	0	2
NMHLD	65	0	1	384
NMHLD	66	0	2	384
NMHLD	67	0	4	384
NMTAP	68	0	5
NMHLD	69	0	6	384
NMHLD	70	0	5	384
NMHLD	71	0	4	384
NMTAP	72	0	3
NMTTP	73	0	4	B	0	L1
NMTTP	73	192	5	B	0	L1
NMTTP	74	0	6	B	0	L1
NMTTP	75	0	3	B	0	L1
NMTTP	75	192	2	B	0	L1
NMTTP	76	0	1	B	0	L1
NMTTP	77	0	6	B	0	L1
NMTTP	77	192	7	B	0	L1
NMTTP	78	0	0	B	0	L1
NMTTP	78	192	1	B	0	L1
NMTTP	79	0	0	C	1	L1
NMTAP	81	0	1
NMTAP	81	192	1
NMTAP	82	0	1
NMTAP	82	0	0
NMTAP	83	0	2
NMTAP	83	192	2
NMTAP	84	0	2
NMTAP	84	0	3
NMTAP	85	0	4
NMTAP	85	192	4
NMTAP	86	0	4
NMTAP	86	0	5
NMTAP	87	0	6
NMTAP	87	0	7
NMTAP	87	192	6
NMTAP	87	192	7
NMTAP	88	0	6
NMTAP	88	0	7
NMTAP	89	0	6
NMTAP	89	192	6
NMTAP	90	0	6
NMTAP	90	0	7
NMTAP	91	0	5
NMTAP	91	192	5
NMTAP	92	0	5
NMTAP	92	0	4
NMTAP	93	0	3
NMTAP	93	192	3
NMTAP	94	0	3
NMTAP	94	0	2
NMHLD	95	0	0	384
NMHLD	95	0	1	384
NMTAP	97	0	1
NMTAP	97	192	1
NMTAP	98	0	1
NMTAP	98	0	0
NMTAP	98	192	1
NMTAP	98	192	0
NMTAP	99	0	2
NMTAP	99	192	2
NMTAP	100	0	2
NMTAP	100	0	3
NMTAP	100	192	2
NMTAP	100	192	3
NMTAP	101	0	4
NMTAP	101	192	4
NMTAP	102	0	4
NMTAP	102	0	5
NMTAP	102	192	4
NMTAP	102	192	5
NMTAP	103	0	6
NMTAP	103	0	7
NMTAP	103	192	6
NMTAP	103	192	7
NMTAP	104	0	6
NMTAP	104	0	7
NMTAP	105	0	6
NMTAP	105	192	6
NMTAP	106	0	6
NMTAP	106	0	7
NMTAP	106	192	6
NMTAP	106	192	7
NMTAP	107	0	5
NMTAP	107	192	5
NMTAP	108	0	4
NMTAP	108	0	5
NMTAP	108	192	4
NMTAP	108	192	5
NMTAP	109	0	3
NMTAP	109	192	3
NMTAP	110	0	2
NMTAP	110	0	3
NMTAP	110	192	2
NMTAP	110	192	3
NMTAP	111	0	0
NMTAP	111	0	1
NMTAP	111	192	0
NMTAP	111	192	1
NMTAP	112	0	1
NMTAP	112	0	0
NMTAP	113	0	7
NMTAP	113	0	0
NMTAP	113	192	7
NMTAP	113	192	0
NMTAP	114	0	1
NMTAP	114	0	6
NMTAP	114	192	6
NMTAP	114	192	1
BRTAP	115	0	2
BRTAP	115	0	5
NMSTR	119	0	5
NMSI_	119	0	5	96	480	2
NMSTR	121	0	1
NMSI_	121	0	1	96	480	4
NMSTR	123	0	6
NMSI_	123	0	6	96	480	3
NMTAP	125	0	2
NMTAP	126	0	1
NMTAP	126	0	3
NMSTR	127	0	2
NMSI_	127	0	2	96	480	7
NMSTR	129	0	6
NMSI_	129	0	6	96	480	2
NMSTR	131	0	0
NMSI_	131	0	0	96	480	4
NMTAP	133	0	5
NMTAP	134	0	5
NMTAP	134	0	4
NMTAP	135	0	6
NMTAP	135	96	6
NMTAP	135	192	6
NMTAP	136	0	6
NMTAP	136	0	7
NMTAP	137	0	5
NMTAP	137	96	5
NMTAP	137	192	5
NMTAP	138	0	4
NMTAP	138	0	5
NMTAP	139	0	3
NMTAP	139	96	3
NMTAP	139	192	3
NMTAP	140	0	2
NMTAP	140	0	3
NMTAP	141	0	1
NMTAP	141	96	1
NMTAP	141	192	1
NMTAP	142	0	0
NMTAP	142	0	1
NMTAP	143	0	2
NMTAP	143	96	2
NMTAP	143	192	2
NMTAP	144	0	1
NMTAP	144	96	1
NMTAP	144	192	1
NMTAP	145	0	0
NMTAP	145	96	0
NMTAP	145	192	0
NMTAP	146	0	6
NMTAP	146	0	7
NMTAP	146	192	6
NMTAP	146	192	7
NMTAP	147	0	5
NMTAP	147	96	5
NMTAP	147	192	5
NMTAP	148	0	6
NMTAP	148	96	6
NMTAP	148	192	6
NMTAP	149	0	7
NMTAP	149	96	7
NMTAP	149	192	7
NMTAP	150	0	0
NMTAP	150	0	1
NMTAP	151	0	1
NMTAP	151	96	1
NMTAP	151	192	1
NMTAP	152	0	2
NMTAP	152	96	2
NMTAP	152	192	2
NMTAP	153	0	3
NMTAP	153	96	3
NMTAP	153	192	3
NMTAP	154	0	4
NMTAP	154	0	5
NMTAP	154	192	5
NMTAP	154	192	4
NMTAP	155	0	6
NMTAP	155	96	6
NMTAP	155	192	6
NMTAP	156	0	5
NMTAP	156	96	5
NMTAP	156	192	5
NMTAP	157	0	4
NMTAP	157	96	4
NMTAP	157	192	4
BRTAP	158	0	2
BRTAP	158	0	3
NMTAP	159	0	2
NMTAP	159	96	2
NMTAP	159	192	2
NMTAP	160	0	0
NMTAP	160	0	1
NMTAP	160	96	1
NMTAP	160	96	0
NMTAP	160	192	0
NMTAP	160	192	1
NMTAP	161	0	7
NMTAP	161	96	7
NMTAP	161	192	7
NMTAP	162	0	6
NMTAP	162	0	7
NMTAP	163	0	5
NMTAP	163	96	5
NMTAP	163	192	5
NMTAP	164	0	6
NMTAP	164	0	7
NMTAP	164	96	7
NMTAP	164	96	6
NMTAP	164	192	6
NMTAP	164	192	7
NMTAP	165	0	0
NMTAP	165	96	0
NMTAP	165	192	0
NMTAP	166	0	0
NMTAP	166	0	1
NMTAP	167	0	1
NMTAP	167	96	1
NMTAP	167	192	1
NMTAP	168	0	2
NMTAP	168	0	3
NMTAP	168	96	2
NMTAP	168	96	3
NMTAP	168	192	2
NMTAP	168	192	3
NMTAP	169	0	4
NMTAP	169	96	4
NMTAP	169	192	4
NMTAP	170	0	4
NMTAP	170	0	5
NMTAP	171	0	6
NMTAP	171	96	6
NMTAP	171	192	6
NMTAP	172	0	4
NMTAP	172	0	5
NMTAP	172	96	4
NMTAP	172	96	5
NMTAP	172	192	4
NMTAP	172	192	5
NMTAP	173	0	3
NMTAP	173	96	3
NMTAP	173	192	3
NMTAP	174	0	3
NMTAP	174	0	2
NMTAP	175	0	1
NMTAP	175	96	1
NMTAP	175	192	1
NMTAP	176	0	0
NMTAP	176	0	1
NMTAP	176	192	2
NMTAP	176	288	2
NMTAP	177	0	2
NMTAP	177	192	2
NMTAP	177	192	3
NMTAP	178	0	4
NMTAP	178	96	4
NMTAP	178	192	4
NMTAP	179	0	4
NMTAP	179	0	5
NMTAP	179	192	6
NMTAP	179	288	6
NMTAP	180	0	6
NMTAP	180	192	6
NMTAP	180	192	7
NMTAP	181	0	0
NMTAP	181	96	0
NMTAP	181	192	0
BRTAP	182	0	1
BRTAP	182	0	7

T_REC_TAP	327
T_REC_BRK	6
T_REC_XTP	0
T_REC_BXX	2
T_REC_HLD	14
T_REC_XHO	0
T_REC_BHO	0
T_REC_BXH	0
T_REC_STR	7
T_REC_BST	0
T_REC_XST	0
T_REC_XBS	0
T_REC_TTP	11
T_REC_THO	0
T_REC_SLD	7
T_REC_BSL	0
T_REC_ALL	374
T_NUM_TAP	345
T_NUM_BRK	8
T_NUM_HLD	14
T_NUM_SLD	7
T_NUM_ALL	374
T_JUDGE_TAP	353
T_JUDGE_HLD	56
T_JUDGE_SLD	7
T_JUDGE_ALL	416
TTM_EACHPAIRS	80
TTM_SCR_TAP	172500
TTM_SCR_BRK	20800
TTM_SCR_HLD	14000
TTM_SCR_SLD	10500
TTM_SCR_ALL	217800
TTM_SCR_S	210500
TTM_SCR_SS	217000
TTM_RAT_ACV	10036

