VERSION	0.00.00	1.05.00
FES_MODE	0
BPM_DEF	185.000	185.000	185.000	185.000
MET_DEF	4	4
RESOLUTION	384
CLK_DEF	384
COMPATIBLE_CODE	MA2

BPM	0	0	185.000
MET	0	0	4	4

NMTTP	2	0	3	E	0	M1
NMTHO	2	0	4	384	E	0	M1
NMTHO	2	144	1	240	B	0	M1
NMTTP	3	288	2	B	0	M1
NMTTP	3	288	3	E	0	M1
NMTAP	4	0	5
NMTAP	4	48	4
NMHLD	4	96	3	240
NMTTP	4	336	4	E	0	M1
NMTTP	4	360	5	E	0	M1
NMTTP	5	0	6	E	0	M1
NMTAP	5	192	5
NMTAP	5	240	4
NMTAP	5	288	3
NMTAP	5	336	2
NMTTP	6	0	5	E	0	M1
NMTTP	6	48	4	E	0	M1
NMTTP	6	96	3	E	0	M1
NMTHO	6	144	2	432	E	0	M1
NMTTP	7	0	3	B	0	M1
NMTTP	7	12	4	E	0	M1
NMTAP	8	0	1
NMTAP	8	48	0
NMTAP	8	96	7
NMHLD	8	144	6	192
NMHLD	8	336	4	96
NMTAP	9	48	6
NMTAP	9	96	5
NMTAP	9	144	4
NMTAP	9	192	5
NMTAP	9	240	4
NMTAP	9	288	3
NMTAP	9	336	2
NMSTR	10	0	1
NMSCL	10	0	1	96	144	5
NMHLD	10	0	3	144
NMTAP	10	240	4
NMTAP	10	288	4
NMHLD	11	0	4	144
NMSTR	11	0	6
NMSCR	11	0	6	96	144	2
NMTAP	11	240	3
NMTAP	11	288	3
NMTAP	12	0	1
NMTAP	12	0	3
NMSTR	12	96	2
NMSCR	12	96	2	96	96	5
NMTAP	12	240	7
NMTAP	12	288	7
NMTAP	13	0	4
NMTAP	13	0	6
NMSTR	13	96	5
NMSCL	13	96	5	96	96	2
NMTAP	13	240	0
NMTAP	13	288	0
NMTAP	14	0	1
NMTAP	14	48	1
NMTAP	14	96	3
NMTAP	14	144	3
NMTAP	14	192	4
NMTAP	14	240	4
NMTAP	14	288	6
NMTAP	14	336	6
NMTAP	15	0	4
NMTAP	15	48	4
NMTAP	15	96	7
NMTAP	15	144	7
NMTTP	15	192	6	E	0	M1
NMTTP	15	204	5	B	0	M1
NMTTP	15	216	4	B	0	M1
NMTTP	15	228	4	E	0	M1
EXTAP	15	288	0
NMHLD	16	0	0	48
NMHLD	16	0	1	48
NMHLD	16	72	0	48
NMHLD	16	72	7	48
NMTAP	16	144	6
NMSTR	16	144	7
NMSI_	16	144	7	96	48	1
NMSTR	16	240	5
NMSI_	16	240	5	96	48	7
NMTAP	16	336	4
BRSTR	17	0	4
NMSCL	17	0	4	96	144	7
NMTTP	17	240	4	B	0	M1
NMTTP	17	240	5	B	0	M1
NMTTP	17	240	5	E	1	M1
EXTAP	18	0	0
BXTAP	18	0	6
NMTAP	18	192	6
NMHLD	18	192	7	96
NMHLD	18	288	0	96
NMSTR	19	0	1
NMSI_	19	0	1	96	96	5
NMTAP	19	96	7
CNSI_	19	192	5	0	96	3
NMTAP	19	192	6
CNSI_	19	288	3	0	96	7
BXHLD	20	0	5	192
NMHLD	20	192	4	96
NMHLD	20	288	3	96
NMSTR	21	0	2
NMSI_	21	0	2	96	96	7
NMTAP	21	96	3
NMTAP	21	192	4
CNSV_	21	192	7	0	96	4
NMTAP	21	288	5
NMTAP	22	0	5
NMTAP	22	24	4
NMTAP	22	48	5
NMTAP	22	72	4
NMTAP	22	96	5
NMTAP	22	120	4
NMTAP	22	144	5
NMTAP	22	168	4
NMSTR	22	192	6
NMSI_	22	192	6	96	48	2
NMTAP	22	216	4
NMTAP	22	240	6
NMTAP	22	264	4
NMSTR	23	0	1
NMSI_	23	0	1	96	48	5
NMTAP	23	24	3
NMTAP	23	48	1
NMTAP	23	72	3
NMTAP	23	192	7
NMTAP	23	240	0
NMTAP	23	240	7
EXSTR	23	288	1
NMSCR	23	288	1	96	288	0
NMSUL	23	288	1	96	72	5
EXTAP	23	288	6
CNSCL	24	72	5	0	24	4
CNSUL	24	96	4	0	192	0
NMTTP	25	0	2	B	0	M1
NMTTP	25	0	3	B	0	M1
NMTTP	25	0	3	E	0	M1
NMTTP	25	0	5	B	0	M1
NMTTP	25	0	6	B	0	M1
NMTTP	25	0	6	E	0	M1
NMSTR	25	288	7
NMSI_	25	288	7	96	48	3
BRTAP	26	0	0
BRTAP	26	0	7
NMHLD	26	96	2	48
NMHLD	26	192	2	48
NMHLD	26	288	2	48
NMHLD	26	288	3	48
NMHLD	27	0	2	48
NMHLD	27	0	3	48
NMHLD	27	96	1	48
NMHLD	27	96	2	48
NMHLD	27	192	0	48
NMHLD	27	192	2	48
NMHLD	27	288	0	48
NMHLD	27	288	2	48
BXHLD	28	0	1	48
NMSTR	28	0	7
NMSUL	28	0	7	96	96	3
NMHLD	28	96	1	48
NMHLD	28	192	1	48
NMHLD	28	288	1	48
NMHLD	28	288	3	48
NMHLD	29	0	1	48
NMHLD	29	0	2	48
BXSTR	29	96	0
NMSCL	29	96	0	96	96	5
BXTAP	29	96	3
NMTAP	29	192	4
NMTAP	29	240	4
NMTAP	29	288	4
BRTAP	30	0	4
BRTAP	30	0	5
EXTAP	30	48	6
NMTAP	30	96	0
EXTAP	30	144	6
NMTAP	30	192	7
EXTAP	30	240	6
NMTAP	30	288	5
EXTAP	30	336	6
NMTAP	31	0	4
NMTAP	31	0	5
EXTAP	31	48	6
NMTAP	31	96	0
NMTAP	31	96	7
EXTAP	31	144	6
NMTAP	31	192	3
NMTAP	31	192	5
EXTAP	31	240	6
NMTAP	31	288	5
NMTAP	31	288	7
NMTAP	31	336	0
BRTAP	32	0	6
BRTAP	32	0	7
EXTAP	32	48	5
NMTAP	32	96	3
NMTAP	32	96	4
NMSTR	32	144	5
NMSI_	32	144	5	96	48	7
NMSTR	32	192	5
NMSI_	32	192	5	96	48	3
BXTAP	33	0	6
NMTAP	33	48	6
BXTAP	33	72	4
NMTAP	33	120	4
BXTAP	33	144	3
NMTAP	33	192	3
BXTAP	33	216	1
NMTAP	33	264	1
BXTAP	33	288	7
NMTAP	33	336	0
NMTAP	33	336	6
BRTAP	34	0	1
BRTAP	34	0	5
NMTAP	34	96	2
NMTAP	34	144	2
NMTAP	34	168	3
NMTAP	34	192	2
NMTAP	34	240	2
NMTAP	34	264	3
NMTAP	34	288	1
NMTAP	34	336	0
NMTAP	34	336	7
NMTAP	35	0	6
NMTAP	35	48	5
NMTAP	35	72	4
NMTAP	35	96	5
NMTAP	35	144	5
NMTAP	35	168	4
NMTAP	35	192	5
NMTAP	35	240	2
NMTAP	35	264	3
NMTAP	35	288	2
NMTAP	35	336	1
NMTAP	35	336	4
BRTAP	36	0	1
BRTAP	36	0	4
NMTAP	36	48	2
NMTAP	36	72	3
NMTAP	36	96	2
NMTAP	36	144	2
NMTAP	36	168	3
NMTAP	36	192	1
NMTAP	36	240	1
NMTAP	36	264	0
NMSTR	36	288	1
NMSI_	36	288	1	96	48	4
NMTAP	36	336	2
BXSTR	37	0	7
NMSI_	37	0	7	96	48	2
BXSTR	37	96	3
NMSI_	37	96	3	96	48	6
BXSTR	37	192	5
NMSI_	37	192	5	96	48	0
BXTAP	37	288	4
BRTAP	38	0	1
BRTAP	38	0	7
NMTAP	38	96	2
NMTAP	38	144	2
NMTAP	38	168	3
NMTAP	38	192	2
NMTAP	38	240	2
NMTAP	38	264	3
NMSTR	38	288	1
NMSI_	38	288	1	96	48	4
NMTAP	38	336	0
BRTAP	39	0	1
NMTAP	39	0	7
NMTAP	39	96	5
NMTAP	39	144	5
NMTAP	39	168	4
NMTAP	39	192	5
NMTAP	39	240	5
NMTAP	39	264	4
NMSTR	39	288	6
NMSI_	39	288	6	96	48	3
NMTAP	39	336	7
NMTAP	40	0	0
BRTAP	40	0	6
NMTAP	40	96	1
NMTAP	40	96	2
NMTAP	40	144	1
NMTAP	40	144	2
NMTAP	40	192	0
NMTAP	40	192	7
NMTAP	40	240	0
NMTAP	40	240	7
NMSTR	40	288	5
BRSI_	40	288	5	96	48	0
NMSTR	40	288	6
BRSI_	40	288	6	96	48	3
NMTTP	41	0	5	A	0	M1
NMTTP	41	0	6	A	0	M1
NMTTP	41	0	6	D	1	M1
NMTAP	41	192	1
NMTAP	41	192	7
NMTAP	41	216	2
NMTAP	41	216	6
NMTAP	41	240	3
NMTAP	41	240	5
BRTAP	41	288	1
BRTAP	41	288	7
NMSTR	42	0	6
NMSCR	42	0	6	96	96	2
NMSTR	42	96	2
NMSCL	42	96	2	96	96	6
NMTAP	42	192	4
NMTAP	42	288	3
NMTAP	42	336	3
NMSTR	43	0	2
NMSI_	43	0	2	96	48	7
NMTAP	43	0	4
NMTAP	43	96	6
NMSTR	43	144	6
NMSI_	43	144	6	96	48	3
NMTAP	43	240	6
NMTAP	43	240	7
NMTAP	43	336	2
NMSTR	44	0	1
NMSCL	44	0	1	96	96	5
NMTAP	44	0	3
NMSTR	44	96	5
NMSCR	44	96	5	96	96	1
NMTAP	44	192	3
NMTAP	44	288	4
NMTAP	44	336	4
NMTAP	45	0	3
NMTAP	45	0	5
NMTAP	45	48	4
NMSTR	45	48	6
NMSI_	45	48	6	96	48	2
NMTAP	45	96	7
NMSTR	45	144	0
NMSCL	45	144	0	96	48	5
BRTAP	45	144	6
BRTAP	45	240	0
NMTAP	45	240	1
NMTAP	45	336	2
NMSTR	46	0	1
NMSI_	46	0	1	96	48	4
NMSTR	46	0	3
NMSI_	46	0	3	96	48	7
NMTAP	46	96	1
NMTAP	46	96	3
NMTAP	46	192	5
NMTAP	46	192	6
NMSTR	46	240	5
NMSUL	46	240	5	96	96	7
NMTAP	46	240	6
NMTAP	46	336	7
NMTAP	47	48	5
NMHLD	47	96	5	96
NMTAP	47	192	7
NMTAP	47	240	6
NMSTR	47	288	5
NMSI_	47	288	5	96	48	0
NMTAP	47	336	4
NMTAP	48	0	3
NMTAP	48	96	1
NMSTR	48	144	1
NMSCR	48	144	1	96	48	4
NMTAP	48	240	0
NMTAP	48	240	1
NMTAP	48	336	5
NMHLD	49	0	6	48
NMHLD	49	72	6	48
NMHLD	49	144	5	48
NMHLD	49	144	7	48
NMHLD	49	216	0	48
NMHLD	49	216	4	48
BXTAP	49	288	1
NMSTR	49	288	3
BRSCR	49	288	3	96	192	7
NMTAP	49	336	2
BXTAP	50	0	1
CNSUR	50	192	7	0	144	2
BRTAP	51	0	0
NMTAP	51	48	5
NMTAP	51	72	4
NMTAP	51	120	2
NMTAP	51	144	3
NMTAP	51	192	6
NMTAP	51	216	7
EXTAP	51	264	1
EXTAP	51	264	5
EXSTR	51	288	1
BRSV_	51	288	1	96	48	4
EXSTR	51	288	5
BRSI_	51	288	5	96	48	0
BRTAP	52	0	1
BRTAP	52	0	5
EXTAP	52	96	3
NMTAP	52	96	7
NMTAP	52	144	6
NMTAP	52	192	4
NMTAP	52	192	5
NMTAP	52	240	3
NMTAP	52	288	2
NMTAP	52	288	4
NMTAP	52	336	1
NMSTR	53	0	0
NMSLL	53	0	0	96	96	4
NMTAP	53	0	1
NMTAP	53	96	3
NMTAP	53	144	3
NMTAP	53	192	2
NMTAP	53	240	2
NMTAP	53	288	1
NMTAP	53	288	3
BRSTR	54	0	0
BRSI_	54	0	0	96	48	5
NMTAP	54	48	0
NMSTR	54	96	3
NMSI_	54	96	3	96	48	7
NMTAP	54	144	3
NMSTR	54	192	1
NMSI_	54	192	1	96	48	3
NMTAP	54	240	1
NMSTR	54	288	6
NMSI_	54	288	6	96	48	2
NMTAP	54	336	6
BRTAP	55	0	7
NMTAP	55	96	1
NMTAP	55	120	0
NMTAP	55	144	1
NMTAP	55	168	0
NMTAP	55	192	3
NMTAP	55	216	4
NMTAP	55	240	3
NMTAP	55	264	4
NMTAP	55	288	7
NMTAP	55	312	6
NMTAP	55	336	7
NMTAP	55	360	6
NMHLD	56	0	0	32
BXHLD	56	0	5	32
BXHLD	56	64	1	32
NMHLD	56	64	6	32
NMHLD	56	128	2	32
BXHLD	56	128	7	32
NMTAP	56	192	6
NMTAP	56	224	6
NMTAP	56	256	4
NMTAP	56	288	4
NMTAP	56	320	5
NMTAP	56	352	5
NMTTP	57	0	6	A	0	M1
NMTTP	57	0	7	E	1	M1
NMTTP	57	0	7	A	0	M1
NMTTP	57	0	7	D	0	M1
NMTTP	57	64	3	A	0	M1
NMTTP	57	64	4	E	1	M1
NMTTP	57	64	4	A	0	M1
NMTTP	57	64	4	D	0	M1
NMTHO	57	128	0	160	A	0	M1
NMTHO	57	128	1	160	A	0	M1
NMTHO	57	128	1	160	D	0	M1
EXTAP	58	0	2
EXTAP	58	0	7
EXTAP	58	12	3
EXTAP	58	12	6
EXTAP	58	24	4
EXTAP	58	24	5
NMTHO	59	0	4	192	E	0	M1
NMTAP	60	0	2
NMHLD	60	0	3	1152
NMTHO	61	0	4	192	E	0	M1
NMTTP	62	0	2	E	0	M1
NMTTP	62	12	2	B	0	M1
NMTTP	62	192	0	B	0	M1
NMTTP	62	192	1	E	0	M1
NMHLD	63	0	7	192
NMHLD	63	192	5	192
NMSTR	64	0	4
NMSI_	64	0	4	96	96	0
CNSCL	64	192	0	0	48	7
CNSI_	64	240	7	0	144	3
NMSTR	65	0	4
NMSI_	65	0	4	96	96	0
CNSCL	65	192	0	0	48	7
CNSI_	65	240	7	0	144	3
NMHLD	66	0	1	96
NMTAP	66	96	3
NMSTR	66	144	2
NMSI_	66	144	2	96	48	4
NMTAP	66	240	7
NMHLD	66	288	6	96
NMTAP	67	0	7
NMHLD	67	48	5	96
NMTAP	67	144	4
NMSTR	67	192	3
BRSI_	67	192	3	96	48	7
NMTAP	67	288	4
NMHLD	68	0	6	96
NMTAP	68	96	7
NMSTR	68	144	0
NMSI_	68	144	0	96	48	2
NMTAP	68	240	3
NMHLD	68	288	3	96
NMTAP	69	0	1
NMHLD	69	48	0	96
NMTAP	69	144	1
NMHLD	69	192	2	96
NMTAP	69	288	0
NMTTP	69	336	3	D	0	M1
NMTTP	69	352	3	A	0	M1
NMTTP	69	368	4	D	0	M1
NMTTP	70	0	4	A	0	M1
BXTAP	70	0	6
NMTAP	70	48	6
NMTAP	70	96	5
NMTAP	70	144	5
NMTAP	70	192	4
NMTAP	70	240	4
NMTAP	70	288	3
NMTAP	70	336	3
NMTAP	71	0	2
NMTAP	71	0	4
NMTAP	71	48	2
NMTAP	71	96	3
NMTAP	71	96	5
NMTAP	71	144	5
NMTAP	71	192	1
NMTAP	71	192	4
NMTAP	71	240	1
NMTAP	71	288	7
NMTAP	71	312	0
NMTAP	71	336	7
NMTAP	71	360	0
NMTAP	72	0	6
NMTAP	72	24	7
NMTAP	72	48	6
NMTAP	72	72	7
NMTAP	72	96	5
NMTAP	72	120	7
NMTAP	72	144	6
NMTAP	72	168	7
EXHLD	72	192	5	192
NMTTP	72	240	0	E	0	M1
NMTTP	72	256	7	B	0	M1
NMTTP	72	272	6	B	0	M1
NMTTP	72	288	6	E	0	M1
NMTTP	72	336	0	E	0	M1
NMTTP	72	352	0	B	0	M1
NMTTP	72	368	1	B	0	M1
NMTTP	73	0	2	E	1	M1
EXTAP	73	72	4
EXTAP	73	72	5
NMTAP	73	144	6
NMTAP	73	144	7
NMTAP	73	216	0
NMTAP	73	216	1
NMTAP	73	288	2
NMSTR	73	288	3
NMSI_	73	288	3	96	48	7
NMHLD	74	0	1	384
BRTAP	74	0	3
NMHLD	75	0	7	144
NMTAP	75	144	4
NMTAP	75	168	5
NMSTR	75	192	6
NMSI_	75	192	6	96	48	3
NMTAP	75	216	7
NMTAP	75	240	0
NMTAP	75	264	1
EXTAP	75	288	2
BRTAP	75	288	6
NMTAP	76	0	1
NMTAP	76	24	0
NMTAP	76	48	1
NMTAP	76	72	0
NMHLD	76	96	2	48
NMTAP	76	144	6
NMTAP	76	168	7
NMTAP	76	192	6
NMTAP	76	216	7
NMHLD	76	240	5	48
NMTAP	76	288	4
NMTAP	76	312	3
NMTAP	76	336	2
NMTAP	76	360	1
NMSTR	77	0	0
NMSI_	77	0	0	96	48	4
NMSTR	77	0	5
NMSI_	77	0	5	96	48	0
NMSTR	77	96	0
NMSI_	77	96	0	96	48	3
NMTAP	77	96	5
EXTAP	77	192	3
CNSI_	77	240	3	0	72	6
NMTAP	77	264	1
NMTAP	77	336	0
NMTAP	78	0	6
NMTAP	78	24	7
NMTAP	78	48	6
NMTAP	78	72	7
NMHLD	78	96	5	48
NMTAP	78	144	1
NMTAP	78	168	0
NMTAP	78	192	1
NMTAP	78	216	0
NMHLD	78	240	2	48
NMTAP	78	288	3
NMTAP	78	312	4
NMTAP	78	336	5
NMTAP	78	360	6
NMSTR	79	0	2
NMSI_	79	0	2	96	48	7
NMSTR	79	0	7
NMSI_	79	0	7	96	48	3
NMTAP	79	96	2
NMSTR	79	96	7
NMSI_	79	96	7	96	48	4
EXTAP	79	192	4
CNSI_	79	240	4	0	72	1
NMTAP	79	264	5
NMTAP	79	336	7
NMTAP	80	0	1
NMTAP	80	0	7
NMTAP	80	24	6
NMTAP	80	48	5
NMTAP	80	72	4
NMHLD	80	96	3	48
NMTAP	80	144	7
NMTAP	80	168	0
NMTAP	80	192	1
NMTAP	80	216	2
NMHLD	80	240	3	48
NMSTR	80	288	0
NMSI_	80	288	0	96	48	4
NMTAP	80	312	7
NMTAP	80	336	6
NMTAP	80	360	5
BRTAP	81	0	0
NMTAP	81	0	4
NMTAP	81	96	3
NMTAP	81	96	5
NMTAP	81	144	6
NMTAP	81	168	4
NMTAP	81	192	6
NMTAP	81	240	1
NMTAP	81	264	0
NMTAP	81	312	6
NMTAP	81	336	7
BRTAP	82	0	0
BRTAP	82	0	5
NMTAP	82	48	1
NMTAP	82	48	4
NMTAP	82	96	2
NMTAP	82	120	3
NMTAP	82	168	3
NMTAP	82	168	4
NMTAP	82	216	5
NMTAP	82	240	4
NMTAP	82	264	6
NMTAP	82	288	3
NMTAP	82	312	7
NMTAP	82	336	2
NMTAP	82	360	0
BXHLD	83	0	1	48
BXHLD	83	72	5	48
NMHLD	83	72	7	48
BXHLD	83	144	0	48
NMHLD	83	144	1	48
NMTAP	83	216	2
NMTAP	83	216	7
NMTAP	83	264	3
NMTAP	83	264	6
BXTAP	83	288	3
BXSTR	83	288	6
NMSF_	83	288	6	96	48	2
BRTAP	84	96	0
BRTAP	84	96	4
NMTAP	84	192	5
NMTAP	84	216	4
NMHLD	84	240	6	48
NMTAP	84	288	7
NMTAP	84	312	0
NMTAP	84	336	1
NMTAP	84	360	2
NMSTR	85	0	3
NMSI_	85	0	3	96	48	7
NMSTR	85	0	6
NMSI_	85	0	6	96	48	3
NMSTR	85	96	3
NMSI_	85	96	3	96	48	0
NMTAP	85	96	6
EXTAP	85	192	0
CNSI_	85	240	0	0	72	5
NMTAP	85	264	2
NMTAP	85	336	3
NMTAP	86	0	5
NMTAP	86	24	4
NMTAP	86	48	5
NMTAP	86	72	4
NMHLD	86	96	6	48
NMTAP	86	144	2
NMTAP	86	168	3
NMTAP	86	192	2
NMTAP	86	216	3
NMHLD	86	240	1	48
NMTAP	86	288	0
NMTAP	86	312	7
NMTAP	86	336	6
NMTAP	86	360	5
BRSTR	87	0	0
NMSCR	87	0	0	96	48	3
BRSTR	87	0	4
NMSCR	87	0	4	96	48	7
BRTAP	87	96	0
BRTAP	87	96	4
NMHLD	87	192	0	48
NMHLD	87	192	4	48
NMHLD	87	264	2	48
NMHLD	87	264	6	48
NMTAP	87	336	0
NMTAP	87	336	4
BRTAP	88	0	1
BRHLD	88	0	3	288
NMTAP	88	96	2
NMTAP	88	144	2
NMTAP	88	192	2
NMTAP	88	240	2
NMTAP	88	288	2
NMTAP	88	336	3
BRTAP	89	0	4
NMTAP	89	0	5
NMTAP	89	48	4
NMTAP	89	48	5
NMTAP	89	96	6
NMTAP	89	96	7
NMTAP	89	144	6
NMTAP	89	144	7
BRTAP	89	192	0
NMTAP	89	240	0
NMTAP	89	264	7
BRTAP	89	288	1
BRTAP	89	288	6
NMTAP	90	0	2
NMTAP	90	0	4
NMTAP	90	48	1
NMTAP	90	96	3
NMTAP	90	96	5
NMTAP	90	144	6
NMTAP	90	192	1
NMTAP	90	192	3
NMTAP	90	240	0
NMTAP	90	288	1
NMTAP	90	288	7
NMTAP	90	336	1
NMTAP	90	336	7
NMTAP	91	0	6
NMTAP	91	24	0
NMTAP	91	48	6
NMTAP	91	72	0
NMTAP	91	96	4
NMTAP	91	120	2
NMTAP	91	144	5
NMTAP	91	168	3
NMTTP	91	192	6	A	0	M1
NMTTP	91	192	7	E	0	M1
NMTTP	91	216	2	A	0	M1
NMTTP	91	216	3	E	0	M1
NMTTP	91	240	4	A	0	M1
NMTTP	91	240	5	E	0	M1
NMTTP	91	264	0	A	0	M1
NMTTP	91	264	1	E	0	M1
NMTTP	91	288	0	C	1	M1
NMSTR	92	0	1
NMSCR	92	0	1	96	48	4
NMTAP	92	48	0
NMTAP	92	96	7
NMSTR	92	144	6
NMSI_	92	144	6	96	48	1
NMTAP	92	192	6
NMTAP	92	240	3
NMSTR	92	288	2
NMSCL	92	288	2	96	48	7
NMTAP	92	336	3
NMTAP	93	0	4
NMSTR	93	48	5
NMSI_	93	48	5	96	48	1
NMTAP	93	96	5
NMTAP	93	144	7
NMSTR	93	192	0
NMSI_	93	192	0	96	48	4
NMSI_	93	192	0	96	48	5
BRTAP	93	288	0
NMHLD	94	0	6	48
NMHLD	94	48	4	48
NMHLD	94	96	5	48
NMHLD	94	144	3	48
NMHLD	94	192	4	48
NMHLD	94	240	2	48
NMTAP	94	288	3
NMSTR	94	336	1
NMSV_	94	336	1	96	48	4
NMTAP	94	336	4
NMSTR	95	48	5
NMSI_	95	48	5	96	48	0
NMTAP	95	144	3
NMTAP	95	192	3
EXTAP	95	240	3
EXTAP	95	240	7
EXTAP	95	256	2
EXTAP	95	256	6
EXTAP	95	272	1
EXTAP	95	272	5
BXTAP	95	288	0
BXTAP	95	288	4
NMSTR	96	0	0
NMSI_	96	0	0	96	48	4
NMTAP	96	48	0
NMSTR	96	96	7
NMSI_	96	96	7	96	48	3
NMTAP	96	144	7
NMSTR	96	192	6
NMSI_	96	192	6	96	48	2
NMTAP	96	240	6
NMSTR	96	288	5
NMSI_	96	288	5	96	48	1
NMTAP	96	336	5
NMSTR	97	0	4
NMSI_	97	0	4	96	48	0
NMTAP	97	48	4
NMSTR	97	96	3
NMSI_	97	96	3	96	48	7
NMTAP	97	144	3
NMTAP	97	192	2
NMTAP	97	240	2
NMTAP	97	288	1
NMTAP	97	336	1
NMTAP	98	0	1
NMTAP	98	24	0
NMTAP	98	48	1
NMTAP	98	72	0
NMTAP	98	96	2
NMTAP	98	120	7
NMTAP	98	144	3
NMTAP	98	168	6
NMTAP	98	192	4
NMTAP	98	216	5
NMTAP	98	240	2
NMTAP	98	264	3
NMTAP	98	288	1
NMTAP	98	312	4
NMTAP	98	336	0
NMTAP	98	360	5
BRTAP	99	0	0
NMTAP	99	12	1
NMTAP	99	24	2
NMHLD	99	36	3	36
BRTAP	99	72	0
NMTAP	99	84	1
NMTAP	99	96	2
NMHLD	99	108	3	36
BRTAP	99	144	6
NMTAP	99	156	5
NMTAP	99	168	4
NMHLD	99	180	3	36
BRTAP	99	216	6
NMTAP	99	228	5
NMTAP	99	240	4
NMHLD	99	252	3	36
NMTTP	99	288	0	D	0	M1
NMTTP	99	300	1	D	0	M1
NMTTP	99	312	2	D	0	M1
NMTTP	99	324	3	D	0	M1
NMTTP	99	336	4	D	0	M1
NMTTP	99	348	5	D	0	M1
NMTTP	99	360	6	D	0	M1
NMTTP	99	372	7	D	0	M1
NMTTP	100	0	0	E	0	M1
NMTHO	100	0	0	192	D	1	M1
BXHLD	100	192	4	1248
NMTTP	101	96	0	E	0	M1
NMTTP	101	312	0	C	0	M1
NMTTP	102	144	4	E	0	M1
NMTTP	103	0	4	D	0	M1
NMTTP	103	288	5	E	0	M1
NMTTP	103	300	4	B	0	M1
NMTTP	103	312	3	B	0	M1

T_REC_TAP	448
T_REC_BRK	41
T_REC_XTP	32
T_REC_BXX	14
T_REC_HLD	78
T_REC_XHO	1
T_REC_BHO	1
T_REC_BXH	9
T_REC_STR	67
T_REC_BST	4
T_REC_XST	3
T_REC_XBS	5
T_REC_TTP	76
T_REC_THO	9
T_REC_SLD	74
T_REC_BSL	7
T_REC_ALL	869
T_NUM_TAP	626
T_NUM_BRK	81
T_NUM_HLD	88
T_NUM_SLD	74
T_NUM_ALL	869
T_JUDGE_TAP	690
T_JUDGE_HLD	233
T_JUDGE_SLD	81
T_JUDGE_ALL	1004
TTM_EACHPAIRS	123
TTM_SCR_TAP	313000
TTM_SCR_BRK	210600
TTM_SCR_HLD	88000
TTM_SCR_SLD	111000
TTM_SCR_ALL	722600
TTM_SCR_S	693100
TTM_SCR_SS	714500
TTM_RAT_ACV	10113

