VERSION	0.00.00	1.05.00
FES_MODE	0
BPM_DEF	185.000	185.000	185.000	185.000
MET_DEF	4	4
RESOLUTION	384
CLK_DEF	384
COMPATIBLE_CODE	MA2

BPM	0	0	185.000
MET	0	0	4	4

NMSTR	2	0	1
NMSCR	2	0	1	96	192	4
NMTAP	3	0	5
NMSTR	4	0	6
NMSCL	4	0	6	96	192	3
NMTAP	5	0	2
NMTAP	5	192	1
NMSTR	6	0	0
NMSCR	6	0	0	96	288	4
NMTAP	7	0	6
NMSTR	8	0	7
NMSCL	8	0	7	96	288	3
NMHLD	9	0	1	384
NMTAP	10	0	3
NMTAP	10	96	3
NMTAP	10	192	2
NMTAP	10	192	4
NMTAP	10	288	2
NMTAP	10	288	4
NMTAP	11	0	5
NMTAP	11	96	5
NMTAP	11	192	2
NMTAP	11	192	4
NMTAP	11	288	2
NMTAP	11	288	4
NMTAP	12	0	1
NMTAP	12	96	1
NMTAP	12	192	3
NMTAP	12	192	5
NMTAP	12	288	3
NMTAP	12	288	5
NMTAP	13	0	6
NMTAP	13	96	6
NMTAP	13	192	2
NMTAP	13	192	4
NMTAP	13	288	2
NMTAP	13	288	4
NMTAP	14	0	1
NMTAP	14	48	1
NMTAP	14	96	2
NMTAP	14	96	3
NMTAP	14	192	6
NMTAP	14	240	6
NMTAP	14	288	4
NMTAP	14	288	5
NMTAP	15	0	2
NMTAP	15	48	2
NMTAP	15	96	1
NMTAP	15	96	3
NMTAP	15	192	5
NMTAP	15	240	5
NMTAP	15	288	4
NMTAP	15	288	6
EXTAP	16	0	4
EXTAP	16	0	6
EXTAP	16	72	3
EXTAP	16	72	5
EXTAP	16	144	2
EXTAP	16	144	4
EXTAP	16	240	3
EXSTR	16	288	3
NMSCL	16	288	3	96	288	5
BXTAP	18	0	7
NMHLD	18	192	1	96
NMHLD	18	288	3	96
NMHLD	19	0	4	96
NMHLD	19	96	6	96
NMTAP	19	192	4
EXTAP	20	0	7
NMHLD	20	192	6	96
NMHLD	20	288	4	96
NMHLD	21	0	3	96
NMHLD	21	96	1	96
NMTAP	21	192	3
NMTAP	21	288	4
NMTAP	22	0	5
NMTAP	22	48	5
NMTAP	22	96	4
NMTAP	22	144	4
NMTAP	22	192	6
NMTAP	22	240	6
NMTAP	22	288	4
NMTAP	23	0	3
NMTAP	23	0	5
NMTAP	23	48	3
NMTAP	23	48	5
NMTAP	23	192	2
NMTAP	23	192	4
NMHLD	23	240	2	48
NMHLD	23	240	4	48
EXTAP	24	0	3
EXTAP	24	48	2
EXTAP	24	96	1
EXTAP	24	144	0
EXTAP	24	192	7
EXTAP	24	240	6
EXTAP	24	288	5
EXTAP	24	336	4
EXHLD	25	0	3	288
BRTAP	25	288	7
NMHLD	26	0	4	48
NMHLD	26	0	6	48
NMHLD	26	96	4	48
NMHLD	26	96	6	48
NMHLD	26	192	4	48
NMHLD	26	192	6	48
NMTAP	26	288	3
NMTAP	26	288	4
NMHLD	27	0	1	48
NMHLD	27	0	3	48
NMHLD	27	96	1	48
NMHLD	27	96	3	48
NMHLD	27	192	1	48
NMHLD	27	192	3	48
NMTAP	27	288	3
NMTAP	27	288	4
NMHLD	28	0	4	48
NMHLD	28	0	5	48
NMHLD	28	96	5	48
NMHLD	28	96	6	48
NMHLD	28	192	4	48
NMHLD	28	192	5	48
NMTAP	28	288	3
NMTAP	28	288	4
NMHLD	29	0	2	48
NMHLD	29	0	3	48
NMHLD	29	96	1	48
NMHLD	29	96	2	48
NMHLD	29	192	2	48
NMHLD	29	192	3	48
NMTAP	29	288	3
NMTAP	29	288	4
NMTAP	30	0	6
NMTAP	30	48	6
NMTAP	30	96	0
NMTAP	30	144	0
NMTAP	30	192	4
NMTAP	30	240	4
NMTAP	30	288	2
NMTAP	30	288	3
NMTAP	31	0	1
NMTAP	31	48	1
NMTAP	31	96	7
NMTAP	31	144	7
NMTAP	31	192	3
NMTAP	31	240	3
NMTAP	31	288	4
NMTAP	31	288	5
NMTAP	32	0	6
NMTAP	32	48	6
NMTAP	32	96	0
NMTAP	32	144	0
NMTAP	32	192	4
NMTAP	32	240	4
NMTAP	32	288	1
NMTAP	32	288	5
NMHLD	33	0	2	48
NMHLD	33	0	6	48
NMHLD	33	72	1	48
NMHLD	33	72	5	48
NMHLD	33	144	2	48
NMHLD	33	144	6	48
NMHLD	33	216	1	48
NMHLD	33	216	5	48
EXTAP	33	288	1
EXTAP	33	288	5
NMTTP	34	0	2	B	0	M1
NMTTP	34	0	3	B	1	M1
NMTTP	34	0	4	B	0	M1
NMTTP	34	0	5	E	0	M1
NMSTR	34	96	6
NMSI_	34	96	6	96	48	4
NMSTR	34	192	0
NMSI_	34	192	0	96	48	2
NMSTR	34	288	7
NMSI_	34	288	7	96	48	3
NMTAP	35	0	1
NMTAP	35	96	2
NMTAP	35	96	4
NMTAP	35	192	3
NMTAP	35	192	5
NMTAP	35	240	2
NMTAP	35	240	6
NMTAP	35	288	2
NMTAP	35	288	6
NMTTP	36	0	3	B	0	M1
NMTTP	36	0	3	E	0	M1
NMTTP	36	0	4	B	1	M1
NMTTP	36	0	5	B	0	M1
NMSTR	36	96	1
NMSI_	36	96	1	96	48	3
NMSTR	36	192	7
NMSI_	36	192	7	96	48	5
NMSTR	36	288	0
NMSI_	36	288	0	96	48	4
NMTAP	37	0	6
NMTAP	37	96	3
NMTAP	37	96	5
NMTAP	37	192	2
NMTAP	37	192	4
NMTAP	37	240	1
NMTAP	37	240	5
NMTAP	37	288	1
NMTAP	37	288	5
BRTAP	38	0	2
BRTAP	38	0	4
NMSTR	38	96	6
NMSI_	38	96	6	96	48	3
NMSTR	38	192	1
NMSI_	38	192	1	96	48	4
NMSTR	38	288	7
NMSI_	38	288	7	96	48	3
NMSTR	39	0	0
NMSI_	39	0	0	96	48	4
NMTAP	39	96	6
NMTAP	39	192	3
NMTAP	39	192	5
NMTAP	39	288	2
NMTAP	39	288	4
NMTAP	40	0	1
NMTAP	40	48	1
NMTAP	40	96	3
NMTAP	40	144	2
NMTAP	40	192	6
NMTAP	40	240	6
NMTAP	40	288	4
NMTAP	40	336	5
NMTAP	41	0	2
NMTAP	41	48	2
NMTAP	41	96	3
NMTAP	41	144	1
BRTAP	41	192	7
NMTAP	41	288	0
NMTAP	41	288	6
NMSTR	42	0	6
NMSI_	42	0	6	96	48	3
NMSTR	42	0	7
NMSI_	42	0	7	96	48	3
NMSTR	42	192	0
NMSI_	42	192	0	96	48	4
NMSTR	42	192	1
NMSI_	42	192	1	96	48	4
NMHLD	43	0	5	96
NMTAP	43	96	4
NMTAP	43	144	4
NMTAP	43	240	6
NMTAP	43	240	7
NMTAP	43	336	0
NMTAP	43	336	1
NMSTR	44	0	0
NMSI_	44	0	0	96	48	4
NMSTR	44	0	1
NMSI_	44	0	1	96	48	4
NMSTR	44	192	6
NMSI_	44	192	6	96	48	3
NMSTR	44	192	7
NMSI_	44	192	7	96	48	3
NMHLD	45	0	2	96
NMTAP	45	96	3
NMTAP	45	144	3
NMTAP	45	240	0
NMTAP	45	240	2
NMTAP	45	336	5
NMTAP	45	336	7
NMTAP	46	0	5
NMTAP	46	0	7
NMTAP	46	96	3
NMTAP	46	192	2
NMTAP	46	192	4
NMTAP	46	240	2
NMTAP	46	240	4
NMSTR	46	336	1
NMSCL	46	336	1	96	96	6
NMSTR	46	336	5
NMSCL	46	336	5	96	96	2
NMTAP	47	240	0
NMTAP	47	240	4
NMTAP	47	288	0
NMTAP	47	288	4
NMTAP	48	0	5
NMTAP	48	48	5
NMTAP	48	96	4
NMHLD	48	144	6	96
NMTAP	48	240	7
NMTAP	48	288	7
NMSTR	49	0	0
NMSI_	49	0	0	96	48	4
NMTAP	49	0	5
NMTAP	49	240	3
NMTAP	49	240	5
NMSTR	49	288	3
NMSCL	49	288	3	96	288	4
NMTAP	49	288	5
NMTTP	50	0	0	C	1	M1
EXTAP	51	0	2
EXTAP	51	0	3
EXTAP	51	72	2
EXTAP	51	72	3
EXTAP	51	144	4
EXTAP	51	144	5
EXTAP	51	216	4
EXTAP	51	216	5
EXTAP	51	288	3
EXTAP	51	288	6
NMHLD	52	0	1	96
NMTAP	52	96	0
NMHLD	52	192	6	96
NMTAP	52	288	7
NMSTR	53	0	0
NMSCR	53	0	0	96	48	3
EXSTR	53	192	7
NMSCL	53	192	7	96	48	4
NMTAP	54	0	2
NMTAP	54	48	2
NMTAP	54	96	3
NMTAP	54	144	3
NMTAP	54	192	1
NMTAP	54	240	1
NMTAP	54	288	7
NMTAP	54	336	7
NMTAP	55	0	0
NMTAP	55	48	0
NMTAP	55	96	6
NMTAP	55	144	6
NMTAP	55	192	4
NMTAP	55	240	4
NMTAP	55	288	5
EXHLD	56	0	6	64
EXHLD	56	64	4	64
EXHLD	56	128	5	64
NMHLD	56	192	1	64
NMHLD	56	256	3	64
NMHLD	56	320	2	64
NMSTR	57	0	4
NMSF_	57	0	4	96	96	0
BRTAP	58	0	2
BRTAP	58	0	6
NMTTP	59	0	6	E	0	M1
NMTTP	59	96	7	E	0	M1
NMTTP	59	192	0	E	0	M1
NMTTP	59	288	1	E	0	M1
NMTHO	60	0	2	384	E	0	M1
NMSTR	62	0	4
NMSCR	62	0	4	96	144	7
NMSTR	63	0	3
NMSCL	63	0	3	96	144	0
NMSTR	64	0	7
NMSCL	64	0	7	96	144	4
NMSTR	65	0	0
NMSCR	65	0	0	96	144	3
NMHLD	66	0	4	96
NMHLD	66	0	5	96
NMHLD	66	144	6	96
NMHLD	66	144	7	96
NMHLD	66	288	0	96
NMHLD	66	288	1	96
NMHLD	67	48	2	96
NMHLD	67	48	3	96
NMTAP	67	192	4
NMTAP	67	192	5
NMTAP	67	288	4
NMTAP	67	288	5
NMHLD	68	0	2	96
NMHLD	68	0	3	96
NMHLD	68	144	0	96
NMHLD	68	144	1	96
NMHLD	68	288	6	96
NMHLD	68	288	7	96
NMHLD	69	48	4	96
NMHLD	69	48	5	96
NMTAP	69	192	2
NMTAP	69	192	3
NMTAP	69	288	2
NMTAP	69	288	3
NMTAP	70	0	1
NMTAP	70	48	1
NMTAP	70	96	2
NMTAP	70	144	2
NMTAP	70	192	3
NMTAP	70	240	3
NMTAP	70	288	4
NMTAP	70	336	4
NMTAP	71	0	5
NMTAP	71	48	5
NMTAP	71	96	6
NMTAP	71	144	6
NMTAP	71	192	7
NMTAP	71	240	7
NMTAP	71	288	0
NMHLD	72	0	4	48
NMHLD	72	0	6	48
NMHLD	72	96	1	48
NMHLD	72	96	3	48
NMHLD	72	192	5	48
NMHLD	72	192	7	48
NMHLD	72	288	0	48
NMHLD	72	288	2	48
NMHLD	73	0	1	72
NMHLD	73	72	3	72
NMHLD	73	144	4	72
NMHLD	73	216	6	72
BRSTR	73	288	0
BRSI_	73	288	0	96	48	4
BRTAP	75	288	0
BRTAP	75	288	7
NMTAP	76	0	6
NMTAP	76	0	7
NMTAP	76	48	5
NMTAP	76	96	3
NMTAP	76	96	4
NMTAP	76	144	2
NMTAP	76	192	0
NMTAP	76	192	1
NMTAP	76	240	7
NMSTR	76	288	6
NMSI_	76	288	6	96	48	4
NMSTR	76	288	7
NMSI_	76	288	7	96	48	3
NMSTR	77	96	0
NMSI_	77	96	0	96	48	2
NMSTR	77	96	7
NMSI_	77	96	7	96	48	3
NMTAP	77	288	0
NMTAP	77	288	1
NMTAP	78	0	0
NMTAP	78	0	1
NMTAP	78	48	2
NMTAP	78	96	3
NMTAP	78	96	4
NMTAP	78	144	5
NMTAP	78	192	6
NMTAP	78	192	7
NMTAP	78	240	0
NMSTR	78	288	0
NMSI_	78	288	0	96	48	4
NMSTR	78	288	1
NMSI_	78	288	1	96	48	3
NMSTR	79	96	0
NMSI_	79	96	0	96	48	4
NMSTR	79	96	7
NMSI_	79	96	7	96	48	5
EXTAP	79	288	3
NMTAP	80	0	3
NMTAP	80	0	4
NMTAP	80	48	2
NMTAP	80	96	0
NMTAP	80	96	1
NMTAP	80	144	7
NMTAP	80	192	6
NMTAP	80	192	7
NMTAP	80	240	5
NMSTR	80	288	3
NMSI_	80	288	3	96	48	1
NMSTR	80	288	4
NMSI_	80	288	4	96	48	6
NMSTR	81	96	0
NMSI_	81	96	0	96	48	4
NMSTR	81	96	7
NMSI_	81	96	7	96	48	3
NMTAP	81	288	2
NMTAP	81	288	5
NMTAP	82	0	7
NMTAP	82	48	7
NMTAP	82	96	4
NMTAP	82	96	6
NMTAP	82	192	0
NMTAP	82	240	0
NMTAP	82	288	1
NMTAP	82	288	3
NMHLD	83	0	6	72
NMHLD	83	72	4	72
NMHLD	83	144	3	72
NMHLD	83	216	1	72
BRTAP	83	288	7
NMTAP	84	0	0
NMTAP	84	0	1
NMTAP	84	48	2
BRTAP	84	96	3
BRTAP	84	96	4
NMTAP	84	192	3
NMTAP	84	192	4
NMTAP	84	240	2
NMSTR	84	288	0
NMSI_	84	288	0	96	48	4
NMSTR	84	288	1
NMSI_	84	288	1	96	48	3
NMSTR	85	96	0
NMSI_	85	96	0	96	48	4
NMSTR	85	96	7
NMSI_	85	96	7	96	48	5
NMTAP	85	288	6
NMTAP	85	288	7
NMTAP	86	0	6
NMTAP	86	0	7
NMTAP	86	48	5
NMTAP	86	96	3
NMTAP	86	96	4
NMTAP	86	144	2
NMTAP	86	192	0
NMTAP	86	192	1
NMTAP	86	240	7
NMSTR	86	288	6
NMSI_	86	288	6	96	48	4
NMSTR	86	288	7
NMSI_	86	288	7	96	48	3
NMSTR	87	96	0
NMSI_	87	96	0	96	48	2
NMSTR	87	96	7
NMSI_	87	96	7	96	48	3
EXTAP	87	288	4
NMTAP	88	0	1
NMTAP	88	48	1
NMTAP	88	96	1
NMTAP	88	144	1
NMTAP	88	192	3
NMTAP	88	240	3
NMTAP	88	288	3
NMTAP	88	336	3
BXTAP	89	0	4
NMTAP	89	48	4
NMTAP	89	96	4
NMTAP	89	144	4
BXTAP	89	192	6
NMTAP	89	240	6
NMTAP	89	288	6
NMTAP	89	336	6
EXTAP	90	0	0
NMTAP	90	48	0
NMTAP	90	96	0
NMTAP	90	144	0
NMTAP	90	192	1
NMTAP	90	192	7
NMTAP	90	240	1
NMTAP	90	240	7
NMTAP	90	288	1
NMTAP	90	288	7
NMTAP	90	336	1
NMTAP	90	336	7
NMTAP	91	0	2
NMTAP	91	0	6
NMTAP	91	48	2
NMTAP	91	48	6
NMTAP	91	96	3
NMTAP	91	96	5
NMTAP	91	144	3
NMTAP	91	144	5
NMSTR	91	192	4
NMSI_	91	192	4	96	48	0
NMHLD	92	0	6	96
NMHLD	92	0	7	96
NMHLD	92	144	2	96
NMHLD	92	144	3	96
NMHLD	92	288	0	96
NMHLD	92	288	1	96
NMHLD	93	48	4	96
NMHLD	93	48	5	96
NMTAP	93	192	2
NMTAP	93	192	3
NMTAP	93	288	2
NMTAP	93	288	3
NMHLD	94	0	0	96
NMHLD	94	0	1	96
NMHLD	94	144	4	96
NMHLD	94	144	5	96
NMTAP	94	288	6
NMTAP	94	288	7
NMTAP	94	336	6
NMTAP	94	336	7
NMTAP	95	48	2
NMTAP	95	48	3
NMTAP	95	144	1
NMTAP	95	144	4
NMTAP	95	192	1
NMSTR	95	192	4
NMSI_	95	192	4	96	48	7
BRTAP	95	288	0
NMTAP	96	0	1
NMTAP	96	48	1
NMTAP	96	96	1
NMTAP	96	144	1
NMTAP	96	192	7
NMTAP	96	240	7
NMTAP	96	288	7
NMTAP	96	336	7
NMTAP	97	0	5
NMTAP	97	48	5
NMTAP	97	96	5
NMTAP	97	144	5
NMTAP	97	192	3
NMTAP	97	240	3
NMTAP	97	288	3
NMTAP	97	336	3
NMTAP	98	0	2
NMTAP	98	0	4
NMTAP	98	48	2
NMTAP	98	48	4
NMTAP	98	96	1
NMTAP	98	96	5
NMTAP	98	144	1
NMTAP	98	144	5
NMTAP	98	192	0
NMTAP	98	192	6
NMTAP	98	240	0
NMTAP	98	240	6
NMTAP	98	288	7
NMTAP	98	336	7
BRTAP	99	0	4
BRTAP	99	0	6
NMTAP	99	72	0
NMTAP	99	72	7
BRTAP	99	144	1
BRTAP	99	144	3
NMTAP	99	216	0
NMTAP	99	216	7
NMSTR	99	288	0
NMSCR	99	288	0	96	96	3
NMSTR	99	288	7
NMSCL	99	288	7	96	96	4
NMHLD	100	192	2	1248
NMHLD	100	192	5	1248

T_REC_TAP	337
T_REC_BRK	16
T_REC_XTP	31
T_REC_BXX	3
T_REC_HLD	97
T_REC_XHO	4
T_REC_BHO	0
T_REC_BXH	0
T_REC_STR	56
T_REC_BST	1
T_REC_XST	2
T_REC_XBS	0
T_REC_TTP	13
T_REC_THO	1
T_REC_SLD	58
T_REC_BSL	1
T_REC_ALL	620
T_NUM_TAP	439
T_NUM_BRK	21
T_NUM_HLD	102
T_NUM_SLD	58
T_NUM_ALL	620
T_JUDGE_TAP	459
T_JUDGE_HLD	226
T_JUDGE_SLD	59
T_JUDGE_ALL	744
TTM_EACHPAIRS	158
TTM_SCR_TAP	219500
TTM_SCR_BRK	54600
TTM_SCR_HLD	102000
TTM_SCR_SLD	87000
TTM_SCR_ALL	463100
TTM_SCR_S	447200
TTM_SCR_SS	461000
TTM_RAT_ACV	10045

