VERSION	0.00.00	1.05.00
FES_MODE	0
BPM_DEF	174.000	174.000	174.000	174.000
MET_DEF	4	4
RESOLUTION	384
CLK_DEF	384
COMPATIBLE_CODE	MA2

BPM	0	0	174.000
MET	0	0	4	4

NMSTR	1	288	1
NMSI_	1	288	1	96	48	6
NMSTR	1	288	5
NMSI_	1	288	5	96	48	2
BRTAP	2	0	1
BRTAP	2	0	5
NMTAP	2	288	2
NMTAP	2	288	3
NMTAP	2	336	2
NMHLD	2	336	3	336
NMHLD	4	0	2	288
NMTAP	4	0	4
NMTAP	4	288	3
NMTAP	4	336	2
NMTAP	4	336	3
NMTTP	5	96	1	E	0	M1
NMTTP	5	144	2	E	0	M1
NMTTP	5	192	3	E	0	M1
NMTTP	5	240	4	E	0	M1
EXSTR	5	288	1
NMSUR	5	288	1	96	192	3
EXTAP	5	288	5
NMTAP	6	0	4
NMTAP	6	288	4
NMTAP	6	288	5
NMHLD	6	336	4	336
NMTAP	6	336	5
NMHLD	8	0	3	144
NMSTR	8	0	5
NMSSR	8	0	5	96	192	1
NMTAP	8	288	0
NMHLD	8	336	0	96
NMTAP	9	48	2
NMTAP	9	96	3
NMTAP	9	144	4
NMTAP	9	192	1
NMTAP	9	192	5
NMTAP	9	240	2
NMTAP	9	240	6
NMSTR	9	288	3
NMSCL	9	288	3	96	48	0
NMSTR	9	288	7
NMSCL	9	288	7	96	48	4
BRTAP	10	0	3
BRTAP	10	0	7
NMTAP	10	96	3
NMTAP	10	144	3
NMHLD	10	192	2	96
NMTAP	10	288	3
NMTAP	10	336	3
NMTAP	11	48	3
NMTAP	11	96	3
NMTAP	11	144	2
NMSTR	11	192	1
NMSI_	11	192	1	96	48	7
NMTAP	11	192	3
NMTAP	11	288	3
NMTAP	11	336	3
NMTAP	12	0	4
NMTAP	12	96	4
NMTAP	12	144	4
NMHLD	12	192	5	96
NMTAP	12	288	4
NMTAP	12	336	4
NMTAP	13	48	4
NMTAP	13	96	4
NMTAP	13	144	5
NMTAP	13	192	4
NMSTR	13	192	6
NMSI_	13	192	6	96	48	2
NMTAP	13	288	4
NMTAP	13	336	4
NMHLD	14	0	0	96
NMHLD	14	96	2	96
NMHLD	14	192	4	96
NMTAP	14	288	6
NMTAP	14	336	6
NMTAP	15	0	7
NMTAP	15	24	5
NMTAP	15	48	7
NMTAP	15	72	5
NMTAP	15	96	0
NMTAP	15	120	6
NMTAP	15	144	0
NMTAP	15	168	6
NMTAP	15	192	1
NMTAP	15	216	7
NMTAP	15	240	1
NMTAP	15	264	7
NMTAP	15	288	2
NMTAP	15	300	3
NMTAP	15	312	4
NMTAP	15	324	5
NMTAP	15	336	6
NMTAP	15	348	7
NMTAP	15	360	0
NMTAP	15	372	1
BXHLD	16	0	2	96
BXTAP	16	0	6
NMTAP	16	96	0
NMTAP	16	144	3
NMTAP	16	144	7
NMTAP	16	192	4
NMSTR	16	192	6
BRSI_	16	192	6	96	48	2
NMTAP	16	240	5
NMHLD	16	288	0	288
NMTTP	17	0	4	A	0	M1
NMTTP	17	0	5	E	1	M1
NMTTP	17	0	5	D	0	M1
NMTTP	17	96	2	A	0	M1
NMTTP	17	96	3	E	1	M1
NMTTP	17	96	3	D	0	M1
NMTTP	17	192	6	B	1	M1
NMTTP	17	192	6	A	0	M1
NMTTP	17	192	7	E	0	M1
EXSTR	17	288	3
NMSSR	17	288	3	96	48	7
EXSTR	17	288	4
NMSSL	17	288	4	96	48	0
BRTAP	18	0	3
BRTAP	18	0	4
NMTAP	18	144	0
NMTAP	18	144	1
NMHLD	18	192	2	96
NMTAP	18	192	7
NMTAP	18	288	3
NMSTR	18	336	1
NMSLR	18	336	1	96	96	7
NMTAP	18	336	4
NMTAP	19	48	6
NMTAP	19	96	5
NMTAP	19	144	4
NMSTR	19	192	0
NMSCL	19	192	0	96	48	5
NMTAP	19	240	1
NMSTR	19	288	2
NMSV_	19	288	2	96	48	7
NMTAP	20	0	4
NMTAP	20	96	3
NMTAP	20	144	4
NMHLD	20	192	1	96
NMTAP	20	192	5
NMTAP	20	288	0
NMTAP	20	336	2
NMTAP	20	336	7
NMTAP	21	48	4
EXTAP	21	48	5
NMTAP	21	96	4
EXTAP	21	96	6
NMTAP	21	144	4
EXTAP	21	144	7
EXTAP	21	192	0
NMTAP	21	192	4
EXTAP	21	240	1
NMTAP	21	240	4
BXSTR	21	288	2
NMSCL	21	288	2	96	96	4
BRTAP	21	288	4
NMTAP	22	0	3
NMTAP	22	144	6
NMTAP	22	144	7
NMSTR	22	192	0
NMSLR	22	192	0	96	96	7
NMTAP	22	192	5
NMTAP	22	288	3
NMTAP	22	336	5
NMTAP	23	48	6
NMTAP	23	48	7
NMTAP	23	96	0
NMTAP	23	96	7
NMTAP	23	144	0
NMTAP	23	144	1
NMTAP	23	192	2
NMTAP	23	192	3
NMTAP	23	240	3
NMTAP	23	240	4
NMTAP	23	288	4
NMTAP	23	288	5
NMSTR	24	0	1
NMSI_	24	0	1	96	48	5
NMTAP	24	0	7
NMTAP	24	48	0
NMTAP	24	96	0
NMSTR	24	144	7
NMSCL	24	144	7	96	48	4
NMTAP	24	192	3
NMTAP	24	240	3
NMTAP	24	288	2
NMTAP	24	336	1
NMTAP	25	0	0
NMSTR	25	0	6
NMSI_	25	0	6	96	48	2
NMTAP	25	48	7
NMTAP	25	96	7
NMSTR	25	144	0
NMSCR	25	144	0	96	48	3
NMTAP	25	192	4
NMTAP	25	240	4
NMSTR	25	288	5
NMSI_	25	288	5	96	48	0
NMSI_	25	288	5	96	48	1
BRTAP	26	0	5
NMTAP	26	144	6
NMTAP	26	144	7
NMTAP	26	192	0
NMHLD	26	192	5	96
NMTAP	26	288	4
NMTAP	26	336	3
NMSTR	26	336	6
NMSLL	26	336	6	96	96	0
NMTAP	27	48	1
NMTAP	27	96	2
NMTAP	27	144	3
NMSTR	27	192	7
NMSCR	27	192	7	96	48	2
NMTAP	27	240	6
NMSTR	27	288	5
NMSV_	27	288	5	96	48	0
NMTAP	28	0	3
NMTAP	28	96	4
NMTAP	28	144	3
NMTAP	28	192	2
NMHLD	28	192	6	96
NMTAP	28	288	7
NMTAP	28	336	0
NMTAP	28	336	5
EXTAP	29	48	2
NMTAP	29	48	3
EXTAP	29	96	1
NMTAP	29	96	3
EXTAP	29	144	0
NMTAP	29	144	3
NMTAP	29	192	3
EXTAP	29	192	7
NMTAP	29	240	3
EXTAP	29	240	6
BRTAP	29	288	3
BXSTR	29	288	5
NMSCR	29	288	5	96	96	3
NMTAP	30	0	4
NMTAP	30	144	0
NMTAP	30	144	1
NMTAP	30	192	2
NMSTR	30	192	7
NMSLL	30	192	7	96	96	0
NMTAP	30	288	4
NMTAP	30	336	2
NMTAP	31	48	0
NMTAP	31	48	1
NMTAP	31	96	0
NMTAP	31	96	7
NMTAP	31	144	6
NMTAP	31	144	7
NMTAP	31	192	4
NMTAP	31	192	5
NMTAP	31	240	3
NMTAP	31	240	4
NMTAP	31	288	2
NMTAP	31	288	3
NMTAP	32	0	0
NMSTR	32	0	6
NMSI_	32	0	6	96	48	2
NMTAP	32	48	7
NMTAP	32	96	7
NMSTR	32	144	0
NMSCR	32	144	0	96	48	3
NMTAP	32	192	4
NMTAP	32	240	4
NMTAP	32	288	5
NMTAP	32	336	6
NMSTR	33	0	1
NMSI_	33	0	1	96	48	5
NMTAP	33	0	7
NMTAP	33	48	0
NMTAP	33	96	0
NMSTR	33	144	7
NMSCL	33	144	7	96	48	4
NMTAP	33	192	3
NMTAP	33	240	3
NMTAP	33	288	2
BRSTR	34	0	1
NMSI_	34	0	1	96	48	4
BRTAP	34	0	5
NMSTR	34	96	4
NMSI_	34	96	4	96	48	1
NMSTR	34	192	1
NMSI_	34	192	1	96	48	5
NMSTR	34	288	5
NMSI_	34	288	5	96	48	1
NMSTR	35	0	1
NMSI_	35	0	1	96	48	6
NMSTR	35	96	6
NMSI_	35	96	6	96	48	1
NMSTR	35	192	1
NMSI_	35	192	1	96	48	5
NMTAP	35	288	5
NMTAP	36	0	4
NMTAP	36	0	6
NMTAP	36	48	4
NMTAP	36	96	5
NMTAP	36	144	5
NMTAP	36	192	3
NMTAP	36	192	4
NMTAP	36	240	2
NMTAP	36	288	1
NMSTR	36	288	5
NMSI_	36	288	5	96	48	0
NMTAP	37	0	3
NMTAP	37	48	3
NMSTR	37	96	1
NMSI_	37	96	1	96	48	3
NMSI_	37	96	1	96	48	5
NMTAP	37	192	1
NMSTR	37	288	7
NMSCL	37	288	7	96	48	4
BRSTR	38	0	4
NMSCR	38	0	4	96	48	7
NMSTR	38	96	7
NMSCL	38	96	7	96	48	4
NMSTR	38	192	4
NMSCR	38	192	4	96	48	7
NMSTR	38	288	7
NMSCL	38	288	7	96	48	4
NMSTR	39	0	3
NMSCR	39	0	3	96	72	0
NMSTR	39	96	0
NMSCL	39	96	0	96	72	3
NMSTR	39	192	3
NMSCR	39	192	3	96	72	0
NMTAP	39	288	0
NMHLD	40	0	1	96
NMTAP	40	96	2
NMTAP	40	144	1
NMHLD	40	144	2	96
NMTAP	40	240	1
NMTAP	40	288	1
NMTAP	40	288	2
NMTAP	41	0	0
NMTAP	41	0	3
NMTAP	41	48	0
NMTAP	41	48	3
NMSTR	41	96	1
NMSI_	41	96	1	96	48	5
NMSTR	41	96	2
NMSI_	41	96	2	96	48	7
EXTAP	41	192	1
EXTAP	41	192	2
EXSTR	41	288	4
NMSI_	41	288	4	96	48	0
EXTAP	41	288	6
BRSTR	42	0	0
NMSI_	42	0	0	96	48	4
EXSTR	42	96	4
NMSI_	42	96	4	96	48	0
NMSTR	42	192	0
NMSI_	42	192	0	96	48	4
EXTAP	42	240	6
NMSTR	42	288	4
NMSI_	42	288	4	96	48	0
EXSTR	43	0	0
NMSI_	43	0	0	96	48	4
NMSTR	43	96	4
NMSI_	43	96	4	96	48	0
EXTAP	43	144	6
NMSTR	43	192	0
NMSI_	43	192	0	96	48	4
EXTAP	43	288	4
NMTAP	44	0	5
NMTAP	44	0	7
NMTAP	44	48	5
NMTAP	44	96	4
NMTAP	44	96	6
NMTAP	44	144	6
NMTAP	44	192	3
NMTAP	44	192	5
NMTAP	44	240	3
NMTAP	44	240	5
NMSTR	44	288	2
NMSI_	44	288	2	96	48	0
NMSTR	44	288	6
NMSI_	44	288	6	96	48	0
NMSTR	45	0	2
NMSI_	45	0	2	96	48	4
NMSTR	45	0	6
NMSI_	45	0	6	96	48	4
NMTAP	45	96	2
NMTAP	45	96	6
NMTAP	45	192	1
NMTAP	45	192	7
BRSTR	45	288	0
NMSCR	45	288	0	96	96	3
BRTAP	45	288	6
NMSTR	46	0	3
NMSCR	46	0	3	96	96	6
NMSTR	46	96	6
NMSCR	46	96	6	96	96	1
NMSTR	46	192	1
NMSCR	46	192	1	96	96	4
NMSTR	46	288	4
NMSCR	46	288	4	96	96	7
NMSTR	47	0	7
NMSCR	47	0	7	96	96	2
NMSTR	47	96	2
NMSCR	47	96	2	96	96	5
NMTAP	47	192	5
NMTAP	47	288	7
NMTAP	48	0	6
NMTAP	48	24	4
NMTAP	48	48	6
NMTAP	48	72	4
NMTAP	48	96	5
NMTAP	48	120	3
NMTAP	48	144	5
NMTAP	48	168	3
NMTAP	48	192	4
NMTAP	48	216	2
NMTAP	48	240	4
NMTAP	48	264	2
NMTTP	48	288	4	D	0	M1
NMTTP	48	300	3	D	0	M1
NMTTP	48	312	2	D	0	M1
NMTTP	48	324	1	D	0	M1
NMTTP	48	336	0	D	0	M1
NMTTP	48	348	7	D	0	M1
NMTTP	48	360	6	D	0	M1
NMTTP	48	372	5	D	0	M1
EXSTR	49	0	1
NMSI_	49	0	1	96	48	5
NMTTP	49	0	4	E	1	M1
NMTTP	49	96	1	A	1	M1
EXSTR	49	96	6
NMSI_	49	96	6	96	48	2
EXTAP	49	192	0
NMTTP	49	192	6	A	1	M1
BRSTR	49	288	1
BRSSR	49	288	1	96	48	5
BRSTR	49	288	3
BRSI_	49	288	3	96	48	7
NMTTP	50	0	0	C	1	M1
NMHLD	54	0	1	384
NMTAP	54	288	3
NMHLD	55	0	3	384
NMTAP	55	288	4
NMHLD	56	0	4	144
NMHLD	56	144	6	144
NMSTR	56	288	5
NMSCL	56	288	5	96	96	2
NMTAP	57	192	4
NMTAP	57	224	2
NMTAP	57	256	4
NMTAP	57	288	3
NMTAP	58	0	1
NMTAP	58	0	5
NMTAP	58	96	4
NMTAP	58	144	4
NMHLD	58	192	5	96
NMTAP	58	288	4
NMTAP	58	336	4
NMTAP	59	48	4
NMTAP	59	96	4
NMTAP	59	144	5
NMTAP	59	192	4
NMSTR	59	192	6
NMSI_	59	192	6	96	48	0
NMTAP	59	288	4
NMTAP	59	336	4
NMTAP	60	0	3
NMTAP	60	96	3
NMTAP	60	144	3
NMHLD	60	192	2	96
NMTAP	60	288	3
NMTAP	60	336	3
NMTAP	61	48	3
NMTAP	61	96	3
NMTAP	61	144	2
NMSTR	61	192	1
NMSI_	61	192	1	96	48	5
NMTAP	61	192	3
NMTAP	61	288	3
NMTAP	61	336	3
NMTAP	62	0	7
NMTAP	62	96	6
NMTAP	62	144	4
NMTAP	62	192	4
NMTAP	62	192	5
NMTAP	62	288	2
NMTAP	62	288	4
NMTAP	62	336	2
NMTAP	63	0	3
NMTAP	63	48	1
NMTAP	63	96	2
NMTAP	63	144	3
NMTAP	63	192	1
NMSTR	63	192	4
NMSI_	63	192	4	96	48	7
NMTAP	63	288	0
EXHLD	64	0	7	192
NMTAP	64	48	5
NMTAP	64	96	5
NMTAP	64	144	5
NMSTR	64	192	4
NMSI_	64	192	4	96	48	1
NMSTR	64	240	6
NMSI_	64	240	6	96	48	3
EXHLD	65	0	0	192
NMTAP	65	48	2
NMTAP	65	96	2
NMTAP	65	144	2
NMSTR	65	192	3
NMSI_	65	192	3	96	48	6
NMSTR	65	240	1
NMSI_	65	240	1	96	48	4
EXTAP	66	0	7
NMTAP	66	24	6
NMTAP	66	48	5
NMTAP	66	72	4
NMTAP	66	96	2
NMTAP	66	120	3
NMTAP	66	144	2
NMTAP	66	168	3
NMTAP	66	192	1
NMTAP	66	216	4
NMTAP	66	240	1
NMTAP	66	264	4
NMTAP	66	288	0
NMTAP	66	300	7
NMTAP	66	312	6
NMTAP	66	324	5
NMTAP	66	336	4
NMTAP	66	348	3
NMTAP	66	360	2
NMTAP	66	372	1
EXSTR	67	0	0
NMSI_	67	0	0	96	48	4
EXTAP	67	0	7
NMTAP	67	96	0
NMSTR	67	96	5
NMSCR	67	96	5	96	48	0
NMSTR	67	192	3
NMSF_	67	192	3	96	48	7
NMTAP	67	192	5
BRTAP	67	288	3
BRTAP	68	0	1
BRTAP	68	0	5
NMTAP	68	96	0
NMTAP	68	128	0
NMTAP	68	160	7
NMTAP	68	192	1
NMTAP	68	224	1
NMTAP	68	256	7
NMTAP	68	288	2
NMTAP	68	320	2
NMTAP	68	352	7
NMTAP	69	0	3
NMTAP	69	32	3
NMTAP	69	64	7
NMTAP	69	96	4
NMTAP	69	128	4
NMTAP	69	160	7
NMSTR	69	192	5
NMSCL	69	192	5	96	48	2
NMTAP	69	224	5
NMTAP	69	256	7
EXHLD	70	0	0	48
EXHLD	70	0	1	48
NMTAP	70	96	2
NMTAP	70	96	7
EXHLD	70	144	0	48
EXHLD	70	144	1	48
NMTAP	70	240	3
NMTAP	70	240	6
EXTAP	70	288	0
EXTAP	70	288	1
NMTAP	70	336	0
NMTAP	70	336	7
EXHLD	71	0	6	48
EXHLD	71	0	7	48
NMTAP	71	96	0
NMTAP	71	96	5
EXHLD	71	144	6	48
EXHLD	71	144	7	48
NMTAP	71	240	1
NMTAP	71	240	4
EXTAP	71	288	6
EXTAP	71	288	7
NMTAP	71	336	0
NMTAP	71	336	1
BRTAP	72	0	2
BRTAP	72	0	6
NMTAP	72	96	5
NMTAP	72	128	5
NMTAP	72	160	3
NMTAP	72	192	6
NMTAP	72	224	6
NMTAP	72	256	3
NMTAP	72	288	7
NMTAP	72	320	7
NMTAP	72	352	3
NMTAP	73	0	0
NMTAP	73	32	0
NMTAP	73	64	3
NMTAP	73	96	1
NMTAP	73	128	1
NMTAP	73	160	3
NMSTR	73	192	2
NMSI_	73	192	2	96	32	7
NMTAP	73	224	2
NMTAP	73	256	3
NMSTR	74	0	6
NMSI_	74	0	6	96	48	2
NMTAP	74	48	7
NMTAP	74	96	7
NMSTR	74	144	0
NMSCR	74	144	0	96	48	3
NMTAP	74	192	4
NMTAP	74	240	4
NMTAP	74	288	5
NMTAP	74	336	6
NMSTR	75	0	1
NMSI_	75	0	1	96	48	5
NMTAP	75	0	7
NMTAP	75	48	0
NMTAP	75	96	0
NMSTR	75	144	7
NMSCL	75	144	7	96	48	4
NMTAP	75	192	3
NMTAP	75	240	3
NMSTR	75	288	2
NMSI_	75	288	2	96	48	6
NMSI_	75	288	2	96	48	7
BRTAP	76	0	2
NMTAP	76	96	5
NMTAP	76	144	4
NMTAP	76	192	3
NMSTR	76	192	6
NMSV_	76	192	6	96	48	3
NMTAP	76	288	1
NMTAP	76	336	1
CNSI_	76	336	3	0	96	5
NMTAP	77	48	2
CNSCR	77	48	5	0	48	0
NMHLD	77	96	2	96
NMTAP	77	192	0
NMTAP	77	240	1
NMTAP	77	288	2
NMTAP	77	336	3
NMHLD	78	0	4	48
NMHLD	78	0	5	48
NMTAP	78	96	4
NMTAP	78	96	5
NMTAP	78	144	3
NMSTR	78	192	2
NMSUR	78	192	2	96	144	4
NMTAP	78	288	7
NMTAP	78	336	7
NMTAP	79	48	5
NMTAP	79	96	5
NMTAP	79	144	5
NMTAP	79	192	4
NMTAP	79	192	6
NMTAP	79	240	2
NMTAP	79	240	3
NMSTR	79	288	0
NMSI_	79	288	0	96	48	3
NMSTR	79	288	4
NMSV_	79	288	4	96	48	7
BRTAP	80	0	0
BRTAP	80	0	4
NMTAP	80	96	6
NMTAP	80	144	5
NMSTR	80	192	1
NMSV_	80	192	1	96	48	4
NMTAP	80	192	4
NMTAP	80	288	6
CNSI_	80	336	4	0	96	2
NMTAP	80	336	6
CNSCL	81	48	2	0	48	7
NMTAP	81	48	5
NMHLD	81	96	5	96
NMTAP	81	192	7
NMTAP	81	240	6
NMTAP	81	288	5
NMTAP	81	336	4
NMTAP	82	0	2
NMSTR	82	0	3
NMSI_	82	0	3	96	48	7
NMTAP	82	96	1
NMSTR	82	144	1
NMSCR	82	144	1	96	72	5
NMSTR	82	240	6
NMSCL	82	240	6	96	72	2
NMSTR	82	336	1
NMSLR	82	336	1	96	72	5
NMSTR	83	48	6
NMSLL	83	48	6	96	72	2
NMTAP	83	144	1
NMSTR	83	192	0
NMSF_	83	192	0	96	48	4
BRTAP	83	288	0
NMTAP	84	0	2
NMSTR	84	0	6
NMSI_	84	0	6	96	48	0
NMTAP	84	96	4
EXSTR	84	96	6
NMSI_	84	96	6	96	48	3
NMTAP	84	144	3
NMHLD	84	192	2	96
EXTAP	84	288	3
NMTAP	84	336	1
NMHLD	84	336	5	96
NMTAP	85	48	0
EXSTR	85	96	6
NMSI_	85	96	6	96	48	2
EXSTR	85	96	7
NMSI_	85	96	7	96	48	2
NMTAP	85	144	5
NMTAP	85	192	6
NMTAP	85	192	7
EXTAP	85	288	3
EXTAP	85	336	3
NMSTR	86	0	1
NMSI_	86	0	1	96	48	7
NMTAP	86	0	5
EXSTR	86	96	1
NMSI_	86	96	1	96	48	4
NMTAP	86	96	3
NMTAP	86	144	4
NMHLD	86	192	5	96
EXTAP	86	288	4
NMHLD	86	336	2	96
NMTAP	86	336	6
NMTAP	87	48	7
EXSTR	87	96	0
NMSI_	87	96	0	96	48	5
EXSTR	87	96	1
NMSI_	87	96	1	96	48	5
NMTAP	87	144	2
NMTAP	87	192	0
NMTAP	87	192	1
NMTAP	87	288	2
EXTAP	87	288	4
NMTAP	87	336	2
EXTAP	87	336	4
BRTAP	88	0	1
BRTAP	88	0	5
NMSTR	88	96	2
NMSV_	88	96	2	96	48	7
NMSTR	88	96	6
NMSI_	88	96	6	96	48	3
NMTAP	88	144	3
NMTAP	88	144	7
NMTAP	88	192	2
NMTAP	88	192	6
NMTAP	88	288	0
NMTAP	88	288	5
NMTAP	88	336	0
NMTAP	88	336	5
NMTAP	89	48	2
NMSTR	89	48	7
NMSI_	89	48	7	96	48	3
NMSTR	89	96	3
NMSLR	89	96	3	96	72	2
NMTAP	89	144	7
NMSTR	89	192	1
NMSLR	89	192	1	96	72	6
NMSLR	89	192	1	96	72	7
BRTAP	89	288	1
NMTAP	90	48	0
NMTAP	90	96	1
NMTAP	90	96	7
NMTAP	90	144	1
NMTAP	90	144	7
NMTAP	90	192	1
NMTAP	90	192	7
NMTAP	90	240	2
NMTAP	90	240	6
NMSTR	90	288	7
NMSCL	90	288	7	96	48	4
NMTAP	90	312	4
NMTAP	90	336	7
NMTAP	90	360	4
NMTAP	91	0	7
NMTAP	91	48	2
NMTAP	91	96	1
NMTAP	91	96	3
NMTAP	91	144	1
NMTAP	91	144	3
NMTAP	91	192	1
NMTAP	91	192	3
NMTAP	91	240	6
NMTAP	91	240	7
NMSTR	91	288	0
NMSCR	91	288	0	96	48	3
NMTAP	91	312	3
NMTAP	91	336	0
NMTAP	91	360	3
NMTAP	92	0	0
NMTAP	92	48	5
NMTAP	92	96	6
NMTAP	92	96	7
NMTAP	92	144	0
NMTAP	92	144	1
BRTAP	92	192	2
NMTAP	92	204	3
NMTAP	92	216	4
NMTAP	92	228	5
NMTAP	92	240	6
NMTAP	92	252	7
NMTAP	92	264	0
NMTAP	92	276	1
BRTAP	92	288	5
NMTAP	92	300	4
NMTAP	92	312	3
NMTAP	92	324	2
NMTAP	92	336	1
NMTAP	92	348	0
NMTAP	92	360	7
NMTAP	92	372	6
NMTTP	93	0	3	B	0	M1
NMTTP	93	0	4	B	0	M1
NMTTP	93	0	4	E	1	M1
NMTTP	93	96	1	A	0	M1
NMTTP	93	96	2	E	1	M1
NMTTP	93	96	3	E	0	M1
NMTTP	93	96	3	A	0	M1
NMTTP	93	192	4	A	0	M1
NMTTP	93	192	5	E	0	M1
NMTTP	93	192	6	E	1	M1
NMTTP	93	192	6	A	0	M1
BRSTR	93	288	0
BRSI_	93	288	0	96	48	4
BRSTR	93	288	7
BRSI_	93	288	7	96	48	3
NMTTP	94	0	0	C	1	M1

T_REC_TAP	456
T_REC_BRK	25
T_REC_XTP	30
T_REC_BXX	1
T_REC_HLD	31
T_REC_XHO	10
T_REC_BHO	0
T_REC_BXH	1
T_REC_STR	93
T_REC_BST	8
T_REC_XST	15
T_REC_XBS	2
T_REC_TTP	37
T_REC_THO	0
T_REC_SLD	117
T_REC_BSL	5
T_REC_ALL	831
T_NUM_TAP	631
T_NUM_BRK	42
T_NUM_HLD	41
T_NUM_SLD	117
T_NUM_ALL	831
T_JUDGE_TAP	667
T_JUDGE_HLD	111
T_JUDGE_SLD	122
T_JUDGE_ALL	900
TTM_EACHPAIRS	147
TTM_SCR_TAP	315500
TTM_SCR_BRK	109200
TTM_SCR_HLD	41000
TTM_SCR_SLD	175500
TTM_SCR_ALL	641200
TTM_SCR_S	617900
TTM_SCR_SS	637000
TTM_RAT_ACV	10065

