VERSION	0.00.00	1.05.00
FES_MODE	0
BPM_DEF	174.000	174.000	174.000	174.000
MET_DEF	4	4
RESOLUTION	384
CLK_DEF	384
COMPATIBLE_CODE	MA2

BPM	0	0	174.000
MET	0	0	4	4

NMHLD	2	0	2	672
BXTAP	2	0	4
NMTAP	2	288	3
NMHLD	2	336	3	336
NMTAP	4	0	3
NMHLD	4	0	5	672
NMTAP	4	288	4
NMHLD	4	336	4	336
NMTAP	6	0	0
NMHLD	6	0	6	672
NMTAP	6	288	7
NMHLD	6	336	7	336
NMHLD	8	0	1	288
NMTAP	8	96	7
NMTAP	8	192	7
NMTAP	8	288	0
NMSTR	8	336	0
NMSLR	8	336	0	96	192	4
BXTAP	10	0	4
BXTAP	10	0	6
NMTAP	10	96	5
NMTAP	10	192	4
NMTAP	10	192	5
NMTAP	10	288	3
NMTAP	10	288	4
NMTAP	10	336	3
NMTAP	10	336	4
NMTAP	11	48	2
NMTAP	11	144	1
NMTAP	11	144	3
NMHLD	11	192	1	96
NMHLD	11	192	3	96
NMTAP	12	0	2
NMTAP	12	96	1
NMTAP	12	96	3
NMTAP	12	192	2
NMTAP	12	192	4
NMTAP	12	288	3
NMTAP	12	288	5
NMTAP	12	336	3
NMTAP	12	336	5
NMTAP	13	48	6
NMTAP	13	144	4
NMTAP	13	144	5
NMTAP	13	192	4
NMTAP	13	192	5
NMSTR	13	288	3
NMSI_	13	288	3	96	96	1
NMSTR	14	96	4
NMSI_	14	96	4	96	96	6
NMSTR	14	288	3
NMSI_	14	288	3	96	96	0
NMSTR	15	96	4
NMSI_	15	96	4	96	96	7
NMTAP	15	288	1
NMTAP	16	0	0
NMTAP	16	0	6
NMTAP	16	48	0
NMTAP	16	48	6
NMTAP	16	96	0
NMTAP	16	96	6
NMTAP	16	192	1
NMTAP	16	192	7
NMTAP	16	240	1
NMTAP	16	240	7
NMTAP	16	288	1
NMSTR	16	288	7
NMSI_	16	288	7	96	96	2
CNSI_	17	96	2	0	96	6
CNSI_	17	192	6	0	96	3
BRTAP	18	0	0
NMTAP	18	96	2
NMTAP	18	144	2
NMTAP	18	192	3
NMHLD	18	288	1	384
NMTAP	18	288	4
NMTAP	19	96	3
NMTAP	19	192	0
NMTAP	19	288	3
NMTAP	20	0	2
NMTAP	20	0	4
NMTAP	20	96	5
NMTAP	20	144	5
NMTAP	20	192	4
NMTAP	20	288	3
NMHLD	20	288	6	384
NMTAP	21	96	4
NMTAP	21	192	7
NMTAP	21	288	4
BRTAP	22	0	7
NMTAP	22	96	1
NMTAP	22	144	1
NMTAP	22	192	0
NMHLD	22	288	2	288
NMTAP	22	288	7
NMTAP	23	96	0
NMTAP	23	192	3
NMSTR	23	288	1
BRSXL	23	288	1	96	288	4
NMSTR	23	288	5
BRSXL	23	288	5	96	288	0
NMTAP	25	0	7
NMTAP	25	48	7
NMTAP	25	96	3
NMTAP	25	144	3
NMTAP	25	192	4
NMTAP	25	192	6
BRTAP	25	288	1
BRTAP	25	288	3
EXSTR	26	0	1
NMSCL	26	0	1	96	96	6
EXTAP	26	0	3
NMTAP	26	192	5
NMTAP	26	288	4
NMTAP	26	288	5
NMTAP	27	0	4
NMTAP	27	0	6
NMTAP	27	96	0
NMTAP	27	96	7
NMTAP	27	192	1
NMTAP	27	192	3
NMTAP	27	288	4
NMTAP	27	288	6
NMTAP	28	0	4
NMSTR	28	0	6
NMSCR	28	0	6	96	96	1
NMTAP	28	192	2
NMTAP	28	288	2
NMTAP	28	288	3
NMTAP	29	0	1
NMTAP	29	48	1
NMTAP	29	96	3
NMTAP	29	144	3
NMTAP	29	192	2
NMTAP	29	288	0
NMTAP	29	288	1
NMSTR	30	0	2
BRSCR	30	0	2	96	96	5
NMTAP	30	0	7
BXSTR	30	192	6
BRSCR	30	192	6	96	96	1
NMTAP	31	0	2
NMTAP	31	48	2
NMTAP	31	96	3
NMTAP	31	192	0
NMTAP	31	192	1
NMTAP	31	288	6
NMTAP	31	288	7
NMHLD	32	0	0	96
NMHLD	32	0	5	96
NMHLD	32	144	2	96
NMHLD	32	144	7	96
NMTAP	32	288	0
NMTAP	32	288	5
NMTAP	33	0	6
NMTAP	33	48	6
NMTAP	33	96	2
NMTAP	33	144	2
NMTAP	33	192	4
BRTAP	33	288	1
BRTAP	33	288	5
BXHLD	34	0	0	1536
NMTAP	34	192	4
NMTAP	34	288	2
NMTAP	35	0	3
NMTAP	35	96	1
NMTAP	35	192	3
NMTAP	35	288	3
NMTTP	36	0	3	E	0	M1
NMTTP	36	96	2	E	0	M1
NMTTP	36	192	1	E	0	M1
NMTTP	36	288	0	E	0	M1
NMTTP	37	0	0	C	0	M1
NMTTP	37	96	4	E	0	M1
NMTTP	37	192	1	B	0	M1
NMTTP	37	192	2	B	0	M1
NMTTP	37	192	2	E	1	M1
BXHLD	38	0	7	1152
NMTAP	38	192	3
NMTAP	38	288	5
NMTAP	39	0	4
NMTAP	39	96	6
NMTAP	39	192	4
NMTAP	39	288	4
NMTTP	40	0	5	E	0	M1
NMTTP	40	96	6	E	0	M1
NMTTP	40	192	7	E	0	M1
NMTTP	40	288	0	E	0	M1
NMTHO	41	0	0	96	C	0	M1
BXTAP	41	192	0
BXTAP	41	192	7
BRTAP	42	0	3
BRTAP	42	0	4
NMHLD	42	96	5	672
NMTAP	42	192	4
NMTAP	42	240	4
NMTAP	42	336	6
NMTAP	43	0	6
NMSTR	43	96	7
NMSCL	43	96	7	96	96	4
NMTAP	44	0	3
NMTAP	44	48	3
NMTAP	44	96	6
NMTAP	44	144	6
NMTAP	44	192	4
NMTAP	44	240	4
NMTAP	44	288	7
NMTAP	44	336	7
NMTAP	45	0	5
NMTAP	45	48	5
NMSTR	45	96	4
NMSI_	45	96	4	96	96	2
NMSTR	45	96	6
NMSI_	45	96	6	96	96	2
NMHLD	46	0	0	96
NMHLD	46	0	1	96
NMHLD	46	192	2	96
NMHLD	46	192	3	96
NMTAP	47	0	2
NMTAP	47	0	4
NMTAP	47	72	3
NMTAP	47	72	5
NMTAP	47	144	4
NMTAP	47	144	6
NMHLD	47	192	4	96
NMHLD	47	192	6	96
NMTAP	48	0	5
NMTAP	48	48	5
NMTAP	48	96	4
NMTAP	48	144	6
NMTAP	48	192	2
NMTAP	48	240	2
BRTAP	48	288	0
NMTAP	49	0	1
NMTAP	49	0	3
NMTAP	49	96	4
NMTAP	49	96	6
NMTAP	49	192	0
NMTAP	49	192	7
BRTAP	49	288	2
BRTAP	49	288	5
NMTTP	50	0	0	B	0	M1
NMTTP	50	0	0	C	1	M1
NMTTP	50	0	1	B	0	M1
NMTTP	50	0	6	B	0	M1
NMTTP	50	0	7	B	0	M1
NMTHO	54	0	4	288	B	0	M1
NMTHO	54	0	5	288	B	0	M1
NMTHO	54	0	6	288	B	0	M1
NMTTP	55	192	0	C	0	M1
NMTHO	56	0	1	288	B	0	M1
NMTHO	56	0	2	288	B	0	M1
NMTHO	56	0	3	288	B	0	M1
NMTTP	57	192	0	C	0	M1
NMTTP	58	0	1	E	0	M1
NMTTP	58	96	2	E	0	M1
NMTTP	58	192	3	E	0	M1
NMTTP	58	288	4	E	0	M1
NMTTP	59	0	0	C	0	M1
NMTTP	59	0	5	E	0	M1
NMTTP	59	96	6	E	0	M1
NMTTP	59	192	7	E	0	M1
NMTTP	59	288	0	E	0	M1
NMTTP	60	0	0	C	0	M1
NMTTP	60	0	1	E	0	M1
NMTTP	60	96	2	E	0	M1
NMTTP	60	192	3	E	0	M1
NMTTP	60	288	4	E	0	M1
NMTHO	61	0	5	192	E	0	M1
NMTTP	61	192	7	B	0	M1
NMTTP	61	192	7	E	0	M1
NMSTR	62	0	0
NMSI_	62	0	0	96	96	4
NMSTR	62	192	7
NMSI_	62	192	7	96	96	3
NMSTR	63	0	1
NMSI_	63	0	1	96	96	4
NMSTR	63	192	6
NMSI_	63	192	6	96	96	3
NMTAP	64	0	2
NMTAP	64	48	2
NMHLD	64	96	2	96
NMTAP	64	192	0
NMTAP	64	240	0
NMHLD	64	288	0	96
NMTAP	65	0	7
NMTAP	65	48	7
NMHLD	65	96	7	96
NMTAP	65	192	5
NMTAP	65	240	5
NMHLD	65	288	5	96
NMTAP	66	0	2
NMTAP	66	48	2
NMTAP	66	96	6
NMTAP	66	144	6
NMTAP	66	192	0
NMTAP	66	216	7
NMTAP	66	240	0
NMTAP	66	264	7
NMTAP	66	288	0
NMTAP	66	312	7
NMTAP	66	336	0
NMTAP	66	360	7
NMHLD	67	0	0	288
BXSTR	67	288	7
NMSI_	67	288	7	96	48	3
BXSTR	68	0	1
BRSI_	68	0	1	96	96	4
CNSI_	68	192	4	0	96	7
CNSI_	68	288	7	0	144	2
CNSI_	69	48	2	0	96	5
EXTAP	69	288	4
EXTAP	69	288	5
BRTAP	70	0	6
BRTAP	70	0	7
NMTAP	70	96	1
NMTAP	70	144	0
NMTAP	70	144	2
NMTAP	70	240	5
NMTAP	70	288	4
NMTAP	70	288	6
BRTAP	71	0	0
BRTAP	71	0	1
NMTAP	71	96	6
NMTAP	71	144	5
NMTAP	71	144	7
NMTAP	71	240	2
NMSTR	71	288	1
NMSI_	71	288	1	96	48	7
NMTAP	71	288	3
BXSTR	72	0	6
BRSI_	72	0	6	96	96	1
CNSI_	72	192	1	0	96	4
CNSI_	72	288	4	0	96	7
CNSI_	73	0	7	0	144	3
EXTAP	73	288	1
EXTAP	73	288	3
NMTAP	74	0	2
NMTAP	74	48	2
NMTAP	74	96	3
NMHLD	74	144	1	96
NMTAP	74	240	0
EXTAP	74	288	2
EXTAP	74	288	7
NMTAP	75	0	6
NMTAP	75	48	6
NMTAP	75	96	7
NMHLD	75	144	5	96
NMTAP	75	240	4
EXTAP	75	288	3
EXTAP	75	288	6
BRTAP	76	0	3
BRTAP	76	0	6
NMTAP	76	96	5
NMTAP	76	144	5
NMTAP	76	192	4
NMSTR	76	288	6
NMSI_	76	288	6	96	48	4
NMSTR	76	288	7
NMSI_	76	288	7	96	48	3
NMSTR	77	96	0
NMSI_	77	96	0	96	48	2
NMSTR	77	96	7
NMSI_	77	96	7	96	48	3
NMTAP	77	288	1
NMTAP	77	288	4
NMTAP	78	0	1
NMTAP	78	0	4
NMTAP	78	96	2
NMTAP	78	144	2
NMTAP	78	192	3
NMSTR	78	288	0
NMSI_	78	288	0	96	48	4
NMSTR	78	288	1
NMSI_	78	288	1	96	48	3
NMSTR	79	96	0
NMSI_	79	96	0	96	48	4
NMSTR	79	96	7
NMSI_	79	96	7	96	48	5
NMTAP	79	288	3
NMTAP	79	288	6
NMTAP	80	0	3
NMTAP	80	0	6
NMTAP	80	96	1
NMTAP	80	96	4
NMTAP	80	192	1
NMTAP	80	192	4
NMSTR	80	288	5
NMSI_	80	288	5	96	48	0
NMSTR	81	96	1
NMSI_	81	96	1	96	48	4
NMTAP	81	96	7
NMTAP	81	288	5
NMHLD	82	0	4	96
NMHLD	82	0	6	96
NMHLD	82	144	3	96
NMHLD	82	144	4	96
NMTAP	82	288	1
NMTAP	82	288	3
NMTAP	82	336	1
NMTAP	82	336	3
NMTAP	83	48	0
NMTAP	83	48	4
NMTAP	83	144	2
NMTAP	83	144	6
NMSTR	83	192	2
NMSI_	83	192	2	96	48	4
NMSTR	83	192	6
NMSI_	83	192	6	96	48	0
BXTAP	84	0	3
BXTAP	84	0	7
NMTAP	84	96	7
NMTAP	84	144	0
NMHLD	84	192	1	96
NMTAP	84	288	3
NMTAP	84	336	3
NMTAP	85	48	4
NMTAP	85	48	6
NMTAP	85	144	6
NMTAP	85	144	7
NMSTR	85	192	6
NMSI_	85	192	6	96	48	2
NMSTR	85	192	7
NMSI_	85	192	7	96	48	3
BXTAP	86	0	0
BXTAP	86	0	1
NMTAP	86	96	0
NMTAP	86	144	7
NMHLD	86	192	6	96
NMTAP	86	288	4
NMTAP	86	336	4
NMTAP	87	48	1
NMTAP	87	48	3
NMTAP	87	144	0
NMTAP	87	144	1
NMSTR	87	192	0
NMSI_	87	192	0	96	48	4
NMSTR	87	192	1
NMSI_	87	192	1	96	48	4
BXTAP	88	0	5
NMSTR	88	96	6
NMSI_	88	96	6	96	48	2
NMSTR	88	192	7
NMSI_	88	192	7	96	48	1
NMTAP	89	0	2
NMTAP	89	0	3
NMSTR	89	96	1
NMSI_	89	96	1	96	48	5
NMSTR	89	192	0
NMSI_	89	192	0	96	48	6
NMTAP	90	0	4
NMTAP	90	0	5
BRTAP	90	96	6
BRTAP	90	96	7
BRTAP	90	192	2
BRTAP	90	192	3
BRTAP	90	288	0
BRTAP	90	288	1
NMTAP	91	0	2
NMTAP	91	48	2
NMTAP	91	96	0
NMTAP	91	144	0
NMTAP	91	192	7
NMTAP	91	240	7
NMTAP	91	288	5
NMTAP	91	336	5
BRTAP	92	0	3
NMTAP	92	96	2
NMTAP	92	96	3
NMTAP	92	144	1
NMTAP	92	144	4
NMTAP	92	240	4
NMTAP	92	240	5
NMTAP	92	288	3
NMSTR	92	288	6
NMSI_	92	288	6	96	48	2
NMSTR	93	0	0
NMSI_	93	0	0	96	48	4
NMSTR	93	96	7
NMSI_	93	96	7	96	48	3
NMSTR	93	192	1
NMSI_	93	192	1	96	48	5
BXSTR	93	288	4
BRSF_	93	288	4	96	48	0

T_REC_TAP	255
T_REC_BRK	24
T_REC_XTP	9
T_REC_BXX	10
T_REC_HLD	36
T_REC_XHO	0
T_REC_BHO	0
T_REC_BXH	2
T_REC_STR	42
T_REC_BST	0
T_REC_XST	1
T_REC_XBS	5
T_REC_TTP	36
T_REC_THO	8
T_REC_SLD	41
T_REC_BSL	7
T_REC_ALL	476
T_NUM_TAP	343
T_NUM_BRK	48
T_NUM_HLD	44
T_NUM_SLD	41
T_NUM_ALL	476
T_JUDGE_TAP	382
T_JUDGE_HLD	257
T_JUDGE_SLD	48
T_JUDGE_ALL	687
TTM_EACHPAIRS	103
TTM_SCR_TAP	171500
TTM_SCR_BRK	124800
TTM_SCR_HLD	44000
TTM_SCR_SLD	61500
TTM_SCR_ALL	401800
TTM_SCR_S	385100
TTM_SCR_SS	397000
TTM_RAT_ACV	10120

