VERSION	0.00.00	1.05.00
FES_MODE	0
BPM_DEF	162.000	162.000	162.000	162.000
MET_DEF	4	4
RESOLUTION	384
CLK_DEF	384
COMPATIBLE_CODE	MA2

BPM	0	0	162.000
MET	0	0	4	4

NMTTP	1	0	2	E	0	M1
NMTTP	1	48	3	E	0	M1
NMTTP	1	96	5	E	0	M1
NMTTP	1	144	6	E	0	M1
NMTTP	1	192	0	E	0	M1
NMTTP	1	240	0	C	0	M1
NMTHO	1	288	4	288	E	0	M1
NMTHO	2	0	3	192	E	0	M1
NMTHO	2	0	5	192	E	1	M1
NMSTR	3	0	2
NMSI_	3	0	2	96	48	4
NMTAP	3	144	5
NMHLD	3	192	5	384
NMTAP	4	48	4
NMTAP	4	96	4
NMTAP	4	192	6
NMTAP	4	288	4
NMTAP	4	288	5
NMSTR	5	0	5
NMSI_	5	0	5	96	48	3
NMTAP	5	144	2
NMHLD	5	192	2	384
NMTAP	6	48	3
NMTAP	6	96	3
NMTAP	6	192	1
NMTAP	6	288	2
NMTAP	6	288	3
NMHLD	7	0	4	48
NMHLD	7	0	5	48
NMHLD	7	96	4	48
NMHLD	7	96	5	48
NMHLD	7	192	4	48
NMHLD	7	192	6	48
NMHLD	7	288	4	48
NMHLD	7	288	5	48
NMHLD	8	0	4	48
NMHLD	8	0	7	48
NMHLD	8	96	4	48
NMHLD	8	96	5	48
NMTAP	8	192	3
NMTAP	8	192	6
NMTAP	8	240	2
NMTAP	8	240	5
BXTAP	8	288	1
BXTAP	8	288	4
NMHLD	9	0	2	48
NMHLD	9	0	3	48
NMHLD	9	96	2	48
NMHLD	9	96	3	48
NMHLD	9	192	1	48
NMHLD	9	192	3	48
NMHLD	9	288	2	48
NMHLD	9	288	3	48
NMHLD	10	0	0	48
NMHLD	10	0	3	48
NMHLD	10	96	2	48
NMHLD	10	96	3	48
NMTAP	10	192	1
NMTAP	10	192	4
NMTAP	10	240	2
NMTAP	10	240	5
BXTAP	10	288	4
BXTAP	10	288	7
NMTAP	11	0	3
NMTAP	11	0	6
NMTAP	11	48	6
NMTAP	11	96	6
NMTAP	11	144	5
NMTAP	11	144	6
NMTAP	11	192	6
NMTAP	11	240	3
NMTAP	11	240	6
NMTAP	11	288	6
NMTAP	11	336	4
NMTAP	11	336	6
NMTAP	12	0	4
NMTAP	12	0	6
NMTAP	12	48	6
NMTAP	12	96	6
NMSTR	12	144	6
NMSCL	12	144	6	96	72	4
NMTAP	12	144	7
NMTAP	12	240	0
NMTAP	12	288	0
NMTAP	13	0	1
NMTAP	13	0	4
NMTAP	13	48	1
NMTAP	13	96	1
NMTAP	13	144	1
NMTAP	13	144	2
NMTAP	13	192	1
NMTAP	13	240	1
NMTAP	13	240	4
NMTAP	13	288	1
NMTAP	13	336	1
NMTAP	13	336	3
NMTAP	14	0	1
NMSTR	14	0	3
NMSI_	14	0	3	96	48	6
NMSTR	14	96	1
NMSI_	14	96	1	96	48	6
NMSTR	14	192	7
NMSI_	14	192	7	96	48	4
NMTAP	14	288	0
NMTAP	15	0	1
NMTAP	15	0	3
NMTAP	15	48	1
NMTAP	15	96	2
NMTAP	15	96	4
NMTAP	15	144	4
NMTAP	15	192	3
NMTAP	15	192	5
NMTAP	15	240	3
NMTAP	15	288	4
BRTAP	15	288	7
NMTAP	16	0	4
NMTAP	16	0	6
NMTAP	16	48	6
NMTAP	16	96	3
NMTAP	16	96	5
NMTAP	16	144	3
NMTAP	16	192	2
NMTAP	16	192	4
NMTAP	16	240	4
BRTAP	16	288	0
NMTAP	16	288	3
NMTAP	17	0	1
NMTAP	17	24	3
NMTAP	17	48	1
NMTAP	17	72	3
NMTAP	17	96	2
NMTAP	17	120	4
NMTAP	17	144	2
NMTAP	17	168	4
NMTAP	17	192	3
NMTAP	17	216	5
NMTAP	17	240	3
NMTAP	17	264	5
NMTAP	17	288	4
NMTAP	17	312	6
NMTAP	17	336	4
NMTAP	17	360	6
BRTAP	18	0	5
NMTAP	18	192	0
NMTAP	18	192	7
NMTAP	18	240	0
NMTAP	18	264	7
NMSTR	18	288	1
NMSCR	18	288	1	96	48	4
NMTAP	18	288	6
NMTAP	19	0	0
BRSTR	19	0	1
NMSCL	19	0	1	96	48	6
BRSTR	19	96	1
NMSI_	19	96	1	96	48	5
NMTAP	19	96	4
BRTAP	19	192	1
NMTAP	19	192	5
NMSTR	19	288	6
NMSCL	19	288	6	96	48	3
BRTAP	19	288	7
BRSTR	20	0	0
NMSI_	20	0	0	96	48	5
NMTAP	20	0	6
NMTAP	20	96	0
BXTAP	20	96	4
BRTAP	20	192	6
BRTAP	20	216	7
BRTAP	20	240	6
BRTAP	20	264	7
BRSTR	20	288	6
NMSI_	20	288	6	96	48	2
BXTAP	21	0	6
NMTAP	21	0	7
NMTAP	21	48	0
NMTAP	21	72	0
NMSTR	21	96	1
NMSCR	21	96	1	96	48	4
BXTAP	21	96	7
BRSTR	21	192	0
NMSCL	21	192	0	96	48	5
NMTAP	21	192	1
NMTAP	21	288	0
BXTAP	21	288	3
NMHLD	22	0	2	48
NMTAP	22	48	3
NMHLD	22	96	5	48
NMTAP	22	144	4
NMTAP	22	192	3
NMTAP	22	192	6
NMTAP	22	240	2
NMTAP	22	288	1
NMTAP	22	288	5
BRTAP	23	0	6
NMTAP	23	0	7
NMTAP	23	48	0
BRTAP	23	48	7
BXSTR	23	96	0
NMSI_	23	96	0	96	48	6
NMTAP	23	96	1
NMTAP	23	144	2
NMTAP	23	168	2
BRSTR	23	192	0
NMSI_	23	192	0	96	48	2
BRSTR	23	288	0
NMSCL	23	288	0	96	48	5
NMTAP	23	288	5
BRTAP	24	0	0
NMTAP	24	0	4
BRTAP	24	96	3
BRTAP	24	96	6
BRTAP	24	192	4
NMTAP	24	192	5
BRTAP	24	240	4
NMTAP	24	240	5
EXSTR	24	288	5
NMSI_	24	288	5	96	48	0
EXTAP	24	312	4
EXTAP	24	336	6
BRTAP	25	0	3
NMTAP	25	0	5
BRHLD	25	96	1	48
BRHLD	25	96	7	48
BRHLD	25	168	4	48
BRHLD	25	168	6	48
BRHLD	25	240	2	48
BRHLD	25	240	3	48
BRTAP	25	312	0
BRTAP	25	312	5
NMTAP	26	0	6
NMTAP	26	0	7
NMTAP	26	48	5
NMTAP	26	96	0
NMSTR	26	96	1
NMSI_	26	96	1	96	48	5
NMTAP	26	144	2
NMSTR	26	192	7
NMSF_	26	192	7	96	48	3
BRTAP	26	288	7
NMHLD	27	0	6	48
NMTAP	27	48	4
NMHLD	27	96	6	48
NMTAP	27	144	4
NMHLD	27	192	5	48
NMTAP	27	240	4
NMTAP	27	288	4
NMTAP	27	288	5
NMHLD	28	0	2	48
NMTAP	28	48	3
NMHLD	28	96	2	48
NMTAP	28	144	3
NMHLD	28	192	1	48
NMTAP	28	240	3
NMTAP	28	288	1
NMTAP	28	288	3
NMTAP	29	0	0
NMTAP	29	48	0
NMTAP	29	96	6
NMTAP	29	144	6
NMTAP	29	192	1
NMTAP	29	216	2
NMTAP	29	240	3
NMTAP	29	264	4
NMTAP	29	288	7
NMTAP	29	312	6
NMTAP	29	336	5
NMTAP	29	360	4
NMTTP	30	0	0	B	0	M1
NMTTP	30	0	0	A	0	M1
NMTTP	30	0	1	B	0	M1
NMTTP	30	0	1	E	0	M1
NMTTP	30	0	1	A	0	M1
NMTTP	30	0	1	D	1	M1
NMTTP	30	96	4	B	0	M1
NMTTP	30	96	4	A	0	M1
NMTTP	30	96	5	B	0	M1
NMTTP	30	96	5	E	0	M1
NMTTP	30	96	5	A	0	M1
NMTTP	30	96	5	D	1	M1
NMTAP	30	192	6
NMTAP	30	240	6
NMSTR	30	288	0
NMSI_	30	288	0	96	48	2
NMSTR	30	288	7
NMSI_	30	288	7	96	48	2
BXSTR	31	0	0
NMSI_	31	0	0	96	48	5
BRSTR	31	0	7
NMSI_	31	0	7	96	48	5
BRSTR	31	96	0
NMSCR	31	96	0	96	48	3
BXSTR	31	96	7
NMSUR	31	96	7	96	48	3
BRTAP	31	192	0
BRTAP	31	192	7
EXSTR	31	288	7
NMSI_	31	288	7	96	48	4
NMSI_	31	288	7	96	48	5
EXTAP	31	336	0
BXTAP	31	336	6
BXSTR	32	0	7
NMSI_	32	0	7	96	48	1
NMSI_	32	0	7	96	48	2
BRTAP	32	96	7
BXTAP	32	192	3
NMTAP	32	192	4
NMTAP	32	240	4
BXTAP	32	240	5
NMSTR	32	288	3
NMSI_	32	288	3	96	48	1
NMSTR	32	288	6
NMSI_	32	288	6	96	48	0
NMTAP	32	312	3
NMTAP	32	312	6
BRTAP	33	0	3
BRTAP	33	0	6
EXTAP	33	96	0
BXTAP	33	96	1
NMTAP	33	144	2
NMTAP	33	168	3
BRSTR	33	192	1
NMSI_	33	192	1	96	48	3
NMSTR	33	192	4
NMSI_	33	192	4	96	48	0
NMTAP	33	288	1
BRTAP	33	288	4
EXTAP	34	0	2
EXTAP	34	0	7
NMTAP	34	96	4
NMTAP	34	96	6
NMTAP	34	144	5
NMTAP	34	192	2
NMTAP	34	192	4
NMTAP	34	240	0
EXSTR	34	288	1
NMSI_	34	288	1	96	48	5
EXSTR	34	288	7
NMSI_	34	288	7	96	48	5
NMSTR	35	0	1
NMSI_	35	0	1	96	48	3
BRSTR	35	0	7
NMSI_	35	0	7	96	48	3
BRSTR	35	96	1
NMSI_	35	96	1	96	48	5
NMSTR	35	96	7
NMSI_	35	96	7	96	48	5
NMTAP	35	192	1
BRTAP	35	192	7
NMSTR	35	288	6
NMSCL	35	288	6	96	48	3
NMSTR	35	288	7
NMSUL	35	288	7	96	48	3
BRSTR	36	0	6
NMSUR	36	0	6	96	48	2
BRSTR	36	0	7
NMSCR	36	0	7	96	48	2
BRTAP	36	96	6
BRTAP	36	96	7
EXTAP	36	192	6
BXTAP	36	192	7
EXTAP	36	240	6
EXTAP	36	240	7
EXTAP	36	264	0
EXTAP	36	264	5
EXHLD	36	288	1	168
EXTAP	36	288	4
NMTTP	37	0	5	B	1	M1
NMTTP	37	0	5	E	0	M1
NMTTP	37	0	6	E	0	M1
NMTTP	37	72	2	B	1	M1
NMTTP	37	72	2	E	0	M1
NMTTP	37	72	3	E	0	M1
BRTAP	37	144	7
BRTAP	37	168	0
BRSTR	37	192	7
NMSCL	37	192	7	96	48	4
NMSCR	37	192	7	96	48	2
BRTAP	37	288	7
BRSTR	38	0	0
BRSI_	38	0	0	96	96	5
BRSTR	38	0	6
BRSI_	38	0	6	96	96	1
CNSV_	38	192	1	0	96	3
CNSV_	38	192	5	0	96	3
BXTAP	39	0	1
NMHLD	39	0	5	768
NMHLD	41	0	4	384
NMHLD	42	0	3	192
NMHLD	42	192	1	96
NMTAP	42	288	3
NMTAP	42	336	2
NMTAP	43	0	1
NMTAP	43	0	4
NMTAP	43	48	2
NMTAP	43	72	3
NMTAP	43	96	2
NMTAP	43	144	1
NMTAP	43	144	4
NMTAP	43	192	2
NMHLD	43	216	3	72
NMTAP	43	288	2
NMTAP	43	336	2
NMTAP	43	336	3
NMTAP	44	0	3
NMTAP	44	0	4
NMTAP	44	48	5
NMTAP	44	72	4
NMTAP	44	96	5
NMTAP	44	144	3
NMTAP	44	144	6
NMTAP	44	192	5
NMHLD	44	216	4	72
NMTAP	44	288	5
NMTAP	44	336	4
NMTAP	44	336	5
NMTAP	45	0	3
NMTAP	45	0	4
NMTAP	45	48	2
NMTAP	45	72	3
NMTAP	45	96	2
NMTAP	45	144	1
NMTAP	45	144	4
NMTAP	45	192	2
NMHLD	45	216	3	72
NMTAP	45	288	2
NMTAP	45	336	2
NMTAP	45	336	3
NMTTP	46	0	4	E	0	M1
NMTTP	46	16	5	E	0	M1
NMTTP	46	32	6	E	0	M1
NMTTP	46	48	7	E	0	M1
NMTTP	46	64	0	E	0	M1
NMTTP	46	80	1	E	0	M1
EXTAP	46	96	2
EXTAP	46	128	2
EXTAP	46	160	2
EXHLD	46	192	2	96
NMTTP	46	288	3	B	0	M1
NMTTP	46	288	3	A	0	M1
BXSTR	47	0	2
NMSCL	47	0	2	96	384	3
BXTAP	47	0	4
NMSTR	48	0	3
NMSCL	48	0	3	96	384	4
NMSTR	49	0	4
NMSCL	49	0	4	96	384	5
NMSTR	50	0	5
NMSUR	50	0	5	96	192	3
NMTHO	50	192	4	96	E	0	M1
NMHLD	51	0	2	48
NMTAP	51	0	4
NMHLD	51	96	2	48
NMTAP	51	96	4
NMTAP	51	192	3
NMHLD	51	192	5	48
NMTAP	51	288	3
NMHLD	51	288	5	48
NMHLD	52	0	1	48
NMTAP	52	0	3
NMHLD	52	96	1	48
NMTAP	52	96	3
EXTAP	52	192	3
EXTAP	52	192	5
EXTAP	52	264	3
EXTAP	52	264	5
NMTAP	52	336	3
NMTAP	52	360	4
NMTAP	53	0	2
NMTAP	53	48	1
NMTAP	53	48	3
NMTAP	53	96	0
NMTAP	53	144	1
NMTAP	53	144	7
NMHLD	53	192	6	72
NMTAP	53	264	4
NMTAP	53	288	5
NMTAP	53	336	3
NMTAP	53	336	4
NMTAP	54	0	3
NMTAP	54	0	4
NMTAP	54	48	5
NMTAP	54	72	5
NMTAP	54	96	4
NMTAP	54	144	6
NMTAP	54	192	7
NMTAP	54	240	0
NMTAP	54	288	1
NMTAP	54	288	6
NMHLD	55	0	5	48
NMTAP	55	48	4
NMHLD	55	96	5	48
NMTAP	55	144	4
NMHLD	55	192	6	48
NMTAP	55	240	4
NMHLD	55	288	6	48
NMTAP	55	336	4
NMHLD	56	0	7	48
NMTAP	56	48	4
NMHLD	56	96	7	48
NMTAP	56	144	4
NMTAP	56	192	7
NMTAP	56	216	6
NMTAP	56	240	5
NMTAP	56	264	4
NMTAP	56	288	1
NMTAP	56	288	3
NMHLD	57	0	2	48
NMTAP	57	48	3
NMHLD	57	96	2	48
NMTAP	57	144	3
NMHLD	57	192	1	48
NMTAP	57	240	3
NMHLD	57	288	1	48
NMTAP	57	336	3
NMSTR	58	0	2
NMSI_	58	0	2	96	48	4
NMTAP	58	72	3
NMTAP	58	96	2
NMTAP	58	144	6
NMTAP	58	192	5
NMTAP	58	216	4
NMTAP	58	240	5
NMTAP	58	288	3
NMTAP	58	288	6
NMTAP	59	0	5
NMTAP	59	48	5
NMTAP	59	96	4
NMTAP	59	96	5
NMTAP	59	144	5
NMSTR	59	192	5
NMSI_	59	192	5	96	48	3
NMTAP	59	192	6
NMTAP	59	240	5
NMHLD	59	288	5	48
NMTAP	60	0	1
NMTAP	60	48	1
NMTAP	60	96	0
NMTAP	60	96	1
NMTAP	60	144	1
NMSTR	60	192	1
NMSI_	60	192	1	96	48	7
NMTAP	60	192	2
NMTAP	60	240	1
NMHLD	60	288	1	48
NMTAP	61	0	6
NMTAP	61	24	4
NMTAP	61	48	6
NMTAP	61	72	4
NMTAP	61	96	5
NMTAP	61	120	3
NMTAP	61	144	5
NMTAP	61	168	3
NMTAP	61	192	4
NMTAP	61	216	2
NMTAP	61	240	4
NMTAP	61	264	2
NMTAP	61	288	3
NMTAP	61	312	1
NMTAP	61	336	3
NMTAP	61	360	1
NMTAP	62	0	2
NMTAP	62	48	2
NMTAP	62	96	1
NMTAP	62	96	3
NMTAP	62	144	0
NMTAP	62	168	0
NMSTR	62	192	7
NMSI_	62	192	7	96	48	3
NMTAP	62	240	0
NMTAP	62	240	6
BXTAP	62	288	7
NMHLD	63	0	0	288
NMTTP	63	0	2	B	1	M1
NMTTP	63	0	2	E	0	M1
NMTTP	63	0	3	E	0	M1
NMTTP	64	0	4	B	1	M1
NMTTP	64	0	4	E	0	M1
NMTTP	64	0	5	E	0	M1
NMHLD	64	0	6	288
EXTAP	64	288	0
NMHLD	65	0	1	96
NMHLD	65	96	3	96
NMHLD	65	192	4	96
NMTAP	65	288	5
NMTAP	66	0	6
NMTAP	66	24	6
NMTAP	66	48	4
NMTAP	66	72	4
NMTAP	66	96	7
NMTAP	66	144	0
NMTAP	66	144	6
NMHLD	66	192	1	48
NMHLD	66	192	5	48
NMTAP	66	288	2
NMSTR	66	288	6
NMSI_	66	288	6	96	48	2
NMSTR	67	0	0
NMSI_	67	0	0	96	48	4
NMTTP	67	0	6	A	1	M1
NMTTP	67	96	0	A	1	M1
NMSTR	67	96	7
NMSI_	67	96	7	96	48	3
NMSTR	67	192	1
NMSI_	67	192	1	96	48	5
NMTTP	67	192	7	A	1	M1
NMSTR	67	288	0
NMSI_	67	288	0	96	48	4
NMTTP	67	288	1	A	1	M1
NMTTP	68	0	0	A	1	M1
NMSTR	68	0	2
NMSI_	68	0	2	96	48	7
NMTTP	68	96	2	A	1	M1
NMSTR	68	96	3
NMSI_	68	96	3	96	48	6
NMTAP	68	192	0
NMTTP	68	192	3	A	1	M1
NMTAP	68	240	1
BRTAP	68	288	2
BRTAP	68	288	7
BRTAP	69	0	6
BRTAP	69	24	3
BRTAP	69	48	5
BRTAP	69	72	4
BRSTR	69	96	7
NMSI_	69	96	7	96	48	2
NMTAP	69	192	3
NMTTP	69	192	7	A	1	M1
BRTAP	69	264	4
BRSTR	69	288	4
NMSCL	69	288	4	96	48	1
NMTAP	69	336	5
NMTAP	69	360	5
NMTAP	70	0	4
NMTAP	70	48	6
NMTAP	70	96	0
NMTAP	70	96	6
NMTAP	70	144	1
NMTAP	70	192	1
NMTAP	70	192	7
NMTAP	70	240	3
NMTAP	70	240	5
NMSTR	70	288	3
NMSCL	70	288	3	96	48	1
NMSTR	70	288	5
NMSCL	70	288	5	96	48	3
NMSTR	71	0	3
NMSI_	71	0	3	96	48	7
BXTAP	71	0	5
NMTTP	71	96	1	B	1	M1
NMTTP	71	96	1	E	0	M1
NMTTP	71	96	2	E	0	M1
EXTAP	71	96	3
NMTAP	71	192	0
NMTAP	71	192	6
NMTAP	71	240	5
NMTAP	71	264	5
NMSTR	71	288	7
NMSCR	71	288	7	96	48	2
NMTAP	71	312	6
NMTTP	72	0	4	B	1	M1
NMTTP	72	0	5	E	0	M1
NMSTR	72	0	7
NMSCL	72	0	7	96	48	4
NMTTP	72	96	1	B	1	M1
NMTTP	72	96	1	A	0	M1
NMTAP	72	96	7
BRHLD	72	168	0	48
EXTAP	72	216	3
EXTAP	72	240	3
BRTAP	72	288	0
EXTAP	72	336	1
EXTAP	72	352	3
EXTAP	72	368	2
EXSTR	73	0	4
NMSF_	73	0	4	96	48	0
NMTTP	73	96	4	A	1	M1
NMTTP	73	96	4	D	0	M1
NMTTP	73	96	5	D	0	M1
NMTAP	73	192	2
NMTAP	73	192	6
NMTAP	73	240	1
NMTAP	73	240	5
NMTAP	73	288	0
NMTAP	73	288	4
NMTAP	73	312	0
NMTAP	73	312	4
NMTAP	74	0	1
NMTAP	74	0	3
NMTAP	74	48	2
NMTAP	74	96	3
NMTAP	74	96	5
NMTAP	74	144	4
NMTAP	74	192	2
NMSTR	74	192	6
NMSCL	74	192	6	96	48	3
NMHLD	74	288	0	1248
BRTAP	74	288	6
NMTTP	75	0	3	E	0	M1
NMTTP	75	0	3	D	0	M1
NMTTP	75	96	5	E	0	M1
NMTTP	75	96	5	D	0	M1
NMTTP	75	192	7	E	0	M1
NMTTP	75	192	7	D	0	M1
NMTTP	75	288	1	E	0	M1
NMTTP	75	288	1	D	0	M1
NMTTP	75	360	2	B	0	M1
NMTTP	75	360	2	A	0	M1
NMTTP	76	60	4	E	0	M1
NMTTP	76	60	4	D	0	M1
NMTTP	76	144	5	B	0	M1
NMTTP	76	144	5	A	0	M1
NMTTP	76	204	7	E	0	M1
NMTTP	76	204	7	D	0	M1
NMTTP	76	252	1	E	0	M1
NMTTP	76	252	1	D	0	M1
NMTTP	76	288	2	E	0	M1
NMTTP	76	320	3	E	0	M1
NMTTP	76	352	4	E	0	M1
NMTTP	77	0	5	E	0	M1
NMTTP	77	32	6	E	0	M1
NMTTP	77	64	7	E	0	M1
NMTTP	77	96	0	E	0	M1
NMTTP	77	128	1	E	0	M1
NMTTP	77	144	2	D	0	M1
NMTTP	77	168	3	D	0	M1
NMTTP	77	192	4	D	0	M1
NMTTP	77	216	5	D	0	M1
NMTTP	77	240	6	D	0	M1
NMTTP	77	264	7	D	0	M1
NMTTP	77	288	0	D	0	M1
NMTTP	77	312	1	D	0	M1
NMTTP	77	336	2	D	0	M1
NMTTP	77	360	3	D	0	M1
NMTHO	78	0	4	0	E	0	M1
NMTHO	78	0	4	0	D	0	M1
NMTAP	78	192	1
NMTAP	78	192	6
NMTAP	78	240	0
NMTAP	78	240	7
NMTAP	78	288	0
NMSTR	78	288	7
NMSI_	78	288	7	96	48	3
BXSTR	79	0	3
NMSCL	79	0	3	96	48	0
BXSTR	79	96	0
NMSI_	79	96	0	96	48	4
BXSTR	79	192	4
NMSCR	79	192	4	96	48	7
BXTAP	79	288	0
BXTAP	79	336	1
BXHLD	80	0	0	48
BXHLD	80	0	2	48
NMHLD	80	96	5	48
NMHLD	80	96	7	48
NMTAP	80	192	3
NMSTR	80	192	4
BRSI_	80	192	4	96	48	0
BRSTR	80	288	2
BRSI_	80	288	2	96	48	7
NMTAP	80	288	4
BRTAP	80	336	1
BRTAP	81	0	2
BXSTR	81	0	6
BRSV_	81	0	6	96	48	3
BXSTR	81	96	4
BRSCR	81	96	4	96	48	7
NMTAP	81	96	6
BXSTR	81	192	2
BRSI_	81	192	2	96	48	5
NMTAP	81	192	4
BRSTR	81	288	0
BRSUL	81	288	0	96	48	4
NMTAP	81	288	2
NMTAP	82	0	0
BRSTR	82	0	4
BRSLL	82	0	4	96	48	0
BXTAP	82	96	4
BRTAP	82	144	5
NMTAP	82	192	6
NMTAP	82	216	6
NMTAP	82	240	7
EXTAP	82	288	0
EXTAP	82	288	5
EXTAP	82	336	1
EXTAP	82	348	2
EXTAP	82	360	3
EXTAP	82	372	4
BXSTR	83	0	5
BRSI_	83	0	5	96	48	0
NMTAP	83	0	7
NMTAP	83	48	6
NMTAP	83	72	6
BXSTR	83	96	5
BRSI_	83	96	5	96	48	1
BRSTR	83	192	5
BRSCL	83	192	5	96	48	2
NMTAP	83	192	7
BRSTR	83	288	5
NMSUR	83	288	5	96	48	1
NMSTR	83	288	6
NMSCR	83	288	6	96	48	0
BRSTR	84	0	5
NMSCL	84	0	5	96	48	3
NMSTR	84	0	6
NMSUL	84	0	6	96	48	2
NMTAP	84	96	5
BRTAP	84	96	6
NMTAP	84	192	1
NMTAP	84	192	4
NMTAP	84	288	2
BRTAP	84	288	3
BRTAP	84	336	3
NMTAP	84	336	4
BRSTR	85	0	4
NMSI_	85	0	4	96	48	0
NMSLR	85	0	4	96	48	0
NMTAP	85	0	5
NMTTP	85	96	4	A	1	M1
NMTTP	85	96	4	D	0	M1
NMTTP	85	96	5	D	0	M1
BRTAP	85	192	2
BRTAP	85	192	6
BXTAP	85	264	0
BXSTR	85	288	7
BRSSR	85	288	7	96	192	3
BXTAP	85	336	1
BXTAP	85	336	5
NMTHO	86	0	2	288	B	0	M1
NMTAP	86	288	4
NMTAP	87	0	1
NMTAP	87	0	5
NMTAP	87	48	0
NMTAP	87	72	6
NMSTR	87	96	0
BRSF_	87	96	0	96	48	4
NMTAP	87	144	1
NMTAP	87	144	7
NMTTP	87	192	0	A	1	M1
NMTTP	87	192	0	D	0	M1
NMTTP	87	192	1	D	0	M1
BRTAP	87	288	2
BRTAP	87	288	6
NMTAP	87	336	5
NMTAP	87	360	4
EXTAP	88	0	6
NMTAP	88	24	4
NMTAP	88	48	5
NMTAP	88	72	4
EXTAP	88	96	6
NMTAP	88	120	4
NMTAP	88	144	5
NMTAP	88	168	4
EXTAP	88	192	7
NMTAP	88	216	4
NMTAP	88	240	5
NMTAP	88	264	4
EXTAP	88	288	7
NMTAP	88	336	2
NMTAP	88	360	3
EXTAP	89	0	1
NMTAP	89	24	3
NMTAP	89	48	2
NMTAP	89	72	3
EXTAP	89	96	1
NMTAP	89	120	3
NMTAP	89	144	2
NMTAP	89	168	3
EXTAP	89	192	0
NMTAP	89	216	3
NMTAP	89	240	2
NMTAP	89	264	3
EXTAP	89	288	0
NMTAP	89	336	5
NMTAP	89	360	4
EXTAP	90	0	7
NMTAP	90	48	0
EXTAP	90	48	6
EXTAP	90	72	0
NMTAP	90	72	6
EXTAP	90	120	1
NMTAP	90	120	5
NMTAP	90	144	1
EXTAP	90	144	5
BRTAP	90	192	2
BRTAP	90	216	6
BRTAP	90	240	0
BRTAP	90	264	4
NMTTP	90	288	0	C	1	M1
NMTTP	90	288	1	B	0	M1
NMTTP	90	288	1	A	0	M1
NMTTP	90	288	5	B	0	M1
NMTTP	90	288	5	A	0	M1
NMTAP	91	0	6
BRTAP	91	0	7
NMTAP	91	24	6
BRTAP	91	24	7
NMTAP	91	48	6
BRTAP	91	48	7
NMTAP	91	96	0
BRTAP	91	96	1
NMTAP	91	120	0
BRTAP	91	120	1
NMTAP	91	144	0
BRTAP	91	144	1
EXTAP	91	192	2
EXSTR	91	192	7
NMSLL	91	192	7	96	48	3
NMTAP	91	240	1
NMTAP	91	264	1
BXSTR	91	288	7
NMSI_	91	288	7	96	48	2
NMTAP	91	336	0
NMTAP	91	360	0
BXSTR	92	0	7
NMSCL	92	0	7	96	48	5
NMSUL	92	0	7	96	48	3
BRTAP	92	96	7
BRTAP	92	192	2
BRTAP	92	192	4
BRTAP	92	240	0
BRTAP	92	240	6
NMTAP	92	288	1
NMTAP	92	288	5
BRHLD	93	0	2	48
BRHLD	93	0	3	48
BRTAP	93	96	0
BRTAP	93	96	7
BRTAP	93	144	4
BRTAP	93	144	5
BRSTR	93	192	2
NMSI_	93	192	2	96	48	5
BRTAP	93	192	3
EXTAP	93	264	3
BXTAP	93	288	2
BXHLD	93	336	6	96
NMTAP	94	0	4
BRTAP	94	48	4
BXTAP	94	64	3
BXTAP	94	80	2
BXTAP	94	96	1
EXTAP	94	144	7
BXSTR	94	192	7
BRSF_	94	192	7	96	48	3
EXTAP	94	216	0
EXTAP	94	216	6
EXTAP	94	240	1
EXTAP	94	240	5
BXTAP	94	288	7
NMTTP	95	0	0	B	0	M1
NMTTP	95	0	0	C	1	M1
NMTTP	95	0	0	A	0	M1
NMTTP	95	0	1	B	0	M1
NMTTP	95	0	1	A	0	M1
NMTTP	95	0	2	B	0	M1
NMTTP	95	0	2	A	0	M1
NMTTP	95	0	3	B	0	M1
NMTTP	95	0	4	B	0	M1
NMTTP	95	0	4	A	0	M1
NMTTP	95	0	5	B	0	M1
NMTTP	95	0	5	A	0	M1
NMTTP	95	0	6	B	0	M1
NMTTP	95	0	6	A	0	M1
NMTTP	95	0	7	B	0	M1

T_REC_TAP	405
T_REC_BRK	72
T_REC_XTP	52
T_REC_BXX	28
T_REC_HLD	70
T_REC_XHO	2
T_REC_BHO	9
T_REC_BXH	3
T_REC_STR	45
T_REC_BST	27
T_REC_XST	6
T_REC_XBS	17
T_REC_TTP	118
T_REC_THO	7
T_REC_SLD	85
T_REC_BSL	15
T_REC_ALL	961
T_NUM_TAP	626
T_NUM_BRK	171
T_NUM_HLD	79
T_NUM_SLD	85
T_NUM_ALL	961
T_JUDGE_TAP	770
T_JUDGE_HLD	195
T_JUDGE_SLD	100
T_JUDGE_ALL	1065
TTM_EACHPAIRS	195
TTM_SCR_TAP	313000
TTM_SCR_BRK	444600
TTM_SCR_HLD	79000
TTM_SCR_SLD	127500
TTM_SCR_ALL	964100
TTM_SCR_S	918600
TTM_SCR_SS	947000
TTM_RAT_ACV	10180

