VERSION	0.00.00	1.05.00
FES_MODE	0
BPM_DEF	162.000	162.000	162.000	162.000
MET_DEF	4	4
RESOLUTION	384
CLK_DEF	384
COMPATIBLE_CODE	MA2

BPM	0	0	162.000
MET	0	0	4	4

NMTHO	1	0	0	384	C	1	M1
NMTHO	1	0	1	384	B	0	M1
NMTHO	1	0	6	384	B	0	M1
NMSTR	3	0	7
NMSCL	3	0	7	96	144	4
NMTAP	4	0	3
NMTAP	4	96	3
NMTAP	4	192	2
NMTAP	4	288	1
NMSTR	5	0	0
NMSCR	5	0	0	96	144	3
NMTAP	6	0	4
NMTAP	6	96	4
NMTAP	6	192	5
NMTAP	6	288	4
NMTAP	6	288	6
NMSTR	7	0	7
NMSI_	7	0	7	96	96	3
NMSTR	7	192	1
NMSI_	7	192	1	96	96	5
NMSTR	8	0	6
NMSI_	8	0	6	96	96	2
NMSTR	8	192	0
NMSI_	8	192	0	96	96	4
NMTAP	9	0	6
NMTAP	9	48	6
NMTAP	9	96	4
NMTAP	9	144	4
NMTAP	9	192	5
NMTAP	9	288	3
NMTAP	9	288	6
NMTAP	10	0	1
NMTAP	10	48	1
NMTAP	10	96	3
NMTAP	10	144	3
NMTAP	10	192	2
NMTAP	10	288	1
NMTAP	10	288	4
NMHLD	11	0	6	96
NMTAP	11	96	4
NMHLD	11	144	4	96
NMTAP	11	240	5
NMTAP	11	336	2
NMHLD	12	0	2	96
NMTAP	12	96	3
NMHLD	12	144	3	96
NMTAP	12	240	1
NMTAP	12	288	1
NMHLD	13	0	5	96
NMTAP	13	96	4
NMHLD	13	144	4	96
NMTAP	13	240	6
NMTAP	13	336	2
NMTAP	14	0	1
NMTAP	14	0	3
NMTAP	14	96	4
NMTAP	14	96	6
NMTAP	14	192	1
NMTAP	14	192	3
NMTAP	14	288	3
NMTAP	14	288	5
NMTAP	15	0	6
NMTAP	15	48	6
NMTAP	15	96	6
NMTAP	15	144	6
NMTAP	15	192	4
NMTAP	15	192	5
NMTAP	15	240	4
NMTAP	15	240	5
NMTAP	15	288	4
NMTAP	15	288	5
NMTAP	16	0	1
NMTAP	16	48	1
NMTAP	16	96	1
NMTAP	16	144	1
NMTAP	16	192	2
NMTAP	16	192	3
NMTAP	16	240	2
NMTAP	16	240	3
NMTAP	16	288	2
NMTAP	16	288	3
NMTAP	17	0	4
NMTAP	17	48	5
NMTAP	17	96	6
NMTAP	17	144	7
NMTAP	17	192	0
NMTAP	17	240	1
NMTAP	17	288	2
NMTAP	17	336	3
NMTAP	18	0	4
NMTAP	18	48	4
NMTAP	18	96	4
NMTAP	18	144	4
NMTAP	18	192	3
NMTAP	18	192	5
NMTAP	18	240	3
NMTAP	18	240	5
BRTAP	18	288	2
BRTAP	18	288	6
NMHLD	19	0	1	48
NMHLD	19	0	7	48
NMHLD	19	96	0	48
NMHLD	19	96	6	48
NMHLD	19	192	4	48
NMHLD	19	192	5	48
NMHLD	19	288	2	48
NMHLD	19	288	3	48
NMHLD	20	0	1	48
NMHLD	20	0	7	48
NMHLD	20	96	0	48
NMHLD	20	96	6	48
NMTAP	20	192	5
NMTAP	20	240	5
NMTAP	20	288	4
NMTAP	20	288	6
NMTAP	21	0	1
NMTAP	21	0	7
NMTAP	21	48	1
NMTAP	21	48	7
NMTAP	21	96	1
NMTAP	21	96	7
NMTAP	21	192	0
NMTAP	21	192	1
NMSTR	21	288	7
NMSI_	21	288	7	96	48	4
NMSTR	22	0	0
NMSI_	22	0	0	96	48	3
NMSTR	22	96	7
NMSCL	22	96	7	96	48	4
NMSTR	22	192	0
NMSCR	22	192	0	96	48	3
NMHLD	22	288	7	96
EXTAP	23	0	4
EXTAP	23	48	4
NMTAP	23	96	5
NMTAP	23	96	6
NMTAP	23	144	5
NMTAP	23	144	6
NMTAP	23	192	5
NMTAP	23	192	6
NMHLD	23	288	6	48
NMHLD	23	288	7	48
NMHLD	24	0	3	48
NMHLD	24	0	4	48
NMHLD	24	96	0	48
NMHLD	24	96	1	48
NMTAP	24	192	1
NMTAP	24	192	2
NMTAP	24	240	1
NMTAP	24	240	2
NMTAP	24	288	3
NMTAP	24	336	3
NMTAP	25	0	2
NMTAP	25	0	4
NMTAP	25	96	3
NMTAP	25	96	5
EXTAP	25	168	3
EXTAP	25	168	5
NMTAP	25	240	2
NMTAP	25	240	4
EXTAP	25	312	2
EXTAP	25	312	4
NMTAP	26	0	1
NMTAP	26	48	1
NMTAP	26	96	3
NMTAP	26	144	2
NMTAP	26	192	6
NMTAP	26	240	6
NMTAP	26	288	4
NMTAP	26	336	5
NMSTR	27	0	2
NMSI_	27	0	2	96	48	0
NMTAP	27	192	7
NMTAP	27	240	7
NMTAP	27	288	4
NMTAP	27	288	6
NMSTR	28	0	5
NMSI_	28	0	5	96	48	7
NMTAP	28	192	0
NMTAP	28	240	0
NMTAP	28	288	1
NMTAP	28	288	3
NMTAP	29	0	2
NMTAP	29	48	2
NMTAP	29	96	0
NMTAP	29	96	1
NMTAP	29	192	5
NMTAP	29	240	5
NMTAP	29	288	6
NMTAP	29	288	7
EXTAP	30	0	4
EXTAP	30	0	5
EXTAP	30	96	2
EXTAP	30	96	3
EXTAP	30	192	0
EXTAP	30	192	1
EXTAP	30	240	0
EXTAP	30	240	1
BRTAP	30	288	2
BRTAP	30	288	7
NMTTP	31	0	0	B	0	M1
NMTTP	31	0	1	B	0	M1
NMTTP	31	0	1	E	1	M1
NMTTP	31	96	2	B	0	M1
NMTTP	31	96	3	B	0	M1
NMTTP	31	96	3	E	1	M1
NMTTP	31	192	6	B	0	M1
NMTTP	31	192	7	B	0	M1
NMTTP	31	192	7	E	1	M1
NMTTP	31	288	4	B	0	M1
NMTTP	31	288	5	B	0	M1
NMTTP	31	288	5	E	1	M1
NMTTP	32	0	0	A	0	M1
NMTTP	32	0	1	E	1	M1
NMTTP	32	0	1	D	0	M1
NMTTP	32	96	3	E	1	M1
NMTTP	32	96	3	A	0	M1
NMTTP	32	96	3	D	0	M1
NMTTP	32	192	7	E	1	M1
NMTTP	32	192	7	A	0	M1
NMTTP	32	192	7	D	0	M1
NMTTP	32	288	4	A	0	M1
NMTTP	32	288	5	E	1	M1
NMTTP	32	288	5	D	0	M1
NMTTP	33	0	2	B	0	M1
NMTTP	33	0	2	E	0	M1
NMTTP	33	0	2	A	1	M1
NMTTP	33	96	3	B	0	M1
NMTTP	33	96	4	B	0	M1
NMTTP	33	96	4	E	1	M1
NMTTP	33	192	5	B	0	M1
NMTTP	33	192	5	A	1	M1
NMTTP	33	192	6	E	0	M1
EXTAP	33	288	7
NMTAP	34	0	6
NMTAP	34	48	6
NMTAP	34	96	0
NMTAP	34	144	7
NMTAP	34	192	1
NMTAP	34	240	1
BRTAP	34	288	3
NMTTP	35	0	2	B	1	M1
NMTTP	35	0	2	E	0	M1
NMTTP	35	0	3	E	0	M1
NMTTP	35	96	0	B	1	M1
NMTTP	35	96	0	E	0	M1
NMTTP	35	96	1	E	0	M1
NMTTP	35	192	4	B	1	M1
NMTTP	35	192	4	E	0	M1
NMTTP	35	192	5	E	0	M1
NMTTP	35	288	6	B	1	M1
NMTTP	35	288	6	E	0	M1
NMTTP	35	288	7	E	0	M1
NMTTP	36	0	2	A	0	M1
NMTTP	36	0	3	B	0	M1
NMTTP	36	0	3	E	1	M1
NMTTP	36	0	3	D	0	M1
NMTTP	36	96	0	B	0	M1
NMTTP	36	96	1	E	1	M1
NMTTP	36	96	1	A	0	M1
NMTTP	36	96	1	D	0	M1
NMTTP	36	192	6	A	0	M1
NMTTP	36	192	7	B	0	M1
NMTTP	36	192	7	E	1	M1
NMTTP	36	192	7	D	0	M1
EXTAP	36	288	4
EXTAP	36	288	5
EXTAP	37	0	4
EXTAP	37	0	5
EXTAP	37	72	3
EXTAP	37	72	4
EXTAP	37	144	2
EXTAP	37	144	3
EXTAP	37	192	2
EXTAP	37	192	3
NMTAP	37	288	3
NMTAP	37	288	4
NMTAP	38	0	2
NMTAP	38	72	2
NMTAP	38	96	4
NMTAP	38	168	4
NMTAP	38	192	3
NMTAP	38	264	3
BRSTR	38	288	5
NMSCL	38	288	5	96	576	6
NMTTP	39	0	0	C	1	M1
NMSTR	41	0	7
NMSF_	41	0	7	96	192	3
NMHLD	42	0	2	192
NMHLD	42	0	4	192
EXTAP	42	288	3
EXTAP	42	288	5
EXTAP	42	336	3
EXTAP	42	336	5
NMHLD	43	0	6	1056
NMTAP	43	96	4
NMTAP	43	192	4
NMTAP	43	288	7
NMTAP	44	0	0
NMTAP	44	96	4
NMTAP	44	144	4
NMTAP	44	192	3
NMTAP	44	288	7
NMTAP	45	0	4
NMTAP	45	96	4
NMTAP	45	144	4
NMTAP	45	192	3
NMSTR	45	288	4
NMSI_	45	288	4	96	96	0
CNSCL	46	96	0	0	48	7
CNSI_	46	144	7	0	96	3
NMHLD	47	0	0	288
NMHLD	47	0	2	288
NMHLD	48	0	5	288
NMHLD	48	0	7	288
NMHLD	49	0	1	288
NMHLD	49	0	3	288
NMHLD	50	0	4	192
NMHLD	50	0	6	288
NMTAP	50	288	4
NMTAP	51	0	2
NMTAP	51	96	1
NMTAP	51	192	0
NMTAP	51	288	7
NMTAP	52	0	6
NMTAP	52	96	5
NMTAP	52	192	4
NMTAP	52	192	5
NMTAP	52	264	3
NMTAP	52	264	4
NMTAP	52	336	2
NMTAP	52	336	3
NMTAP	53	0	2
NMTAP	53	0	3
NMTAP	53	96	1
NMTAP	53	144	1
NMSTR	53	192	3
NMSI_	53	192	3	96	48	7
EXTAP	54	48	1
EXTAP	54	48	5
EXSTR	54	96	1
NMSLL	54	96	1	96	96	3
EXSTR	54	96	5
NMSLR	54	96	5	96	96	3
NMTAP	55	0	0
NMTAP	55	96	1
NMTAP	55	96	3
NMTAP	55	192	7
NMTAP	55	288	4
NMTAP	55	288	6
NMTAP	56	0	3
NMTAP	56	96	0
NMTAP	56	96	2
NMTAP	56	192	4
NMTAP	56	288	5
NMTAP	56	288	7
NMTAP	57	0	0
NMTAP	57	48	1
NMTAP	57	96	2
NMTAP	57	96	3
NMTAP	57	192	7
NMTAP	57	240	6
NMTAP	57	288	4
NMTAP	57	288	5
NMTAP	58	0	3
NMTAP	58	96	2
NMTAP	58	96	4
NMTAP	58	192	5
NMTAP	58	240	5
NMTAP	58	288	3
NMTTP	59	0	3	E	0	M1
NMTTP	59	48	2	E	0	M1
NMTTP	59	96	1	E	0	M1
NMTTP	59	144	0	E	0	M1
NMTTP	59	192	7	E	0	M1
NMTTP	59	240	6	E	0	M1
NMTTP	59	288	4	B	0	M1
NMTTP	59	288	5	E	1	M1
NMTTP	60	0	3	E	0	M1
NMTTP	60	48	2	E	0	M1
NMTTP	60	96	1	E	0	M1
NMTTP	60	144	0	E	0	M1
NMTTP	60	192	7	E	0	M1
NMTTP	60	240	6	E	0	M1
NMTTP	60	288	4	B	0	M1
NMTTP	60	288	5	E	1	M1
EXTAP	61	0	5
EXTAP	61	48	6
EXTAP	61	96	7
EXTAP	61	144	0
EXTAP	61	192	1
EXTAP	61	240	2
EXTAP	61	288	3
NMHLD	62	0	2	48
NMHLD	62	0	4	48
NMHLD	62	96	3	48
NMHLD	62	96	5	48
NMTAP	62	192	2
NMTAP	62	240	2
BRSTR	62	288	4
NMSCR	62	288	4	96	288	2
NMTTP	63	0	0	C	1	M1
CNSUR	63	288	2	0	288	3
NMTTP	64	0	0	C	1	M1
EXTAP	64	288	2
NMHLD	65	0	2	96
NMHLD	65	96	0	96
NMHLD	65	192	7	96
NMTAP	65	288	5
NMTAP	66	0	6
NMTAP	66	0	7
NMTAP	66	48	6
NMTAP	66	48	7
NMTAP	66	96	6
NMTAP	66	96	7
NMTAP	66	192	0
NMTAP	66	192	1
NMTAP	66	240	0
NMTAP	66	240	1
NMTAP	66	288	0
NMTAP	66	288	1
NMSTR	67	0	2
NMSI_	67	0	2	96	48	5
NMSTR	67	96	6
NMSI_	67	96	6	96	48	1
NMSTR	67	192	2
NMSI_	67	192	2	96	48	5
NMSTR	67	288	6
NMSI_	67	288	6	96	48	1
NMSTR	68	0	2
NMSI_	68	0	2	96	48	5
NMHLD	68	96	6	96
NMTAP	68	192	7
NMTAP	68	240	7
NMTAP	68	288	0
NMTAP	68	288	5
NMTAP	69	0	2
NMTAP	69	24	3
NMTAP	69	48	2
NMTAP	69	72	3
NMTAP	69	96	2
NMHLD	69	192	1	72
NMHLD	69	264	2	72
NMTAP	69	336	3
NMTAP	70	0	3
NMTAP	70	96	4
NMTAP	70	96	5
NMTAP	70	144	4
NMTAP	70	144	5
NMTAP	70	192	6
NMTAP	70	240	6
NMTAP	70	288	4
NMTAP	70	336	5
NMSTR	71	0	2
NMSI_	71	0	2	96	48	7
NMSTR	71	96	6
NMSI_	71	96	6	96	48	3
NMSTR	71	192	2
NMSI_	71	192	2	96	48	7
NMSTR	71	288	6
NMSI_	71	288	6	96	48	3
NMTAP	72	0	2
NMHLD	72	96	1	72
NMHLD	72	168	3	72
NMTAP	72	240	2
NMTAP	72	288	3
NMTAP	72	336	2
NMTAP	72	336	4
NMTAP	73	0	2
NMTAP	73	0	4
NMSTR	73	96	1
NMSI_	73	96	1	96	48	4
NMSTR	73	192	5
NMSI_	73	192	5	96	48	0
NMTAP	73	288	1
NMTAP	74	0	2
NMTAP	74	48	2
NMTAP	74	96	0
NMTAP	74	96	1
NMTAP	74	192	6
NMTAP	74	240	6
NMTAP	74	288	4
NMTAP	74	288	5
NMTAP	75	0	3
NMTAP	75	48	3
NMTAP	75	96	2
NMTAP	75	144	2
NMTAP	75	192	1
NMTAP	75	240	1
NMTAP	75	288	0
NMTAP	75	336	0
NMTAP	76	0	7
NMTAP	76	48	7
NMTAP	76	96	6
NMTAP	76	144	6
NMTAP	76	192	5
NMTAP	76	240	5
NMTAP	76	288	4
NMTAP	76	336	4
NMTAP	77	0	5
NMTAP	77	48	6
NMTAP	77	96	7
NMTAP	77	144	0
NMTAP	77	192	1
NMTAP	77	240	2
NMTAP	77	288	3
NMTAP	77	336	4
NMTAP	78	0	5
NMTAP	78	48	5
NMTAP	78	96	5
NMTAP	78	144	5
BRHLD	78	192	4	96
NMSTR	78	192	5
BRSI_	78	192	5	96	48	7
NMHLD	79	0	0	48
NMHLD	79	0	2	48
NMHLD	79	96	5	48
NMHLD	79	96	6	48
NMHLD	79	192	2	48
NMHLD	79	192	3	48
NMHLD	79	288	5	48
NMHLD	79	288	7	48
NMHLD	80	0	1	48
NMHLD	80	0	2	48
NMHLD	80	96	4	48
NMHLD	80	96	5	48
NMTAP	80	192	3
NMTAP	80	240	2
BRTAP	80	288	0
BRTAP	80	288	1
NMHLD	81	0	5	48
NMHLD	81	0	7	48
NMHLD	81	96	1	48
NMHLD	81	96	2	48
NMHLD	81	192	4	48
NMHLD	81	192	5	48
NMHLD	81	288	0	48
NMHLD	81	288	2	48
NMHLD	82	0	5	48
NMHLD	82	0	6	48
NMTAP	82	96	2
NMTAP	82	144	2
NMTAP	82	192	3
NMTAP	82	240	3
NMTAP	82	288	1
NMTAP	82	288	4
NMTAP	82	336	1
NMTAP	82	336	4
NMTAP	83	0	5
NMTAP	83	48	5
NMSTR	83	96	3
NMSI_	83	96	3	96	48	7
NMSTR	83	192	6
NMSI_	83	192	6	96	48	4
NMSTR	83	288	0
NMSI_	83	288	0	96	48	2
NMSTR	84	0	3
NMSI_	84	0	3	96	48	7
NMSTR	84	96	1
NMSI_	84	96	1	96	48	5
NMTAP	84	192	6
NMTAP	84	288	7
NMTAP	84	336	7
NMTAP	85	0	4
NMTAP	85	0	6
NMTAP	85	96	1
NMTAP	85	96	3
NMTAP	85	192	4
NMTAP	85	264	4
NMTAP	85	288	3
EXTAP	85	336	2
EXTAP	85	336	5
NMTAP	86	48	3
NMTAP	86	72	4
NMTAP	86	96	3
NMTAP	86	144	2
NMTAP	86	144	5
NMSTR	86	192	2
NMSI_	86	192	2	96	48	0
NMSTR	86	192	5
NMSI_	86	192	5	96	48	7
NMTAP	87	0	0
NMTAP	87	0	7
NMTAP	87	48	0
NMTAP	87	48	7
NMTAP	87	96	0
NMTAP	87	96	7
NMTAP	87	144	6
NMTAP	87	192	4
NMTAP	87	192	5
NMTAP	87	240	3
BRTAP	87	288	2
BRTAP	87	288	3
NMTAP	88	0	0
NMTAP	88	0	7
NMTAP	88	48	0
NMTAP	88	48	7
NMTAP	88	96	0
NMTAP	88	96	7
NMTAP	88	144	1
NMTAP	88	192	2
NMTAP	88	192	3
NMTAP	88	240	4
BRTAP	88	288	4
BRTAP	88	288	5
NMHLD	89	0	2	48
NMHLD	89	0	3	48
NMHLD	89	96	0	48
NMHLD	89	96	1	48
NMHLD	89	192	6	48
NMHLD	89	192	7	48
NMTAP	89	288	4
NMTAP	89	288	5
NMTAP	90	0	5
NMTAP	90	48	5
NMTAP	90	72	3
NMTAP	90	120	3
NMTAP	90	144	4
NMTAP	90	192	4
NMTAP	90	216	2
NMTAP	90	264	2
EXTAP	90	288	3
NMTAP	91	0	2
NMTAP	91	24	3
NMTAP	91	48	2
NMTAP	91	96	2
NMTAP	91	120	3
NMTAP	91	144	2
NMTAP	91	192	1
NMTAP	91	192	4
NMTAP	91	240	2
NMTAP	91	240	5
NMTAP	91	288	3
NMTAP	91	288	6
NMSTR	92	0	7
NMSCL	92	0	7	96	48	4
NMTAP	92	48	7
NMSTR	92	96	0
NMSCR	92	96	0	96	48	3
NMTAP	92	144	0
NMSTR	92	192	4
NMSCR	92	192	4	96	48	7
NMTAP	92	240	4
NMTAP	92	288	2
NMTAP	93	0	1
NMSTR	93	96	7
NMSI_	93	96	7	96	48	3
NMTAP	93	144	7
NMSTR	93	192	2
NMSI_	93	192	2	96	48	5
NMTAP	93	240	2
NMHLD	93	288	6	96
NMTAP	94	0	4
NMTAP	94	48	6
NMTAP	94	96	7
NMTAP	94	144	0
NMTAP	94	192	1
NMTAP	94	240	3
BRSTR	94	288	4
NMSI_	94	288	4	96	48	1
NMSI_	94	288	4	96	48	7

T_REC_TAP	359
T_REC_BRK	11
T_REC_XTP	42
T_REC_BXX	0
T_REC_HLD	77
T_REC_XHO	0
T_REC_BHO	1
T_REC_BXH	0
T_REC_STR	39
T_REC_BST	3
T_REC_XST	2
T_REC_XBS	0
T_REC_TTP	76
T_REC_THO	3
T_REC_SLD	44
T_REC_BSL	1
T_REC_ALL	658
T_NUM_TAP	518
T_NUM_BRK	16
T_NUM_HLD	80
T_NUM_SLD	44
T_NUM_ALL	658
T_JUDGE_TAP	532
T_JUDGE_HLD	184
T_JUDGE_SLD	45
T_JUDGE_ALL	761
TTM_EACHPAIRS	127
TTM_SCR_TAP	259000
TTM_SCR_BRK	41600
TTM_SCR_HLD	80000
TTM_SCR_SLD	66000
TTM_SCR_ALL	446600
TTM_SCR_S	431650
TTM_SCR_SS	445000
TTM_RAT_ACV	10035

