VERSION	0.00.00	1.05.00
FES_MODE	0
BPM_DEF	190.000	190.000	190.000	190.000
MET_DEF	4	4
RESOLUTION	384
CLK_DEF	384
COMPATIBLE_CODE	MA2
GENERATED_BY	MuConvert v0.2.0-beta.2+40bb110

BPM	0	0	190.000
MET	0	0	4	4

BRTAP	2	0	0
BRTAP	2	0	7
BRTAP	2	12	1
BRTAP	2	12	6
BRTAP	2	24	2
BRTAP	2	24	5
BRSTR	2	36	3
NMSXR	2	36	3	96	295	1
BRTAP	2	36	4
CNSXR	3	43	1	0	295	7
CNSXR	3	338	7	0	295	5
CNSXR	4	249	5	0	295	3
CNSXL	5	160	3	0	295	5
CNSXL	6	71	5	0	295	7
CNSXL	6	366	7	0	295	1
CNSXL	7	277	1	0	299	3
NMHLD	8	0	4	576
NMHLD	8	288	3	384
BRTAP	10	0	1
BRTAP	10	0	5
NMTAP	10	96	0
NMTAP	10	96	6
NMTAP	10	144	0
NMTAP	10	192	0
NMTAP	10	192	6
NMTAP	10	288	1
NMTAP	10	288	6
NMTAP	11	0	2
NMTAP	11	0	6
NMTAP	11	48	2
NMTAP	11	96	2
NMTAP	11	96	6
NMTAP	11	192	6
NMSTR	11	192	3
NMSI_	11	192	3	96	48	1
NMTAP	11	288	3
NMTAP	11	288	6
NMTAP	12	0	0
BRTAP	12	0	7
NMTAP	12	96	1
NMTAP	12	96	7
NMTAP	12	144	1
NMTAP	12	192	1
NMTAP	12	192	7
NMTAP	12	288	2
NMTAP	12	288	7
NMTAP	13	0	7
NMTAP	13	0	3
NMTAP	13	48	3
NMTAP	13	96	7
NMTAP	13	96	3
NMSTR	13	192	7
NMSI_	13	192	7	96	48	5
NMTAP	13	192	4
NMTAP	13	288	2
NMTAP	13	288	7
BRTAP	14	0	0
NMTAP	14	0	4
NMTAP	14	48	4
NMTAP	14	96	0
NMTAP	14	96	4
NMTAP	14	192	0
NMTAP	14	192	3
NMTAP	14	288	0
NMTAP	14	288	2
NMTAP	14	336	2
NMTAP	15	0	0
NMTAP	15	0	2
NMTAP	15	96	0
NMTAP	15	96	3
NMTAP	15	192	0
NMTAP	15	192	4
NMTAP	15	240	4
NMTAP	15	288	0
NMTAP	15	288	4
BRTAP	16	0	1
NMTAP	16	0	5
NMTAP	16	48	5
NMSTR	16	96	1
NMSI_	16	96	1	96	48	5
NMTAP	16	96	5
NMTAP	16	192	1
NMTAP	16	192	6
NMTAP	16	288	7
NMTAP	16	288	4
NMTAP	16	336	7
NMTAP	17	0	1
NMTAP	17	24	0
NMTAP	17	48	2
NMTAP	17	72	7
NMSTR	17	96	3
NMSCL	17	96	3	96	48	0
NMTAP	17	120	6
NMTAP	17	144	4
NMTAP	17	168	5
EXSTR	17	192	6
NMSI_	17	192	6	96	48	2
BRTAP	17	288	7
BRTAP	17	288	6
NMTAP	18	0	1
NMHLD	18	0	0	96
NMTAP	18	48	2
NMTAP	18	96	3
NMTAP	18	144	4
NMHLD	18	144	5	96
NMTAP	18	192	3
NMTAP	18	240	2
NMTAP	18	288	0
NMHLD	18	288	1	96
NMTAP	18	336	7
NMTAP	19	0	6
NMTAP	19	48	5
NMHLD	19	48	4	96
NMTAP	19	96	6
NMTAP	19	144	7
NMSTR	19	192	1
NMSI_	19	192	1	96	48	5
NMTAP	19	192	0
NMTAP	19	240	2
NMTAP	19	288	1
NMTAP	19	288	0
NMTAP	19	336	7
NMTAP	20	0	6
NMTAP	20	0	4
NMSTR	20	48	3
NMSI_	20	48	3	96	48	0
NMTAP	20	96	5
NMHLD	20	144	4	96
NMTAP	20	288	1
NMTAP	20	288	3
NMSTR	20	336	4
NMSI_	20	336	4	96	48	7
NMTAP	21	0	2
NMHLD	21	48	3	96
NMTAP	21	192	6
NMTAP	21	192	4
NMTAP	21	216	3
NMTAP	21	240	2
NMTAP	21	264	1
BXTAP	21	288	0
BRTAP	21	288	4
NMTAP	22	0	6
NMHLD	22	0	7	96
NMTAP	22	48	5
NMTAP	22	96	4
NMTAP	22	144	3
NMHLD	22	144	2	96
NMTAP	22	192	4
NMTAP	22	240	5
NMTAP	22	288	7
NMHLD	22	288	6	96
NMTAP	22	336	0
NMTAP	23	0	1
NMTAP	23	48	2
NMHLD	23	48	3	96
NMTAP	23	96	1
NMTAP	23	144	0
NMTAP	23	192	7
NMSTR	23	192	6
NMSI_	23	192	6	96	48	2
NMTAP	23	240	5
NMTAP	23	288	7
NMTAP	23	288	6
NMTAP	23	336	0
NMTAP	24	0	1
NMTAP	24	0	3
NMSTR	24	48	0
NMSCR	24	48	0	96	96	5
NMTAP	24	96	5
NMTAP	24	144	0
NMTAP	24	144	7
NMTAP	24	240	7
NMTAP	24	288	6
NMTAP	24	288	4
NMSTR	24	336	7
NMSCL	24	336	7	96	96	2
NMTAP	25	0	2
NMTAP	25	48	0
NMTAP	25	48	7
NMTAP	25	144	0
NMTAP	25	192	0
NMTAP	25	192	4
NMTAP	25	216	1
NMTAP	25	216	5
NMTAP	25	240	2
NMTAP	25	240	6
NMTAP	25	264	7
NMTAP	25	264	3
BRSTR	25	288	0
NMSUL	25	288	0	96	48	3
BRSTR	25	288	4
NMSUL	25	288	4	96	48	7
NMTTP	26	96	1	B	0	M1
NMTTP	26	96	0	C	1	M1
NMTTP	26	96	5	B	0	M1
NMTTP	26	96	1	A	0	M1
NMTTP	26	96	5	A	0	M1
BRTAP	28	0	1
NMTTP	28	0	3	E	0	M1
NMTTP	28	0	3	B	1	M1
NMTTP	28	0	3	A	0	M1
BRTAP	28	144	6
NMTTP	28	144	4	A	0	M1
NMTTP	28	144	4	B	1	M1
NMTTP	28	144	5	E	0	M1
NMTAP	29	336	2
NMTAP	29	360	2
BRTAP	30	0	3
NMTAP	30	96	3
NMTTP	30	144	2	B	0	M1
NMTAP	30	192	4
NMTAP	30	288	4
NMTTP	30	288	1	A	0	M1
NMTAP	31	0	5
NMTTP	31	48	0	E	0	M1
NMTAP	31	96	5
NMTAP	31	192	0
NMTAP	31	192	4
NMTAP	31	240	1
NMTAP	31	264	3
NMTAP	31	288	2
NMTAP	31	336	5
NMTAP	31	360	4
NMTAP	32	0	6
NMTAP	32	48	6
NMTAP	32	96	4
NMTTP	32	144	5	B	0	M1
NMTAP	32	192	3
NMTAP	32	288	3
NMTTP	32	288	6	A	0	M1
NMTAP	33	0	2
NMTTP	33	48	0	E	0	M1
NMTAP	33	96	2
NMTAP	33	192	1
NMTAP	33	192	7
NMSTR	33	240	2
NMSV_	33	240	2	96	48	7
NMSTR	33	240	6
NMSV_	33	240	6	96	48	3
NMTAP	33	288	3
NMTAP	33	288	5
CNSI_	34	0	7	0	48	1
CNSI_	34	0	3	0	48	5
BRTAP	34	96	7
BRTAP	34	96	3
NMTAP	34	192	6
NMTAP	34	192	4
NMTAP	34	240	3
NMTAP	34	288	1
NMSTR	34	288	5
NMSCR	34	288	5	96	64	0
NMTAP	35	0	3
CNSI_	35	64	0	0	64	6
NMTAP	35	96	3
CNSI_	35	128	6	0	64	4
NMTAP	35	192	2
NMTAP	35	240	1
NMTAP	35	288	0
NMTAP	35	288	4
NMTAP	35	336	5
NMSTR	36	0	2
NMSI_	36	0	2	96	48	4
NMTAP	36	0	6
NMTAP	36	96	5
CNSI_	36	144	4	0	48	1
NMSTR	36	144	7
NMSV_	36	144	7	96	72	4
NMTAP	36	240	0
NMTAP	36	288	0
CNSCR	36	312	4	0	72	6
NMSTR	36	336	1
NMSCR	36	336	1	96	48	4
NMTAP	37	48	7
NMTAP	37	96	7
NMTAP	37	144	6
NMTAP	37	192	4
NMTAP	37	192	5
NMTAP	37	240	3
NMTAP	37	288	2
NMTAP	37	288	6
NMTAP	37	336	7
NMTAP	38	0	1
NMTAP	38	0	0
NMTAP	38	48	2
NMTAP	38	72	2
NMTAP	38	96	3
NMTAP	38	144	4
NMTAP	38	168	4
NMTAP	38	192	3
NMTAP	38	240	1
NMTAP	38	264	1
NMTAP	38	288	3
NMTAP	38	336	5
NMTAP	38	360	5
NMTAP	39	0	4
NMTAP	39	48	3
NMTAP	39	72	3
NMTAP	39	96	4
NMTAP	39	144	6
NMTAP	39	168	6
NMTAP	39	192	4
NMTAP	39	240	1
NMTAP	39	264	0
NMTAP	39	288	2
NMTAP	39	312	7
NMTAP	39	336	3
NMTAP	39	360	6
NMTAP	40	0	4
NMTAP	40	0	5
NMTAP	40	48	2
NMTAP	40	72	2
NMTAP	40	96	3
NMTAP	40	144	4
NMTAP	40	168	4
NMTAP	40	192	3
NMTAP	40	240	1
NMTAP	40	264	1
NMTAP	40	288	3
NMTAP	40	336	5
NMTAP	40	360	5
NMTAP	41	0	4
NMTAP	41	48	3
NMTAP	41	72	3
NMTAP	41	96	4
NMTAP	41	144	6
NMTAP	41	168	6
NMTAP	41	192	4
NMTAP	41	216	5
NMTAP	41	240	3
NMTAP	41	264	4
NMTAP	41	288	2
NMTAP	41	312	3
NMTAP	41	336	1
NMTAP	41	360	0
BXTAP	42	0	7
BRSTR	42	0	2
NMSI_	42	0	2	96	48	5
NMTAP	42	96	2
NMTAP	42	96	5
NMSTR	42	144	6
NMSV_	42	144	6	96	48	1
NMTAP	42	240	3
NMTAP	42	240	6
NMSTR	42	288	2
NMSV_	42	288	2	96	48	5
NMTAP	43	0	2
NMTAP	43	0	7
NMSTR	43	48	6
NMSCR	43	48	6	96	48	1
NMTAP	43	144	1
NMTAP	43	144	6
NMSTR	43	192	3
NMSI_	43	192	3	96	48	6
NMSI_	43	192	3	96	48	7
NMTAP	43	288	3
BRTAP	44	0	0
BRSTR	44	0	5
NMSI_	44	0	5	96	48	2
NMTAP	44	96	2
NMTAP	44	96	5
NMSTR	44	144	1
NMSV_	44	144	1	96	48	6
NMTAP	44	240	1
NMTAP	44	240	4
NMSTR	44	288	5
NMSCL	44	288	5	96	48	2
NMTAP	45	0	0
NMTAP	45	0	5
NMSTR	45	48	1
NMSUR	45	48	1	96	48	6
NMTAP	45	144	1
NMTAP	45	144	6
NMSTR	45	192	0
NMSI_	45	192	0	96	48	4
NMSI_	45	192	0	96	48	5
NMTAP	45	288	0
BRSTR	46	0	2
NMSI_	46	0	2	96	48	7
BRTAP	46	0	7
NMTAP	46	96	2
NMTAP	46	96	4
NMSTR	46	144	5
NMSI_	46	144	5	96	48	1
NMTAP	46	240	1
NMTAP	46	240	5
NMSTR	46	288	7
NMSI_	46	288	7	96	24	1
NMTAP	47	0	7
NMTAP	47	0	3
CNSI_	47	24	1	0	24	3
NMSTR	47	48	4
NMSI_	47	48	4	96	24	6
NMTAP	47	144	2
NMTAP	47	144	4
CNSI_	47	168	6	0	24	0
NMSTR	47	192	1
NMSF_	47	192	1	96	48	5
NMTAP	47	288	1
BRSTR	48	0	7
NMSI_	48	0	7	96	48	5
BRTAP	48	0	3
NMTAP	48	96	1
CNSI_	48	144	5	0	48	0
NMSTR	48	144	3
NMSI_	48	144	3	96	48	1
NMTAP	48	240	4
CNSI_	48	288	1	0	48	4
NMSTR	48	288	6
NMSI_	48	288	6	96	48	2
NMTAP	49	0	2
CNSI_	49	48	2	0	48	6
NMSTR	49	48	0
NMSCR	49	48	0	96	48	3
NMTAP	49	144	0
NMTAP	49	144	5
NMSTR	49	192	7
NMSCL	49	192	7	96	48	4
NMSTR	49	288	1
BRSI_	49	288	1	96	48	5
NMTAP	49	288	7
NMHLD	50	0	3	1104
EXTAP	52	336	5
EXTAP	52	348	6
EXTAP	52	360	7
EXTAP	52	372	0
EXTAP	53	0	1
EXTAP	53	0	3
NMTAP	53	48	1
NMTAP	53	96	3
NMTAP	53	96	4
NMTAP	53	144	4
NMTAP	53	192	2
NMTAP	53	192	3
NMTAP	53	240	2
NMSTR	53	288	3
BRSI_	53	288	3	96	48	7
NMTAP	53	288	5
NMTAP	53	336	5
BRSTR	54	0	1
NMSI_	54	0	1	96	48	4
NMTTP	54	1	0	C	1	M1
NMTAP	54	96	1
NMSTR	54	96	5
NMSXL	54	96	5	96	144	0
NMTAP	54	192	3
NMTAP	54	192	5
NMTAP	54	288	1
NMSTR	54	336	1
NMSCR	54	336	1	96	48	4
NMSTR	55	48	1
NMSI_	55	48	1	96	48	7
NMSTR	55	48	6
NMSI_	55	48	6	96	48	3
NMTAP	55	96	5
BRTAP	55	144	1
BRTAP	55	144	6
NMTAP	55	240	2
NMSTR	55	288	3
NMSI_	55	288	3	96	48	0
NMTAP	55	336	4
NMTAP	56	0	3
NMTAP	56	0	5
NMSTR	56	96	6
NMSUL	56	96	6	96	144	4
NMTAP	56	144	7
NMTAP	56	192	0
NMTAP	56	192	6
NMTAP	56	288	3
NMSTR	56	336	2
NMSUL	56	336	2	96	48	5
NMTAP	57	48	2
NMSTR	57	48	4
NMSCL	57	48	4	96	96	6
NMTAP	57	144	4
NMTAP	57	240	3
NMTAP	57	264	2
BRTAP	57	288	1
BRTAP	57	288	5
NMSTR	58	0	4
BRSCR	58	0	4	96	96	2
NMTAP	58	96	2
NMTAP	58	144	3
NMSTR	58	192	4
BRSCL	58	192	4	96	96	6
NMTAP	58	288	6
NMTAP	58	336	5
NMSTR	59	0	4
BRSCR	59	0	4	96	96	2
NMTAP	59	96	2
NMTAP	59	144	3
NMSTR	59	192	4
NMSI_	59	192	4	96	48	0
NMSTR	59	288	6
NMSI_	59	288	6	96	48	2
NMSI_	59	288	6	96	48	3
EXTAP	59	288	4
BRTAP	60	0	6
NMTAP	60	96	1
NMTAP	60	96	0
NMTAP	60	144	2
NMTAP	60	144	7
NMTAP	60	240	1
NMSTR	60	240	3
NMSXR	60	240	3	96	144	4
NMTAP	60	288	4
NMTAP	60	336	5
NMTAP	61	0	6
NMTAP	61	48	6
NMTAP	61	96	7
NMTAP	61	144	7
NMTAP	61	192	6
NMTAP	61	192	4
NMTAP	61	216	3
NMTAP	61	240	2
NMTAP	61	264	1
BRTAP	61	288	0
BRTAP	61	288	4
NMSTR	62	0	7
NMSI_	62	0	7	96	48	2
NMSTR	62	48	6
NMSI_	62	48	6	96	48	3
NMTAP	62	96	7
NMTAP	62	144	6
NMTAP	62	192	0
NMTAP	62	240	2
NMTAP	62	240	4
NMTAP	62	288	5
NMTAP	62	336	7
NMSTR	62	336	6
NMSCL	62	336	6	96	48	3
NMSTR	63	48	1
NMSI_	63	48	1	96	48	5
NMSTR	63	48	6
NMSI_	63	48	6	96	48	0
BRTAP	63	144	1
BRTAP	63	144	6
NMTAP	63	240	4
NMTAP	63	288	3
NMTAP	63	288	6
NMTAP	63	336	2
NMSTR	64	0	1
NMSI_	64	0	1	96	48	4
NMTAP	64	0	4
NMTAP	64	48	0
NMSTR	64	96	5
NMSI_	64	96	5	96	48	2
NMTAP	64	144	6
NMSTR	64	192	0
NMSI_	64	192	0	96	48	4
NMTAP	64	240	7
NMTAP	64	288	5
NMSTR	64	336	6
NMSI_	64	336	6	96	48	2
NMSTR	65	48	7
NMSI_	65	48	7	96	48	3
NMTAP	65	48	6
NMSTR	65	144	0
NMSI_	65	144	0	96	48	4
NMTAP	65	144	7
NMSTR	65	240	1
BRSCL	65	240	1	96	120	2
NMTAP	65	240	0
BXTAP	65	336	2
NMHLD	66	96	7	72
NMTAP	66	168	1
NMSTR	66	192	2
NMSI_	66	192	2	96	48	7
NMSTR	66	192	6
NMSI_	66	192	6	96	48	3
NMTAP	66	288	2
NMTAP	66	288	6
NMSTR	67	0	0
NMSUR	67	0	0	96	48	4
NMSTR	67	0	1
NMSCR	67	0	1	96	48	3
NMTAP	67	96	1
NMTAP	67	96	0
NMSTR	67	192	7
NMSUL	67	192	7	96	48	3
NMSTR	67	192	6
NMSCL	67	192	6	96	48	4
NMTAP	67	288	7
NMTAP	67	288	6
NMTAP	68	0	1
NMTAP	68	0	0
NMTAP	68	48	2
NMTAP	68	96	3
NMTAP	68	144	5
NMTAP	68	168	4
NMTAP	68	192	5
NMTAP	68	240	7
NMTAP	68	240	6
NMTAP	68	288	5
NMTAP	68	336	3
NMTAP	68	360	4
NMTAP	69	0	1
NMTAP	69	24	0
NMTAP	69	48	2
NMTAP	69	72	7
NMTAP	69	96	3
NMTAP	69	120	6
NMTAP	69	144	4
NMTAP	69	168	5
EXTAP	69	192	3
NMTAP	69	224	3
NMTAP	69	256	3
EXTAP	69	288	7
NMTAP	69	320	7
NMTAP	69	352	7
BRTAP	70	0	1
BRTAP	70	0	5
NMTTP	71	0	3	E	0	M1
NMTAP	71	288	2
NMTAP	71	288	5
NMTTP	72	0	4	E	0	M1
NMTAP	72	48	1
NMTAP	72	48	6
NMTTP	73	0	5	E	0	M1
NMSTR	73	288	0
NMSI_	73	288	0	96	48	4
NMSTR	73	288	7
NMSI_	73	288	7	96	48	3
BRTAP	74	0	0
BRTAP	74	0	7
NMTAP	74	96	2
NMHLD	74	96	5	192
NMTAP	74	192	2
NMTAP	74	288	3
NMTAP	75	0	4
NMHLD	75	0	2	192
NMTAP	75	96	5
NMTAP	75	192	5
NMTAP	75	288	3
NMTAP	75	320	3
NMTAP	75	352	4
NMSTR	76	0	4
NMSUL	76	0	4	96	96	7
NMSTR	76	192	3
NMSUR	76	192	3	96	96	0
NMHLD	77	0	7	192
NMTHO	77	192	4	192	E	1	M1
NMSTR	78	0	5
NMSCR	78	0	5	96	96	0
NMSTR	78	144	1
NMSCR	78	144	1	96	96	4
NMTTP	78	144	7	D	0	M1
NMSTR	78	288	6
NMSCR	78	288	6	96	96	1
NMTTP	78	288	3	D	0	M1
NMTTP	79	48	0	D	0	M1
NMSTR	79	48	2
NMSCR	79	48	2	96	96	5
NMTAP	79	192	6
NMTTP	79	192	4	D	0	M1
NMTAP	79	288	0
NMTAP	79	288	7
NMSTR	80	0	2
NMSCL	80	0	2	96	96	7
NMSTR	80	144	6
NMSCL	80	144	6	96	96	3
NMTTP	80	144	1	D	0	M1
NMSTR	80	288	1
NMSCL	80	288	1	96	96	6
NMTTP	80	288	5	D	0	M1
NMTTP	81	48	0	D	0	M1
NMSTR	81	48	5
NMSCL	81	48	5	96	96	2
NMTHO	81	192	0	96	C	0	M1
NMSTR	82	0	7
NMSI_	82	0	7	96	48	4
NMTAP	82	0	6
NMTAP	82	96	0
NMTAP	82	144	0
NMTAP	82	192	7
NMTAP	82	288	1
NMSTR	82	288	0
NMSI_	82	288	0	96	48	3
NMTAP	83	0	7
NMTAP	83	48	7
NMTAP	83	96	0
NMTAP	83	192	1
NMTAP	83	240	1
NMTAP	83	288	3
NMTAP	83	336	2
NMSTR	84	0	1
NMSI_	84	0	1	96	48	3
NMTAP	84	0	4
NMTAP	84	96	6
NMTAP	84	144	6
NMSTR	84	192	4
NMSI_	84	192	4	96	48	2
NMTAP	84	240	5
NMTAP	84	288	6
CNSI_	84	336	2	0	48	0
NMTAP	85	48	7
NMTAP	85	48	6
NMTAP	85	96	0
NMTAP	85	96	5
NMSTR	85	192	1
NMSI_	85	192	1	96	48	5
NMTAP	85	216	3
NMTAP	85	240	2
NMTAP	85	264	3
NMTAP	85	288	1
NMTHO	86	0	7	576	E	0	M1
NMTHO	86	144	6	432	B	0	M1
NMTHO	86	288	5	288	B	0	M1
NMTHO	88	0	1	576	B	0	M1
NMTHO	88	144	2	432	B	0	M1
NMTHO	88	288	3	288	E	0	M1
NMTHO	90	0	5	576	E	0	M1
NMTHO	90	144	4	432	E	0	M1
NMTHO	90	288	3	288	E	0	M1
NMTHO	92	0	0	1536	E	0	M1
NMTHO	93	0	4	1152	E	0	M1
NMTHO	93	192	0	960	C	0	M1
BRSTR	97	192	0
NMSUL	97	192	0	96	48	3
BRSTR	97	192	7
NMSUR	97	192	7	96	48	4
NMTTP	98	0	0	C	1	M1
NMSTR	98	96	1
NMSI_	98	96	1	96	48	5
NMSTR	98	96	0
NMSI_	98	96	0	96	48	4
NMTAP	98	144	2
NMTAP	98	144	7
NMTAP	98	192	1
NMTAP	98	192	0
NMTAP	98	288	7
NMTAP	98	288	6
NMTAP	98	336	0
NMSTR	98	336	5
NMSUR	98	336	5	96	48	2
NMSTR	99	48	3
NMSCR	99	48	3	96	96	1
NMTAP	99	48	5
NMTAP	99	144	3
NMTAP	99	240	4
NMTAP	99	264	5
BRTAP	99	288	2
BRTAP	99	288	6
NMSTR	100	0	0
BRSCR	100	0	0	96	96	6
EXTAP	100	96	0
NMTAP	100	96	6
NMTAP	100	144	7
NMSTR	100	192	0
BRSCL	100	192	0	96	96	2
EXTAP	100	288	0
NMTAP	100	288	2
NMTAP	100	336	1
NMSTR	101	0	0
BRSCR	101	0	0	96	96	6
EXTAP	101	96	0
NMTAP	101	96	6
NMTAP	101	144	7
NMSTR	101	192	0
NMSI_	101	192	0	96	48	4
EXTAP	101	288	0
NMSTR	101	288	2
NMSI_	101	288	2	96	48	6
NMSI_	101	288	2	96	48	7
BRTAP	102	0	2
NMTAP	102	96	4
NMTAP	102	96	5
NMTAP	102	144	3
NMSTR	102	144	6
NMSI_	102	144	6	96	48	3
NMTAP	102	240	7
NMTAP	102	240	6
NMTAP	102	288	0
NMTAP	102	336	1
NMHLD	102	336	4	96
NMSTR	103	0	2
NMSI_	103	0	2	96	48	7
NMTAP	103	48	3
NMSTR	103	96	5
NMSI_	103	96	5	96	48	3
NMTAP	103	144	5
NMTAP	103	192	6
NMTAP	103	216	7
NMTAP	103	240	0
NMTAP	103	264	1
BRTAP	103	288	2
BRTAP	103	288	6
NMSTR	104	0	0
NMSI_	104	0	0	96	48	5
NMSTR	104	48	1
NMSI_	104	48	1	96	48	4
NMTAP	104	96	0
NMTAP	104	144	1
NMTAP	104	192	7
NMTAP	104	240	5
EXTAP	104	240	4
EXTAP	104	288	2
NMTAP	104	288	3
EXTAP	104	336	0
NMSTR	104	336	1
NMSCR	104	336	1	96	48	4
NMSTR	105	48	1
NMSI_	105	48	1	96	48	7
NMSTR	105	48	6
NMSI_	105	48	6	96	48	2
BRTAP	105	144	1
BRTAP	105	144	6
NMTAP	105	240	3
NMTAP	105	288	2
NMTAP	105	288	4
NMTAP	105	336	1
NMTAP	105	336	5
NMTAP	106	0	0
NMSTR	106	0	6
NMSI_	106	0	6	96	48	3
NMTAP	106	48	7
NMSTR	106	96	2
NMSI_	106	96	2	96	48	5
NMTAP	106	96	6
NMTAP	106	144	1
NMTAP	106	192	2
NMSTR	106	192	7
NMSI_	106	192	7	96	48	3
NMTAP	106	240	0
NMTAP	106	288	2
NMTAP	106	288	7
NMSTR	106	336	1
NMSI_	106	336	1	96	48	5
NMTAP	107	48	1
NMSTR	107	48	0
NMSI_	107	48	0	96	48	4
NMTAP	107	144	0
NMSTR	107	144	7
NMSI_	107	144	7	96	48	3
NMSTR	107	240	7
BRSI_	107	240	7	96	48	1
NMSTR	107	240	6
BRSI_	107	240	6	96	48	2
NMTAP	107	288	5
BRTAP	107	336	7
BRTAP	107	336	6
NMHLD	108	96	4	72
NMTAP	108	168	0
NMSTR	108	192	1
NMSI_	108	192	1	96	48	4
NMSTR	108	192	5
NMSI_	108	192	5	96	48	0
NMTAP	108	288	1
NMTAP	108	288	5
EXSTR	109	0	0
NMSI_	109	0	0	96	48	5
NMSTR	109	0	7
NMSI_	109	0	7	96	48	5
EXSTR	109	96	7
NMSI_	109	96	7	96	48	2
NMSTR	109	96	0
NMSI_	109	96	0	96	48	2
EXSTR	109	192	0
NMSI_	109	192	0	96	48	4
NMSTR	109	192	7
NMSI_	109	192	7	96	48	3
BRTAP	109	288	0
BRTAP	109	288	7
NMTAP	110	0	1
NMTAP	110	0	6
NMTAP	110	48	2
NMTAP	110	96	3
NMTAP	110	144	5
NMTAP	110	168	4
NMTAP	110	192	5
NMTAP	110	240	7
NMTAP	110	240	6
NMTAP	110	288	1
NMTAP	110	288	0
NMTAP	110	336	2
NMTAP	110	360	3
NMTAP	111	0	1
NMTAP	111	24	4
NMTAP	111	48	0
NMTAP	111	72	5
NMTAP	111	96	7
NMTAP	111	120	6
NMTAP	111	144	0
NMTAP	111	168	7
EXTAP	111	192	2
NMTAP	111	224	2
NMTAP	111	256	4
EXTAP	111	288	6
NMTAP	111	320	6
NMTAP	111	352	0
BRHLD	112	0	1	96
BRHLD	112	0	7	96
NMTAP	112	144	2
NMTAP	112	144	6
NMSTR	112	192	1
NMSI_	112	192	1	96	36	3
NMTAP	112	216	7
NMTAP	112	240	0
NMTAP	112	288	1
NMTAP	112	288	5
NMSTR	112	336	6
NMSI_	112	336	6	96	36	0
NMTAP	112	360	4
NMTAP	113	0	5
NMTAP	113	48	3
NMTAP	113	48	6
NMTAP	113	96	2
NMTAP	113	144	2
NMTAP	113	168	3
NMSTR	113	192	1
NMSI_	113	192	1	96	36	7
NMTAP	113	192	4
NMSTR	113	240	6
NMSI_	113	240	6	96	48	3
NMTAP	113	288	1
NMTAP	113	336	6
BRTAP	114	0	2
NMTAP	114	48	1
NMTAP	114	72	0
NMTAP	114	96	1
NMTAP	114	144	6
NMTAP	114	144	4
NMSTR	114	192	7
NMSI_	114	192	7	96	48	3
NMTAP	114	240	1
NMTAP	114	240	0
NMTAP	114	288	7
NMTAP	114	336	2
NMTAP	114	360	2
NMTAP	115	0	4
NMTAP	115	48	5
NMTAP	115	72	5
NMTAP	115	96	4
NMTAP	115	144	3
NMTAP	115	144	6
NMSTR	115	192	1
NMSI_	115	192	1	96	48	4
NMSI_	115	192	1	96	48	5
NMTAP	115	216	5
NMTAP	115	240	3
NMTAP	115	264	7
BRTAP	115	288	1
NMTAP	116	0	0
NMTAP	116	0	6
NMSTR	116	48	5
NMSI_	116	48	5	96	36	7
NMTAP	116	72	3
NMTAP	116	96	4
NMTAP	116	144	1
NMTAP	116	144	5
NMSTR	116	192	2
NMSI_	116	192	2	96	36	4
NMTAP	116	216	0
NMTAP	116	240	1
NMTAP	116	288	2
NMTAP	116	288	7
NMTAP	116	312	6
NMTAP	116	336	5
NMSTR	117	0	7
NMSI_	117	0	7	96	48	3
NMSTR	117	48	1
NMSCR	117	48	1	96	48	4
NMSTR	117	96	7
NMSI_	117	96	7	96	48	5
NMSTR	117	144	1
NMSI_	117	144	1	96	48	5
NMSTR	117	192	7
BRSCR	117	192	7	96	72	5
NMTAP	117	240	1
NMTAP	117	288	7
BRTAP	118	0	7
NMTAP	118	24	6
NMTAP	118	48	7
NMTAP	118	72	6
NMTAP	118	96	7
NMTAP	118	120	6
BRTAP	118	144	0
NMTAP	118	168	6
NMTAP	118	192	1
NMTAP	118	216	6
NMTAP	118	240	2
NMTAP	118	264	6
BRTAP	118	288	3
NMTAP	118	312	6
NMTAP	118	336	4
NMTAP	118	360	6
NMTAP	119	0	5
NMTAP	119	24	6
BRTAP	119	48	7
NMTAP	119	72	6
NMTAP	119	96	0
NMTAP	119	120	6
BRSTR	119	144	1
NMSI_	119	144	1	96	48	5
BRSSR	119	144	1	96	48	5
NMTAP	119	168	6
NMTAP	119	192	2
NMTTP	119	240	1	A	1	M1
NMTTP	119	264	0	C	1	M1
NMTTP	119	288	5	A	1	M1
NMTHO	120	0	7	96	A	0	M1
NMTHO	120	144	0	96	A	0	M1
NMTHO	120	288	1	96	A	0	M1
NMTHO	121	48	2	96	A	0	M1
NMSTR	121	192	6
NMSI_	121	192	6	96	48	0
NMTAP	121	288	4
NMTHO	122	0	3	96	A	0	M1
NMTHO	122	144	4	96	A	0	M1
NMTHO	122	288	5	96	A	0	M1
NMTHO	123	48	6	96	A	0	M1
NMSTR	123	192	1
NMSI_	123	192	1	96	48	7
NMTAP	123	288	3
NMTHO	124	0	5	96	E	0	M1
NMTAP	124	96	0
NMTHO	124	144	3	96	A	0	M1
NMTAP	124	240	2
NMTHO	124	288	5	96	A	0	M1
NMTAP	125	0	0
NMTHO	125	48	4	96	E	0	M1
NMTAP	125	144	2
NMSTR	125	192	6
NMSCR	125	192	6	96	48	1
NMTAP	125	288	4
NMTHO	126	0	3	96	E	0	M1
NMTAP	126	96	7
NMTHO	126	144	4	96	A	0	M1
NMTAP	126	240	5
NMTHO	126	288	2	96	A	0	M1
NMTAP	127	0	7
NMTHO	127	48	4	96	E	0	M1
NMTAP	127	144	5
NMSTR	127	192	1
NMSCR	127	192	1	96	96	6
NMTHO	127	288	0	96	C	0	M1

T_REC_TAP	562
T_REC_BRK	53
T_REC_XTP	18
T_REC_BXX	3
T_REC_HLD	19
T_REC_XHO	0
T_REC_BHO	2
T_REC_BXH	0
T_REC_STR	130
T_REC_BST	11
T_REC_XST	4
T_REC_XBS	0
T_REC_TTP	32
T_REC_THO	31
T_REC_SLD	138
T_REC_BSL	13
T_REC_ALL	1016
T_NUM_TAP	746
T_NUM_BRK	82
T_NUM_HLD	50
T_NUM_SLD	138
T_NUM_ALL	1016
T_JUDGE_TAP	813
T_JUDGE_HLD	282
T_JUDGE_SLD	151
T_JUDGE_ALL	1246
TTM_EACHPAIRS	189
TTM_SCR_TAP	373000
TTM_SCR_BRK	213200
TTM_SCR_HLD	50000
TTM_SCR_SLD	207000
TTM_SCR_ALL	843200
TTM_SCR_S	809950
TTM_SCR_SS	835000
TTM_RAT_ACV	10098

