VERSION	0.00.00	1.05.00
FES_MODE	0
BPM_DEF	190.000	190.000	190.000	190.000
MET_DEF	4	4
RESOLUTION	384
CLK_DEF	384
COMPATIBLE_CODE	MA2
GENERATED_BY	MuConvert v0.2.0-beta.2+40bb110

BPM	0	0	190.000
MET	0	0	4	4

NMSTR	2	0	3
NMSI_	2	0	3	96	288	7
NMHLD	2	0	2	1536
NMSTR	4	0	7
NMSI_	4	0	7	96	288	3
NMHLD	6	0	1	384
NMHLD	7	0	0	384
NMHLD	8	0	7	384
NMSTR	9	0	6
NMSI_	9	0	6	96	288	2
BRTAP	10	0	0
NMTAP	10	96	0
NMTAP	10	192	1
NMTAP	10	192	3
NMTAP	10	288	1
NMTAP	10	288	3
NMTAP	11	0	2
NMTAP	11	0	4
NMTAP	11	96	2
NMTAP	11	96	4
NMTAP	11	192	3
NMTAP	11	192	4
NMTAP	11	288	3
NMTAP	11	288	4
NMTAP	12	0	4
NMHLD	12	0	5	96
NMTAP	12	96	4
NMTAP	12	192	3
NMTAP	12	192	5
NMTAP	12	288	3
NMTAP	12	288	5
NMTAP	13	0	4
NMTAP	13	0	6
NMTAP	13	96	6
NMTAP	13	96	4
NMTAP	13	192	7
NMSTR	13	288	7
NMSI_	13	288	7	96	96	3
NMSTR	14	96	1
NMSI_	14	96	1	96	96	4
NMSTR	14	288	5
NMSI_	14	288	5	96	96	0
NMSTR	15	96	2
NMSCR	15	96	2	96	96	5
EXTAP	15	288	7
NMHLD	16	0	6	96
NMHLD	16	96	7	96
NMHLD	16	192	0	96
NMTAP	16	288	1
NMTAP	17	0	7
NMHLD	17	0	2	288
EXTAP	17	288	4
BRTAP	18	0	1
BRTAP	18	0	5
NMTAP	18	96	6
NMHLD	18	144	6	96
NMTAP	18	240	7
NMTAP	18	288	7
NMTAP	19	0	0
NMTAP	19	0	1
NMTAP	19	96	2
NMHLD	19	144	2	96
NMTAP	19	240	3
NMTAP	19	288	3
NMTAP	20	0	2
NMTAP	20	0	3
NMTAP	20	96	1
NMHLD	20	144	1	96
NMTAP	20	240	0
NMTAP	20	288	0
NMTAP	21	0	1
NMTAP	21	0	7
NMTAP	21	48	1
NMTAP	21	48	7
NMTAP	21	96	1
NMTAP	21	96	7
NMTAP	21	192	2
NMTAP	21	192	6
NMTAP	21	288	3
NMTAP	21	288	5
BRTAP	22	0	2
BRTAP	22	0	6
NMTAP	22	96	1
NMHLD	22	144	1	96
NMTAP	22	240	0
NMTAP	22	288	0
NMTAP	23	0	7
NMTAP	23	0	6
NMTAP	23	96	5
NMHLD	23	144	5	96
NMTAP	23	240	4
NMTAP	23	288	4
NMTAP	24	0	3
NMTAP	24	0	6
NMTAP	24	96	1
NMTAP	24	96	0
NMTAP	24	192	3
NMTAP	24	192	2
NMTAP	24	288	4
NMTAP	24	288	5
NMTAP	25	0	6
NMTAP	25	48	6
NMTAP	25	96	7
NMTAP	25	192	0
NMTAP	25	192	5
NMTAP	25	288	2
NMTAP	25	288	7
NMTAP	26	0	3
NMTAP	26	0	4
BXHLD	26	96	1	480
BXHLD	26	96	3	480
NMHLD	28	0	5	96
BXHLD	28	144	6	432
BXHLD	28	144	4	432
NMTAP	30	0	3
NMSTR	30	0	5
NMSI_	30	0	5	96	144	2
CNSI_	30	240	2	0	144	7
CNSI_	31	0	7	0	144	3
NMTAP	31	288	2
NMTAP	31	336	2
NMTAP	32	0	4
NMSTR	32	0	2
NMSI_	32	0	2	96	144	5
CNSI_	32	240	5	0	144	0
CNSI_	33	0	0	0	144	4
NMTAP	33	288	4
NMTAP	33	288	5
EXHLD	34	0	6	96
NMTAP	34	96	4
NMTAP	34	144	4
NMTAP	34	240	3
NMTAP	34	240	5
NMTAP	34	288	3
NMSTR	34	288	5
NMSI_	34	288	5	96	96	2
NMTAP	35	192	1
NMTAP	35	240	1
NMTAP	35	288	0
NMTAP	36	0	1
NMTAP	36	0	7
NMTAP	36	96	0
NMTAP	36	96	6
NMTAP	36	144	0
NMSTR	36	144	6
NMSI_	36	144	6	96	96	1
CNSI_	36	336	1	0	96	3
NMTAP	37	192	2
NMTAP	37	192	4
NMTAP	37	240	2
NMTAP	37	240	4
NMTAP	37	288	2
NMTAP	37	288	4
BRTAP	38	0	3
BRHLD	38	0	5	96
NMTAP	38	96	4
NMSTR	38	144	4
NMSCL	38	144	4	96	264	1
CNSUL	39	120	1	0	264	6
NMTTP	40	0	5	E	0	M1
NMTTP	40	96	4	E	0	M1
NMTTP	40	192	3	E	0	M1
NMTTP	40	288	0	C	0	M1
NMTTP	41	0	0	E	0	M1
NMTTP	41	96	1	E	0	M1
NMTTP	41	192	2	E	0	M1
NMTTP	41	192	4	E	0	M1
NMTHO	42	0	3	144	E	0	M1
NMTHO	42	288	2	144	E	0	M1
NMTHO	42	288	4	144	E	0	M1
NMTAP	43	192	0
NMTAP	43	192	7
NMTAP	43	288	7
NMTAP	43	288	6
NMTHO	44	0	5	144	E	0	M1
NMTHO	44	288	6	144	E	0	M1
NMTHO	44	288	4	144	E	0	M1
NMTAP	45	192	7
NMTAP	45	288	0
NMTAP	45	288	7
NMHLD	46	0	1	144
NMHLD	46	144	3	144
NMHLD	46	288	4	144
NMTAP	47	48	5
NMTAP	47	192	3
NMTAP	47	192	6
NMTAP	47	288	3
NMTAP	47	288	6
NMHLD	48	0	5	144
NMHLD	48	144	6	144
NMHLD	48	288	7	144
NMHLD	49	48	0	144
NMTAP	49	192	1
NMSTR	49	288	1
BRSI_	49	288	1	96	48	5
BXHLD	50	0	7	1152
NMTHO	52	0	4	384	B	0	M1
NMTAP	53	240	0
NMTAP	53	240	7
NMTAP	53	288	0
NMTAP	53	288	7
BRSTR	54	0	7
NMSI_	54	0	7	96	48	3
BRSTR	54	0	6
NMSI_	54	0	6	96	48	3
NMTAP	54	192	2
NMTAP	54	192	4
NMTAP	54	288	1
NMTAP	54	288	0
NMSTR	54	336	0
NMSI_	54	336	0	96	48	4
NMSTR	54	336	1
NMSI_	54	336	1	96	48	4
EXTAP	55	144	6
EXTAP	55	144	3
NMTAP	55	240	5
NMTAP	55	288	5
NMTAP	55	336	4
NMHLD	56	0	6	96
NMTAP	56	96	7
BRTAP	56	192	1
BRTAP	56	192	0
NMTAP	56	288	2
NMTAP	56	288	7
NMTAP	56	336	2
NMTAP	56	336	7
NMTAP	57	48	0
NMTAP	57	48	5
BRTAP	57	144	2
BRTAP	57	144	3
NMTAP	57	240	1
NMHLD	57	288	1	768
NMTAP	58	0	7
EXTAP	58	96	3
NMTAP	58	192	4
NMTAP	58	288	0
NMTAP	59	0	7
NMTAP	59	96	3
NMTAP	59	192	4
NMTAP	59	288	0
NMTAP	60	0	3
NMTAP	60	0	7
EXTAP	60	96	1
EXTAP	60	96	5
EXTAP	60	144	1
EXTAP	60	144	5
NMTAP	60	240	2
NMTAP	60	240	4
NMTAP	60	336	5
NMHLD	61	0	5	96
NMTAP	61	96	4
NMTAP	61	144	4
NMTAP	61	240	3
NMTAP	61	240	2
BRTAP	61	288	3
BRTAP	61	288	2
NMHLD	62	0	1	48
NMHLD	62	0	3	48
NMHLD	62	96	4	48
NMHLD	62	96	2	48
NMHLD	62	192	5	48
NMHLD	62	192	3	48
NMTAP	62	288	6
NMSTR	62	336	6
NMSI_	62	336	6	96	48	3
NMSTR	63	48	7
NMSI_	63	48	7	96	48	2
EXTAP	63	240	1
EXTAP	63	240	3
EXTAP	63	288	1
EXTAP	63	288	3
NMHLD	64	0	0	48
NMHLD	64	0	1	48
NMHLD	64	96	0	48
NMHLD	64	96	1	48
NMHLD	64	192	6	48
NMHLD	64	192	7	48
NMTAP	64	288	0
NMTAP	64	288	5
NMSTR	64	336	0
NMSI_	64	336	0	96	96	4
NMTAP	64	336	5
CNSI_	65	144	4	0	96	1
EXTAP	65	240	0
NMTAP	65	336	1
NMTAP	65	336	0
NMSTR	66	0	1
NMSI_	66	0	1	96	48	5
NMSTR	66	0	0
NMSI_	66	0	0	96	48	5
NMSTR	66	192	6
NMSI_	66	192	6	96	48	2
NMSTR	66	192	7
NMSI_	66	192	7	96	48	2
EXTAP	67	0	1
EXTAP	67	0	3
NMTAP	67	96	1
NMTAP	67	96	3
NMTAP	67	192	4
NMTAP	67	192	5
NMTAP	67	288	7
NMTAP	67	288	6
NMTAP	68	0	1
NMTAP	68	48	1
NMTAP	68	96	0
NMTAP	68	144	0
NMTAP	68	192	3
NMTAP	68	240	3
NMTAP	68	288	4
NMTAP	68	336	4
NMTAP	69	0	6
EXTAP	69	96	7
EXSTR	69	96	5
BRSCL	69	96	5	96	192	1
NMTHO	70	0	0	384	E	0	M1
NMTTP	71	192	1	E	0	M1
NMTHO	72	0	0	384	C	0	M1
NMTTP	73	192	5	E	0	M1
BRTAP	74	0	4
NMTAP	74	0	5
NMTAP	74	96	4
NMTAP	74	192	4
NMTAP	74	192	6
NMTAP	74	288	5
NMTAP	74	288	4
NMTAP	75	0	4
NMTAP	75	0	6
NMTAP	75	96	7
NMTAP	75	96	4
NMTAP	75	192	4
NMHLD	75	192	0	96
NMTAP	75	288	4
NMHLD	76	0	0	96
NMHLD	76	0	4	96
NMHLD	76	192	0	96
NMHLD	76	192	3	96
NMHLD	77	0	0	96
NMHLD	77	0	2	96
NMTTP	77	192	3	B	0	M1
NMTTP	77	192	2	B	0	M1
NMTTP	77	192	3	E	1	M1
NMTTP	77	192	2	E	0	M1
NMTTP	77	192	4	E	0	M1
BRTAP	78	0	7
BRTAP	78	0	6
NMTAP	78	144	5
NMTAP	78	192	4
NMTAP	78	192	5
NMTAP	78	288	3
NMHLD	78	288	1	144
NMTAP	79	48	0
NMTAP	79	96	0
NMTAP	79	192	1
NMTAP	79	192	7
NMTAP	79	288	3
NMTAP	79	288	5
BRTAP	80	0	2
BRTAP	80	0	6
NMTAP	80	144	5
NMTAP	80	192	4
NMTAP	80	192	5
NMTAP	80	288	5
NMHLD	80	288	6	144
NMTAP	81	48	7
NMTAP	81	96	7
NMSTR	81	192	5
NMSI_	81	192	5	96	48	3
NMTAP	81	192	0
NMHLD	82	0	1	96
NMTAP	82	96	3
NMTAP	82	144	2
NMHLD	82	192	4	96
NMHLD	82	288	3	96
NMTAP	83	0	5
NMTAP	83	48	4
NMHLD	83	96	6	96
NMTAP	83	192	0
NMTAP	83	240	0
NMTAP	83	288	7
NMTAP	83	336	7
BRTAP	84	0	0
BRTAP	84	0	6
NMTAP	84	96	2
NMTAP	84	96	3
NMTAP	84	192	1
NMTAP	84	192	0
NMTAP	84	288	7
NMTAP	84	288	6
NMTAP	85	0	0
NMTAP	85	0	5
NMTAP	85	96	1
NMTAP	85	96	4
NMTAP	85	192	2
NMTAP	85	216	3
NMTAP	85	240	2
NMTAP	85	264	3
NMSTR	85	288	2
NMSCL	85	288	2	96	384	5
CNSCR	87	0	5	0	384	2
NMTHO	88	0	3	576	B	0	M1
NMTHO	89	0	2	192	E	0	M1
NMHLD	90	0	0	144
NMHLD	90	144	6	144
NMSTR	90	288	7
NMSXL	90	288	7	96	384	2
CNSXL	92	0	2	0	384	5
NMTTP	93	0	7	E	0	M1
NMTHO	93	192	0	960	C	0	M1
NMTTP	96	0	0	B	1	M1
NMSTR	97	192	6
NMSI_	97	192	6	96	48	4
NMSTR	97	192	1
NMSI_	97	192	1	96	48	3
BXTAP	98	0	5
BXTAP	98	0	2
NMTAP	98	96	6
NMTAP	98	144	6
NMTAP	98	192	7
NMTAP	98	192	5
NMTAP	98	288	0
NMTAP	98	288	7
NMTAP	98	336	0
NMTAP	98	336	7
NMTAP	99	48	2
NMTAP	99	48	0
BRTAP	99	144	3
BRTAP	99	144	5
NMTAP	99	240	2
NMTAP	99	240	6
NMTAP	99	288	2
NMTAP	99	288	6
NMTAP	100	0	0
NMHLD	100	0	1	96
NMTAP	100	96	7
NMTAP	100	144	6
NMHLD	100	192	5	96
NMTAP	100	288	7
NMTAP	100	336	0
NMHLD	101	0	1	96
NMSTR	101	96	0
NMSI_	101	96	0	96	48	4
NMSTR	101	192	1
NMSI_	101	192	1	96	48	5
BRTAP	102	0	7
NMTAP	102	96	4
NMTAP	102	96	6
NMTAP	102	144	4
NMTAP	102	144	6
NMTAP	102	240	4
NMTAP	102	240	3
NMTAP	102	336	1
NMTAP	102	336	3
NMTAP	103	0	1
NMTAP	103	0	3
NMTAP	103	96	0
NMTAP	103	144	0
NMTAP	103	192	5
NMTAP	103	240	5
BRSTR	103	288	7
NMSI_	103	288	7	96	48	3
BRSTR	103	288	6
NMSI_	103	288	6	96	48	2
NMSTR	104	96	0
NMSI_	104	96	0	96	48	4
NMSTR	104	96	1
NMSI_	104	96	1	96	48	5
EXTAP	104	288	7
EXTAP	104	288	6
EXTAP	104	336	7
EXTAP	104	336	6
NMTAP	105	48	4
NMTAP	105	48	5
NMTAP	105	144	3
NMTAP	105	144	2
NMTAP	105	240	1
NMTAP	105	240	0
NMSTR	105	288	1
NMSI_	105	288	1	96	48	5
NMSTR	105	288	0
NMSI_	105	288	0	96	48	4
NMSTR	106	96	7
NMSI_	106	96	7	96	48	3
NMSTR	106	96	6
NMSI_	106	96	6	96	48	2
NMTAP	106	288	1
NMTAP	106	288	0
NMTAP	106	336	1
NMTAP	106	336	0
NMTAP	107	48	2
NMTAP	107	48	3
NMTAP	107	144	4
NMTAP	107	144	5
BXSTR	107	240	6
BRSI_	107	240	6	96	48	2
BXSTR	107	240	5
BRSI_	107	240	5	96	48	1
NMTAP	108	96	0
NMTAP	108	96	7
NMTAP	108	192	5
NMTAP	108	192	6
NMTAP	108	288	3
NMTAP	108	288	4
NMTAP	109	0	2
NMTAP	109	0	1
NMTAP	109	96	7
NMTAP	109	96	5
NMTAP	109	192	2
NMTAP	109	192	0
NMTAP	109	288	4
NMTAP	109	288	6
NMTAP	110	0	5
NMTAP	110	48	5
NMTAP	110	96	7
NMTAP	110	144	7
NMTAP	110	192	0
NMTAP	110	240	0
NMTAP	110	288	2
NMTAP	110	336	2
NMTAP	111	0	4
NMTAP	111	24	3
NMTAP	111	48	4
NMTAP	111	72	3
NMTAP	111	96	4
NMTAP	111	120	3
NMTAP	111	144	4
NMTAP	111	168	3
NMSTR	111	192	4
NMSI_	111	192	4	96	48	1
NMSI_	111	192	4	96	48	7
BXTAP	112	0	0
NMTAP	112	96	2
NMTAP	112	144	3
NMTAP	112	144	2
NMTAP	112	240	5
NMTAP	112	288	4
NMTAP	112	288	5
NMTAP	113	0	7
NMTAP	113	0	6
NMTAP	113	96	1
NMTAP	113	144	1
NMTAP	113	144	0
NMTAP	113	240	6
NMTAP	113	288	7
NMTAP	113	288	6
NMTAP	114	0	4
NMTAP	114	0	5
NMTAP	114	96	2
NMTAP	114	144	1
NMTAP	114	144	3
NMTAP	114	240	5
NMTAP	114	288	4
NMHLD	114	288	6	96
NMHLD	115	0	0	96
NMHLD	115	96	2	96
NMTAP	115	192	4
NMTAP	115	288	4
NMTAP	115	288	5
BRTAP	116	0	7
NMTAP	116	96	6
NMTAP	116	144	4
NMTAP	116	144	6
NMTAP	116	240	1
NMTAP	116	288	1
NMTAP	116	288	3
NMTAP	117	0	0
NMTAP	117	0	2
NMTAP	117	96	7
NMTAP	117	96	5
NMTAP	117	192	3
NMTAP	117	192	4
BRTAP	117	288	0
BRTAP	117	288	7
NMTAP	118	0	6
NMTAP	118	48	6
NMTAP	118	96	4
NMTAP	118	144	4
NMTAP	118	192	2
NMTAP	118	240	2
NMHLD	118	288	0	96
NMTTP	119	0	1	E	0	M1
NMTTP	119	24	2	E	0	M1
NMTTP	119	48	3	E	0	M1
NMTTP	119	72	4	E	0	M1
NMTTP	119	96	5	E	0	M1
NMTTP	119	120	6	E	0	M1
NMTTP	119	144	7	E	0	M1
NMTTP	119	168	0	E	0	M1
NMTHO	119	192	1	192	E	1	M1
BXSTR	120	0	0
NMSCR	120	0	0	96	352	3
CNSSR	121	64	3	0	352	7
CNSCL	122	32	7	0	352	4
NMHLD	124	0	5	144
NMHLD	124	144	4	144
NMHLD	124	288	3	240
NMTAP	125	144	2
NMTAP	125	192	2
NMTAP	125	288	3
NMTAP	126	0	4
NMHLD	126	0	2	144
NMHLD	126	144	3	144
NMHLD	126	288	4	240
NMTAP	127	144	5
NMSTR	127	192	5
BRSF_	127	192	5	96	96	1

T_REC_TAP	344
T_REC_BRK	25
T_REC_XTP	21
T_REC_BXX	3
T_REC_HLD	65
T_REC_XHO	1
T_REC_BHO	1
T_REC_BXH	5
T_REC_STR	37
T_REC_BST	4
T_REC_XST	1
T_REC_XBS	3
T_REC_TTP	25
T_REC_THO	13
T_REC_SLD	41
T_REC_BSL	5
T_REC_ALL	594
T_NUM_TAP	428
T_NUM_BRK	46
T_NUM_HLD	79
T_NUM_SLD	41
T_NUM_ALL	594
T_JUDGE_TAP	463
T_JUDGE_HLD	353
T_JUDGE_SLD	46
T_JUDGE_ALL	862
TTM_EACHPAIRS	161
TTM_SCR_TAP	214000
TTM_SCR_BRK	119600
TTM_SCR_HLD	79000
TTM_SCR_SLD	61500
TTM_SCR_ALL	474100
TTM_SCR_S	455450
TTM_SCR_SS	469500
TTM_RAT_ACV	10097

