VERSION	0.00.00	1.05.00
FES_MODE	0
BPM_DEF	190.000	190.000	190.000	190.000
MET_DEF	4	4
RESOLUTION	384
CLK_DEF	384
COMPATIBLE_CODE	MA2
GENERATED_BY	MuConvert v0.2.0-beta.2+40bb110

BPM	0	0	190.000
MET	0	0	4	4

NMTAP	2	0	7
NMTAP	2	192	7
NMTAP	3	0	6
NMTAP	3	192	6
NMTAP	4	0	5
NMTAP	4	192	5
NMTAP	5	0	3
NMTAP	5	0	4
NMTAP	5	192	4
NMTAP	5	192	3
NMTAP	6	0	3
NMTAP	6	192	3
NMTAP	7	0	2
NMTAP	7	192	2
NMTAP	8	0	1
NMTAP	8	192	1
NMTAP	9	0	0
NMTAP	9	0	7
NMTAP	10	0	0
NMTAP	10	96	0
NMTAP	10	192	0
NMTAP	11	0	1
NMTAP	11	96	1
NMTAP	11	192	1
NMTAP	12	0	2
NMTAP	12	96	2
NMTAP	12	192	2
NMTAP	13	0	3
NMTAP	13	0	4
NMTAP	13	192	3
NMTAP	13	192	4
NMTAP	14	0	4
NMTAP	14	96	4
NMTAP	14	192	4
NMTAP	15	0	5
NMTAP	15	96	5
NMTAP	15	192	5
NMTAP	16	0	6
NMTAP	16	96	6
NMTAP	16	192	6
NMTAP	17	0	0
NMTAP	17	0	7
NMTAP	17	192	0
NMTAP	17	192	7
NMHLD	18	0	1	192
NMHLD	18	192	0	192
NMHLD	19	0	7	192
NMTAP	19	192	6
NMHLD	20	0	6	192
NMHLD	20	192	7	192
NMHLD	21	0	0	192
NMTAP	21	192	1
NMHLD	22	0	2	192
NMHLD	22	192	3	192
NMHLD	23	0	4	192
NMTAP	23	192	5
NMHLD	24	0	5	192
NMHLD	24	192	4	192
NMHLD	25	0	3	192
NMTAP	25	192	2
NMTAP	26	0	4
NMTAP	26	96	4
NMTAP	26	192	5
NMTAP	27	0	6
NMTAP	27	96	6
NMTAP	27	192	7
NMTAP	28	0	0
NMTAP	28	96	0
NMTAP	28	192	1
NMTAP	29	0	2
NMTAP	29	96	2
NMTAP	29	192	3
NMTAP	29	192	4
NMTAP	30	0	3
NMTAP	30	96	3
NMTAP	30	192	2
NMTAP	31	0	1
NMTAP	31	96	1
NMTAP	31	192	0
NMTAP	32	0	7
NMTAP	32	96	7
NMTAP	32	192	6
NMTAP	33	0	5
NMTAP	33	96	5
NMTAP	33	192	3
NMTAP	33	192	4
NMTAP	34	0	5
NMTAP	34	96	5
NMTAP	34	192	4
NMTAP	34	192	5
NMTAP	35	0	6
NMTAP	35	96	6
NMTAP	35	192	6
NMTAP	35	192	7
NMTAP	36	0	0
NMTAP	36	96	0
NMTAP	36	192	0
NMTAP	36	192	1
NMTAP	37	0	2
NMTAP	37	0	3
NMTAP	37	96	2
NMTAP	37	96	3
NMTAP	37	192	2
NMTAP	37	192	3
NMTAP	38	0	2
NMTAP	38	96	2
NMTAP	38	192	3
NMTAP	38	192	2
NMTAP	39	0	1
NMTAP	39	96	1
NMTAP	39	192	1
NMTAP	39	192	0
NMTAP	40	0	7
NMTAP	40	96	7
NMTAP	40	192	6
NMTAP	40	192	7
NMTAP	41	0	4
NMTAP	41	0	5
NMTTP	42	0	5	B	0	L1
NMTTP	42	0	4	B	0	L1
NMTTP	43	0	6	B	0	L1
NMTTP	43	0	7	B	0	L1
NMTTP	44	0	0	B	0	L1
NMTTP	44	0	1	B	0	L1
NMTTP	45	0	3	B	0	L1
NMTTP	45	0	2	B	0	L1
NMTTP	46	0	5	B	0	L1
NMTTP	46	0	5	E	0	L1
NMTTP	47	0	7	E	0	L1
NMTTP	47	0	7	B	0	L1
NMTTP	48	0	1	B	0	L1
NMTTP	48	0	1	E	0	L1
NMTTP	49	0	2	B	0	L1
NMTTP	49	0	3	B	0	L1
NMTHO	50	0	0	1152	C	1	L1
EXTAP	54	0	1
EXTAP	54	96	1
EXTAP	54	192	0
EXTAP	54	288	0
EXTAP	55	0	7
EXTAP	55	96	7
EXTAP	55	192	7
EXTAP	55	192	6
NMTAP	56	0	5
NMTAP	56	96	5
NMTAP	56	192	6
NMTAP	56	288	6
NMTAP	57	0	7
NMTAP	57	96	7
NMTAP	57	192	0
NMTAP	57	192	1
NMTAP	58	0	1
NMTAP	58	96	1
NMTAP	58	192	2
NMTAP	58	288	2
NMTAP	59	0	3
NMTAP	59	96	3
NMTAP	59	192	5
NMTAP	59	192	4
NMTAP	60	0	6
NMTAP	60	96	6
NMTAP	60	192	5
NMTAP	60	288	5
NMTAP	61	0	4
NMTAP	61	96	4
NMTAP	61	192	2
NMTAP	61	192	3
NMTAP	62	0	2
NMTAP	62	96	2
NMTAP	62	192	1
NMTAP	62	288	1
NMTAP	63	0	0
NMTAP	63	96	0
NMTAP	63	192	6
NMTAP	63	192	7
NMTAP	63	288	6
NMTAP	63	288	7
BRTAP	64	0	5
NMTAP	64	96	5
NMTAP	64	192	6
NMTAP	64	288	6
NMTAP	65	0	7
NMTAP	65	96	7
NMTAP	65	192	0
NMTAP	65	192	1
NMTAP	66	0	1
NMTAP	66	96	1
NMTAP	66	192	2
NMTAP	66	288	2
NMTAP	67	0	3
NMTAP	67	96	3
NMTAP	67	192	4
NMTAP	67	192	5
NMTAP	67	288	4
NMTAP	67	288	5
NMTAP	68	0	6
NMTAP	68	96	6
NMTAP	68	192	5
NMTAP	68	288	5
NMTAP	69	0	4
NMTAP	69	96	4
NMTAP	69	192	3
NMTAP	69	192	2
NMHLD	70	0	1	384
NMTAP	70	192	0
NMTAP	71	0	0
NMHLD	72	0	2	384
NMTAP	72	192	3
NMTAP	73	0	3
NMHLD	74	0	5	384
NMTAP	74	192	4
NMTAP	75	0	4
NMHLD	76	0	6	384
NMTAP	76	192	7
NMTAP	77	0	7
NMTAP	78	0	6
NMTAP	78	96	6
NMTAP	78	192	6
NMTAP	78	288	6
NMTAP	78	288	7
NMTAP	79	0	5
NMTAP	79	96	5
NMTAP	79	192	5
NMTAP	79	288	4
NMTAP	79	288	5
NMTAP	80	0	3
NMTAP	80	96	3
NMTAP	80	192	3
NMTAP	80	288	3
NMTAP	80	288	2
NMTAP	81	0	1
NMTAP	81	96	1
NMTAP	81	192	1
NMTAP	81	192	0
NMTAP	82	0	1
NMTAP	82	96	1
NMTAP	82	192	1
NMTAP	82	288	0
NMTAP	82	288	1
NMTAP	83	0	2
NMTAP	83	96	2
NMTAP	83	192	2
NMTAP	83	288	2
NMTAP	83	288	3
NMTAP	84	0	4
NMTAP	84	96	4
NMTAP	84	192	4
NMTAP	84	288	4
NMTAP	84	288	5
NMTAP	85	0	6
NMTAP	85	96	6
NMTAP	85	192	6
NMTAP	85	192	7
NMSTR	86	0	6
NMSI_	86	0	6	96	288	3
NMSTR	88	0	1
NMSI_	88	0	1	96	288	4
NMSTR	90	0	6
NMSI_	90	0	6	96	288	2
NMSTR	92	0	0
NMSXL	92	0	0	96	864	4
NMTHO	96	0	0	384	C	0	L1
BXTAP	98	0	0
EXTAP	98	96	0
EXTAP	98	192	0
EXTAP	98	192	7
EXTAP	98	288	0
EXTAP	98	288	7
EXTAP	99	0	6
EXTAP	99	96	6
EXTAP	99	192	6
EXTAP	99	192	7
NMTAP	100	0	6
NMTAP	100	96	6
NMTAP	100	192	4
NMTAP	100	192	5
NMTAP	100	288	4
NMTAP	100	288	5
NMTAP	101	0	3
NMTAP	101	96	3
NMTAP	101	192	2
NMTAP	101	192	3
NMTAP	102	0	1
NMTAP	102	96	1
NMTAP	102	192	2
NMTAP	102	192	3
NMTAP	102	288	2
NMTAP	102	288	3
NMTAP	103	0	4
NMTAP	103	96	4
NMTAP	103	192	5
NMTAP	103	192	4
NMTAP	104	0	5
NMTAP	104	96	5
NMTAP	104	192	6
NMTAP	104	192	7
NMTAP	104	288	6
NMTAP	104	288	7
NMTAP	105	0	0
NMTAP	105	96	0
NMTAP	105	192	0
NMTAP	105	192	1
NMTAP	105	288	0
NMTAP	105	288	1
NMTAP	106	0	2
NMTAP	106	96	2
NMTAP	106	192	0
NMTAP	106	192	1
NMTAP	106	288	0
NMTAP	106	288	1
NMTAP	107	0	7
NMTAP	107	96	7
NMTAP	107	192	7
NMTAP	107	192	6
NMTAP	108	0	6
NMTAP	108	96	6
NMTAP	108	192	4
NMTAP	108	192	5
NMTAP	108	288	4
NMTAP	108	288	5
NMTAP	109	0	3
NMTAP	109	96	3
NMTAP	109	192	2
NMTAP	109	192	3
NMTAP	109	288	3
NMTAP	109	288	2
NMTAP	110	0	1
NMTAP	110	96	1
NMTAP	110	192	2
NMTAP	110	192	3
NMTAP	110	288	3
NMTAP	110	288	2
NMTAP	111	0	4
NMTAP	111	96	4
BRTAP	111	192	4
BRTAP	111	192	5
NMTAP	112	0	5
NMTAP	112	48	5
NMTAP	112	96	5
NMTAP	112	192	6
NMTAP	112	240	6
NMTAP	112	288	6
NMTAP	113	0	7
NMTAP	113	48	7
NMTAP	113	96	7
NMTAP	113	192	1
NMTAP	113	192	0
NMTAP	114	0	2
NMTAP	114	48	2
NMTAP	114	96	2
NMTAP	114	192	1
NMTAP	114	240	1
NMTAP	114	288	1
NMTAP	115	0	0
NMTAP	115	48	0
NMTAP	115	96	0
NMTAP	115	192	6
NMTAP	115	192	7
NMTAP	116	0	6
NMTAP	116	48	6
NMTAP	116	96	6
NMTAP	116	192	5
NMTAP	116	240	5
NMTAP	116	288	5
NMTAP	117	0	4
NMTAP	117	48	4
NMTAP	117	96	4
NMTAP	117	192	2
NMTAP	117	192	3
NMTAP	118	0	1
NMTAP	118	48	1
NMTAP	118	96	1
NMTAP	118	192	2
NMTAP	118	240	2
NMTAP	118	288	2
NMTAP	119	0	3
NMTAP	119	48	3
NMTAP	119	96	3
BXTAP	119	192	5
BXTAP	119	192	4
NMSTR	120	0	6
NMSI_	120	0	6	96	288	2
NMSTR	122	0	1
NMSI_	122	0	1	96	288	5
NMSTR	124	0	7
NMSI_	124	0	7	96	288	3
NMSTR	126	0	0
NMSSL	126	0	0	96	672	4

T_REC_TAP	315
T_REC_BRK	3
T_REC_XTP	17
T_REC_BXX	3
T_REC_HLD	16
T_REC_XHO	0
T_REC_BHO	0
T_REC_BXH	0
T_REC_STR	8
T_REC_BST	0
T_REC_XST	0
T_REC_XBS	0
T_REC_TTP	16
T_REC_THO	2
T_REC_SLD	8
T_REC_BSL	0
T_REC_ALL	388
T_NUM_TAP	356
T_NUM_BRK	6
T_NUM_HLD	18
T_NUM_SLD	8
T_NUM_ALL	388
T_JUDGE_TAP	362
T_JUDGE_HLD	112
T_JUDGE_SLD	8
T_JUDGE_ALL	482
TTM_EACHPAIRS	64
TTM_SCR_TAP	178000
TTM_SCR_BRK	15600
TTM_SCR_HLD	18000
TTM_SCR_SLD	12000
TTM_SCR_ALL	223600
TTM_SCR_S	216350
TTM_SCR_SS	223000
TTM_RAT_ACV	10026

