VERSION	0.00.00	1.05.00
FES_MODE	0
BPM_DEF	130.000	130.000	130.000	130.000
MET_DEF	4	4
RESOLUTION	384
CLK_DEF	384
COMPATIBLE_CODE	MA2

BPM	0	0	130.000
MET	0	0	4	4

NMTAP	1	336	3
NMTAP	1	336	4
NMSTR	2	0	3
NMSXR	2	0	3	96	288	0
NMHLD	2	0	4	576
CNSXR	3	0	0	0	288	5
NMTAP	4	0	4
NMSTR	4	0	6
NMSI_	4	0	6	96	96	1
NMTTP	4	192	0	C	0	M1
CNSCR	4	192	1	0	48	2
CNSI_	4	240	2	0	144	5
NMTTP	5	0	0	E	0	M1
CNSCL	5	0	5	0	144	3
NMTTP	5	192	1	E	0	M1
NMTHO	5	288	2	192	E	0	M1
NMTHO	6	0	4	96	E	0	M1
NMTAP	6	192	3
NMHLD	6	288	2	288
NMSTR	6	288	4
NMSCR	6	288	4	96	96	7
CNSI_	7	96	7	0	96	1
NMTAP	7	288	2
NMHLD	8	0	1	96
NMHLD	8	0	3	96
NMHLD	8	192	2	96
NMHLD	8	192	3	96
NMTAP	9	0	3
EXHLD	9	0	5	192
NMSTR	9	192	4
BRSI_	9	192	4	96	48	0
BRTAP	10	0	1
BRTAP	10	0	7
NMTAP	10	48	6
NMTAP	10	96	0
NMTAP	10	96	6
NMTAP	10	144	5
NMTAP	10	168	7
NMTAP	10	216	7
NMTAP	10	240	5
NMTAP	10	288	0
NMTAP	10	288	6
NMTAP	10	336	5
NMTAP	11	0	2
NMTAP	11	0	4
NMTAP	11	48	3
NMTAP	11	48	5
NMTAP	11	96	4
NMTAP	11	96	6
NMTAP	11	144	5
NMTAP	11	168	4
NMTAP	11	216	4
NMTAP	11	240	5
NMTAP	11	288	3
NMTAP	11	288	6
NMTAP	11	336	7
NMTAP	12	0	1
NMTAP	12	0	7
NMTAP	12	48	6
NMTAP	12	96	5
NMTAP	12	96	7
NMTAP	12	144	0
NMTAP	12	168	6
NMTAP	12	216	6
NMTAP	12	240	0
NMTAP	12	288	1
NMTAP	12	288	7
NMTAP	12	336	2
NMTAP	12	336	6
NMTAP	13	0	3
NMTAP	13	0	5
NMTAP	13	48	6
NMHLD	13	72	4	48
NMTAP	13	120	5
NMTAP	13	144	3
NMTAP	13	168	3
NMTAP	13	192	4
NMTAP	13	216	2
NMTAP	13	240	3
BRTAP	13	288	1
BRTAP	13	288	5
BRTAP	14	0	0
BRTAP	14	0	6
NMTAP	14	48	1
NMTAP	14	96	1
NMTAP	14	96	7
NMTAP	14	144	2
NMTAP	14	168	0
NMTAP	14	216	0
NMTAP	14	240	2
NMTAP	14	288	1
NMTAP	14	288	7
NMTAP	14	336	2
NMTAP	15	0	3
NMTAP	15	0	5
NMTAP	15	48	2
NMTAP	15	48	4
NMTAP	15	96	1
NMTAP	15	96	3
NMTAP	15	144	2
NMTAP	15	168	3
NMTAP	15	216	3
NMTAP	15	240	2
NMTAP	15	288	1
NMTAP	15	288	4
NMTAP	15	336	0
NMTAP	16	0	0
NMTAP	16	0	6
NMTAP	16	48	1
NMTAP	16	96	0
NMTAP	16	96	2
NMTAP	16	144	7
NMTAP	16	168	1
NMTAP	16	216	1
NMTAP	16	240	7
NMTAP	16	288	0
NMTAP	16	288	6
NMTAP	16	336	1
NMTAP	16	336	5
NMTAP	17	0	2
NMTAP	17	0	4
NMTAP	17	48	3
NMTAP	17	48	5
NMTAP	17	72	3
NMTAP	17	72	5
NMTAP	17	120	0
NMTAP	17	144	7
NMTAP	17	168	1
NMSTR	17	192	6
NMSI_	17	192	6	96	48	2
NMTAP	17	216	2
NMTAP	17	240	5
NMTAP	17	264	3
BRTAP	17	288	6
NMTAP	18	0	1
NMTAP	18	0	3
NMTAP	18	96	2
NMTAP	18	96	3
NMHLD	18	192	2	48
NMHLD	18	192	4	48
NMHLD	18	264	3	48
NMHLD	18	264	5	48
NMSTR	18	336	4
NMSCL	18	336	4	96	48	2
NMTAP	18	336	6
NMSTR	19	48	7
NMSI_	19	48	7	96	48	5
NMSTR	19	144	1
NMSI_	19	144	1	96	48	7
NMTAP	19	240	4
NMSTR	19	288	4
NMSCR	19	288	4	96	96	7
NMHLD	20	0	0	288
CNSI_	20	96	7	0	96	3
NMSTR	20	288	3
NMSI_	20	288	3	96	96	7
NMTAP	21	0	1
CNSCR	21	96	7	0	96	2
NMTAP	21	288	2
NMTAP	21	288	3
EXHLD	22	0	1	96
NMTAP	22	0	3
EXHLD	22	96	2	96
NMTAP	22	192	3
NMTAP	22	264	2
NMTAP	22	336	1
NMSTR	22	336	4
NMSI_	22	336	4	96	48	0
NMSTR	23	48	2
NMSCR	23	48	2	96	48	4
NMTAP	23	144	7
NMTAP	23	240	6
NMSTR	23	288	6
NMSI_	23	288	6	96	96	4
EXTAP	24	0	3
NMTAP	24	96	2
CNSUR	24	96	4	0	96	2
EXHLD	24	192	1	96
NMTAP	24	288	4
NMTAP	25	0	2
NMTAP	25	24	2
NMTAP	25	48	7
NMTAP	25	72	7
NMTAP	25	96	0
NMTAP	25	120	0
NMTAP	25	144	5
NMTAP	25	192	6
NMSTR	25	192	7
NMSI_	25	192	7	96	48	3
NMTAP	25	240	0
NMTAP	25	240	5
NMHLD	26	0	2	48
NMHLD	26	0	4	48
NMHLD	26	96	3	48
NMHLD	26	96	5	48
NMTAP	26	192	4
NMSTR	26	192	6
NMSCR	26	192	6	96	48	1
NMTAP	26	264	3
NMHLD	26	336	2	144
NMSTR	27	96	0
NMSUL	27	96	0	96	96	3
NMTAP	27	192	2
NMTAP	27	288	1
NMTAP	27	336	1
NMSTR	28	0	2
NMSV_	28	0	2	96	48	7
NMHLD	28	48	2	96
NMSTR	28	192	6
NMSV_	28	192	6	96	48	3
NMHLD	28	240	6	96
BRTAP	29	0	5
NMTAP	29	48	5
NMHLD	29	96	4	72
NMHLD	29	168	3	72
NMTAP	29	240	2
NMTAP	29	288	3
NMTAP	29	336	5
NMSTR	30	0	4
NMSCL	30	0	4	96	96	0
NMTAP	30	0	6
NMSTR	30	192	7
NMSCL	30	192	7	96	96	3
NMHLD	31	0	2	192
CNSUR	31	0	3	0	96	0
NMTHO	31	192	1	192	E	0	M1
NMTTP	32	0	2	E	0	M1
NMTTP	32	96	0	C	0	M1
NMTTP	32	192	6	E	0	M1
NMTAP	32	288	7
NMHLD	32	336	7	240
NMTAP	33	288	1
NMTAP	33	288	6
NMTAP	34	0	5
NMTAP	34	24	4
NMTAP	34	48	5
NMTAP	34	72	2
NMTAP	34	96	3
NMTAP	34	120	2
NMTAP	34	144	5
NMTAP	34	168	4
EXTAP	34	192	6
EXTAP	34	208	3
EXTAP	34	224	6
EXTAP	34	240	3
NMTAP	34	288	1
NMTAP	34	304	4
NMTAP	34	320	1
NMHLD	34	336	4	48
NMTAP	35	0	2
NMTAP	35	24	3
NMTAP	35	48	4
NMTAP	35	72	5
NMTAP	35	96	6
NMTAP	35	120	7
NMTAP	35	144	0
EXTAP	35	168	1
EXTAP	35	168	4
NMSTR	35	288	2
NMSCL	35	288	2	96	96	4
NMTAP	35	288	3
BRSTR	36	0	4
BRSCR	36	0	4	96	96	2
NMTAP	36	96	2
NMSTR	36	192	4
NMSI_	36	192	4	96	48	0
NMTAP	36	240	5
NMTAP	36	288	6
NMTAP	36	336	5
EXTAP	37	0	0
NMSTR	37	48	2
BRSCL	37	48	2	96	96	4
BRSUL	37	48	2	96	96	4
NMTAP	37	96	3
NMTAP	37	96	4
BRTAP	37	288	1
BRTAP	37	288	5
NMSTR	38	0	7
NMSCL	38	0	7	96	48	4
NMTAP	38	48	0
NMTAP	38	48	6
NMTAP	38	144	2
EXSTR	38	192	3
NMSCL	38	192	3	96	48	0
NMTAP	38	240	2
NMTAP	38	240	4
NMTAP	38	288	5
EXTAP	39	0	7
NMSTR	39	48	0
BRSV_	39	48	0	96	48	3
NMSTR	39	48	6
BRSV_	39	48	6	96	48	3
NMTAP	39	96	1
NMTAP	39	96	5
EXTAP	39	240	2
EXTAP	39	240	4
NMSTR	39	288	1
NMSCL	39	288	1	96	48	6
EXTAP	39	288	5
NMSTR	40	0	1
NMSCR	40	0	1	96	48	4
NMTAP	40	0	3
NMTAP	40	96	0
NMTAP	40	96	1
NMTAP	40	192	6
NMSTR	40	240	5
NMSCL	40	240	5	96	96	7
NMTAP	40	288	4
BRTAP	40	336	3
EXTAP	41	48	4
CNSUR	41	48	7	0	96	6
NMTAP	41	144	0
NMTTP	41	192	2	E	0	M1
NMTTP	41	240	4	E	0	M1
NMTTP	41	288	6	E	0	M1
NMTTP	41	336	0	C	0	M1
NMSTR	42	0	7
NMSLL	42	0	7	96	96	1
NMTAP	42	48	7
NMTAP	42	96	1
NMTAP	42	144	3
NMTAP	42	192	2
NMTAP	42	240	2
NMTAP	42	288	0
NMTAP	42	288	2
NMSTR	42	336	3
NMSI_	42	336	3	96	48	0
NMSI_	42	336	3	96	48	6
NMTAP	42	336	7
EXTAP	43	48	3
BRTAP	43	144	1
BRTAP	43	144	5
EXSTR	43	240	0
NMSCR	43	240	0	96	48	4
NMSUR	43	240	0	96	48	5
NMTAP	43	288	7
NMSTR	44	48	6
NMSCR	44	48	6	96	48	1
NMSUL	44	48	6	96	48	2
NMTAP	44	96	5
NMSTR	44	240	3
NMSCR	44	240	3	96	48	6
NMSV_	44	240	3	96	48	0
NMTAP	44	288	2
NMTAP	44	288	4
NMSTR	45	48	1
NMSI_	45	48	1	96	48	4
NMSI_	45	48	1	96	48	6
NMTAP	45	96	0
NMTAP	45	96	2
NMTAP	45	240	3
NMTAP	45	240	7
BRTAP	45	288	0
BRTAP	45	288	2
NMTAP	45	336	1
NMTAP	45	360	0
NMTAP	46	0	1
NMTAP	46	48	2
NMTAP	46	48	3
NMTAP	46	96	3
NMTAP	46	96	4
NMSTR	46	144	5
NMSLR	46	144	5	96	96	1
NMTAP	46	168	4
NMSTR	46	192	5
NMSI_	46	192	5	96	48	3
EXTAP	47	0	1
EXTAP	47	0	3
NMTAP	47	48	2
NMTAP	47	48	4
NMTAP	47	72	2
NMTAP	47	72	4
NMTAP	47	120	5
NMTAP	47	144	3
NMTAP	47	168	4
NMTAP	47	192	2
NMTAP	47	240	2
NMTAP	47	240	4
BRTAP	47	288	1
BRTAP	47	288	5
NMTAP	47	336	0
NMTAP	47	360	7
NMTAP	48	0	1
NMTAP	48	0	6
NMSTR	48	48	1
NMSCL	48	48	1	96	48	6
NMSUR	48	48	1	96	48	5
NMTAP	48	96	2
NMSTR	48	240	4
NMSCL	48	240	4	96	48	1
NMSV_	48	240	4	96	48	7
NMTAP	48	288	3
NMTAP	48	288	5
NMSTR	49	48	6
NMSI_	49	48	6	96	48	1
NMSI_	49	48	6	96	48	3
NMTAP	49	96	5
NMTAP	49	96	7
NMTAP	49	240	0
NMTAP	49	240	4
BRTAP	49	288	0
BRTAP	49	288	4
NMHLD	50	0	1	48
NMHLD	50	48	3	48
NMTAP	50	96	2
NMTAP	50	144	4
NMTAP	50	168	3
NMHLD	50	192	5	48
NMTAP	50	240	4
NMTAP	50	288	3
NMTAP	50	288	5
NMTAP	51	0	2
NMTAP	51	24	4
NMTAP	51	48	0
NMTAP	51	72	7
NMSTR	51	96	4
NMSF_	51	96	4	96	48	0
NMTAP	51	120	6
NMTAP	51	144	2
BRTAP	52	0	1
BRTAP	52	0	7
NMTAP	52	48	2
NMTAP	52	48	6
NMHLD	52	96	3	48
NMHLD	52	96	5	48
NMHLD	52	168	2	48
NMHLD	52	168	4	48
NMTAP	52	240	1
NMTAP	52	240	3
NMTAP	52	288	0
NMTAP	52	336	7
NMTAP	53	0	0
NMTAP	53	0	6
NMTAP	53	48	1
NMTAP	53	48	5
NMHLD	53	96	2	48
NMHLD	53	96	4	48
NMHLD	53	168	4	48
NMHLD	53	168	5	48
NMTAP	53	240	3
NMTAP	53	240	6
NMTAP	53	288	2
NMTAP	53	288	7
NMTAP	53	336	2
NMTAP	53	336	7
EXTAP	54	0	1
NMTAP	54	24	0
NMTAP	54	48	2
NMTAP	54	72	7
EXTAP	54	96	3
NMTAP	54	120	6
NMTAP	54	144	4
NMTAP	54	168	5
NMTTP	54	192	4	E	0	M1
NMTTP	54	216	5	E	0	M1
NMTTP	54	240	3	B	0	M1
NMTTP	54	264	5	B	0	M1
NMTTP	54	288	2	B	0	M1
NMTTP	54	312	6	B	0	M1
NMTTP	54	336	2	E	0	M1
NMTTP	54	360	7	E	0	M1
EXTAP	55	0	1
NMTAP	55	24	7
NMTAP	55	48	1
NMTAP	55	72	7
EXTAP	55	96	0
NMTAP	55	120	6
NMTAP	55	144	7
NMTAP	55	168	5
EXTAP	55	192	0
NMTAP	55	216	1
NMTAP	55	240	2
NMTAP	55	264	3
EXTAP	55	288	6
NMTAP	55	312	5
NMTAP	55	336	4
NMTAP	55	360	3
NMSTR	56	0	1
NMSI_	56	0	1	96	96	6
CNSLR	56	192	6	0	192	4
NMSTR	57	0	6
NMSI_	57	0	6	96	96	1
CNSLL	57	192	1	0	192	3
NMHLD	58	0	1	576
NMTHO	58	192	3	384	E	0	M1
NMTHO	59	0	2	192	A	0	M1
NMSTR	59	288	0
NMSCR	59	288	0	96	192	3
NMTTP	60	0	3	B	0	M1
NMTTP	60	96	0	C	0	M1
NMTAP	60	192	7
NMSTR	60	288	7
NMSCL	60	288	7	96	192	4
NMTTP	61	0	4	B	0	M1
NMTTP	61	96	0	C	0	M1
NMTAP	61	192	0
NMHLD	61	288	1	96
NMHLD	62	0	3	96
NMHLD	62	96	5	96
NMHLD	62	192	3	96
NMHLD	62	336	2	240
NMHLD	62	336	4	240
NMTAP	63	240	1
NMTAP	63	288	0
NMSTR	63	288	1
NMSCR	63	288	1	96	96	7
BRSTR	64	0	7
BRSCL	64	0	7	96	96	1
NMTAP	64	96	1
NMSTR	64	192	7
NMSI_	64	192	7	96	48	3
NMTAP	64	240	6
NMTAP	64	288	5
NMTAP	64	336	6
EXTAP	65	0	3
NMSTR	65	48	1
NMSI_	65	48	1	96	48	5
NMTAP	65	96	0
NMTAP	65	144	7
EXHLD	65	168	7	120
NMTAP	65	240	4
EXTAP	65	288	3
NMTAP	65	336	6
NMTAP	65	360	6
EXSTR	66	0	4
NMSI_	66	0	4	96	48	0
NMTAP	66	48	3
NMTAP	66	48	5
NMTAP	66	96	2
NMTAP	66	96	4
NMTAP	66	144	1
NMTAP	66	168	1
EXSTR	66	192	0
NMSI_	66	192	0	96	48	5
NMTAP	66	240	1
NMTAP	66	240	7
NMSTR	66	288	0
NMSCR	66	288	0	96	48	3
NMSTR	66	288	6
NMSCL	66	288	6	96	48	3
BXTAP	67	0	0
BXTAP	67	0	6
NMTAP	67	96	1
NMTAP	67	96	5
NMTAP	67	144	0
NMTAP	67	144	6
NMTAP	67	168	0
NMTAP	67	168	6
NMTAP	67	216	1
NMTAP	67	216	7
NMTAP	67	240	1
NMTAP	67	240	7
EXSTR	67	288	2
NMSI_	67	288	2	96	48	4
EXTAP	67	288	6
NMSTR	68	0	2
NMSI_	68	0	2	96	48	7
NMSTR	68	0	5
NMSI_	68	0	5	96	48	0
NMTAP	68	96	2
NMSTR	68	96	5
NMSI_	68	96	5	96	48	3
NMTAP	68	192	5
NMSTR	68	240	7
NMSXL	68	240	7	96	144	3
NMTAP	68	288	0
BXTAP	68	336	6
NMHLD	69	48	4	96
NMTAP	69	144	2
NMTAP	69	192	2
NMTAP	69	192	3
NMTAP	69	240	1
NMTAP	69	240	2
NMTAP	69	288	0
NMTAP	69	288	1
NMTAP	69	336	0
NMTAP	69	336	7
NMSTR	70	0	6
NMSI_	70	0	6	96	48	3
NMSTR	70	48	3
BRSI_	70	48	3	96	48	6
NMTAP	70	96	2
NMTAP	70	144	0
NMSTR	70	192	2
NMSI_	70	192	2	96	48	7
NMSTR	70	240	7
BRSI_	70	240	7	96	48	2
NMTAP	70	288	6
NMTAP	70	336	4
NMHLD	71	0	6	48
NMTAP	71	48	4
NMTAP	71	96	2
NMTAP	71	144	0
BRTAP	71	144	4
NMTAP	71	240	0
NMTAP	71	240	4
NMSTR	71	288	1
NMSI_	71	288	1	96	48	7
NMTAP	71	336	3
NMTAP	71	360	3
BRTAP	72	0	1
NMTAP	72	48	4
NMSTR	72	96	5
NMSI_	72	96	5	96	48	1
NMTAP	72	144	4
NMTAP	72	168	4
NMTAP	72	192	5
NMTAP	72	240	3
NMSTR	72	288	2
NMSI_	72	288	2	96	48	7
NMTAP	72	336	6
NMTAP	72	360	6
NMTAP	73	0	2
NMTAP	73	48	4
NMSTR	73	96	5
NMSI_	73	96	5	96	48	1
NMTAP	73	144	0
NMTAP	73	168	0
NMTAP	73	192	5
NMTAP	73	240	3
NMSTR	73	288	6
NMSI_	73	288	6	96	48	0
NMTAP	73	336	4
NMTAP	73	360	4
BRTAP	74	0	6
NMTAP	74	48	3
NMSTR	74	96	2
NMSI_	74	96	2	96	48	6
NMTAP	74	144	3
NMTAP	74	168	3
NMTAP	74	192	2
NMTAP	74	240	4
NMTAP	74	288	5
NMTAP	74	288	7
NMTAP	74	336	0
NMTAP	74	336	1
NMTAP	75	0	1
NMTAP	75	0	3
NMTAP	75	48	2
NMTAP	75	72	4
NMTAP	75	120	6
NMTAP	75	144	4
NMTAP	75	168	5
NMTAP	75	192	3
NMTAP	75	240	2
NMTAP	75	240	4
BRTAP	75	288	0
BRTAP	75	288	6
NMTAP	75	336	7
NMTAP	75	360	7
NMSTR	76	0	1
NMSI_	76	0	1	96	48	5
NMTAP	76	48	0
NMTAP	76	48	2
NMTAP	76	96	1
NMTAP	76	96	7
NMTAP	76	144	6
NMTAP	76	168	6
NMTAP	76	192	4
NMTAP	76	240	3
NMTAP	76	240	5
NMTAP	76	288	2
NMSTR	76	288	4
NMSCR	76	288	4	96	48	6
NMTAP	76	336	1
NMTAP	76	360	1
NMTAP	77	0	4
NMTAP	77	48	0
EXTAP	77	96	6
NMSTR	77	96	7
NMSI_	77	96	7	96	48	5
NMTAP	77	144	0
NMTAP	77	168	0
BRTAP	77	192	7
NMTAP	77	240	1
CNSCL	77	240	5	0	48	2
NMSTR	77	288	0
BRSI_	77	288	0	96	48	4
BXTAP	78	0	0
BXTAP	78	0	7
NMTAP	78	48	6
NMTAP	78	96	5
NMTAP	78	144	5
NMTAP	78	168	3
NMTAP	78	216	2
NMTAP	78	240	4
NMHLD	78	288	1	48
NMHLD	78	288	5	48
NMTAP	79	0	2
NMTAP	79	24	2
NMTAP	79	48	0
NMTAP	79	72	4
NMSTR	79	96	4
BRSV_	79	96	4	96	48	7
NMTAP	79	120	6
NMTAP	79	144	2
NMTHO	79	192	2	144	B	0	M1
NMTHO	79	192	3	96	E	0	M1
NMTHO	79	192	3	168	B	0	M1
BXTAP	79	192	4
CNSCR	79	240	7	0	48	1

T_REC_TAP	388
T_REC_BRK	27
T_REC_XTP	26
T_REC_BXX	6
T_REC_HLD	46
T_REC_XHO	5
T_REC_BHO	0
T_REC_BXH	0
T_REC_STR	68
T_REC_BST	2
T_REC_XST	5
T_REC_XBS	0
T_REC_TTP	22
T_REC_THO	8
T_REC_SLD	73
T_REC_BSL	11
T_REC_ALL	687
T_NUM_TAP	509
T_NUM_BRK	46
T_NUM_HLD	59
T_NUM_SLD	73
T_NUM_ALL	687
T_JUDGE_TAP	544
T_JUDGE_HLD	152
T_JUDGE_SLD	84
T_JUDGE_ALL	780
TTM_EACHPAIRS	126
TTM_SCR_TAP	254500
TTM_SCR_BRK	119600
TTM_SCR_HLD	59000
TTM_SCR_SLD	109500
TTM_SCR_ALL	542600
TTM_SCR_S	521900
TTM_SCR_SS	538000
TTM_RAT_ACV	10085

