VERSION	0.00.00	1.05.00
FES_MODE	0
BPM_DEF	130.000	130.000	130.000	130.000
MET_DEF	4	4
RESOLUTION	384
CLK_DEF	384
COMPATIBLE_CODE	MA2

BPM	0	0	130.000
MET	0	0	4	4

NMHLD	2	0	2	480
NMTTP	2	96	4	E	0	M1
NMTTP	2	288	3	E	0	M1
NMTTP	3	96	3	B	0	M1
NMTAP	3	288	4
NMHLD	4	0	5	480
NMTTP	4	96	4	E	0	M1
NMTTP	4	288	5	E	0	M1
NMTTP	5	96	4	B	0	M1
NMTAP	5	288	2
NMHLD	6	0	1	480
NMTAP	6	96	3
NMTAP	6	288	3
NMTAP	7	96	4
NMTAP	7	288	3
NMTAP	7	288	5
NMHLD	8	0	6	672
NMTAP	8	96	4
NMTAP	8	288	4
NMHLD	9	96	4	192
BXTAP	10	0	5
NMTAP	10	48	5
NMTAP	10	96	4
NMTAP	10	192	4
NMTAP	10	192	6
NMTAP	10	288	3
NMTAP	10	288	4
NMTAP	11	0	2
NMTAP	11	48	2
NMTAP	11	96	3
NMTAP	11	192	1
NMTAP	11	192	3
NMTAP	11	288	3
NMTAP	11	288	4
NMTAP	12	0	5
NMTAP	12	48	5
NMTAP	12	96	4
NMTAP	12	96	6
NMTAP	12	192	2
NMTAP	12	240	2
NMTAP	12	288	1
NMTAP	12	288	3
NMSTR	13	0	0
NMSCR	13	0	0	96	96	3
NMSTR	13	0	4
NMSCR	13	0	4	96	96	7
NMTAP	13	288	0
NMTAP	13	288	2
NMTAP	14	0	1
NMTAP	14	48	1
NMTAP	14	96	3
NMTAP	14	192	2
NMTAP	14	192	4
NMTAP	14	288	4
NMTAP	14	288	5
NMTAP	15	0	6
NMTAP	15	48	6
NMTAP	15	96	4
NMTAP	15	192	3
NMTAP	15	192	5
NMTAP	15	288	2
NMTAP	15	288	3
NMTAP	16	0	2
NMTAP	16	48	2
NMTAP	16	96	1
NMTAP	16	96	3
NMTAP	16	192	4
NMTAP	16	240	4
NMTAP	16	288	3
NMTAP	16	288	5
EXHLD	17	0	2	72
EXHLD	17	0	6	72
EXTAP	17	144	1
EXTAP	17	144	5
EXTAP	17	192	1
EXTAP	17	192	5
NMTAP	17	288	2
NMTAP	17	288	4
NMHLD	18	0	1	576
NMTAP	18	96	3
NMTAP	18	192	3
NMTAP	18	288	3
NMTAP	19	0	2
NMTAP	19	96	2
NMTAP	19	192	2
NMTAP	19	288	2
NMTAP	19	288	3
NMHLD	20	0	6	576
NMTAP	20	96	4
NMTAP	20	192	4
NMTAP	20	288	4
NMTAP	21	0	5
NMTAP	21	96	5
NMTAP	21	192	5
NMTAP	21	288	4
NMTAP	21	288	5
NMHLD	22	0	2	576
NMTAP	22	96	3
NMTAP	22	192	3
NMTAP	22	288	3
NMTAP	23	0	1
NMTAP	23	96	1
NMTAP	23	192	1
NMTAP	23	288	0
NMTAP	23	288	7
NMHLD	24	0	6	96
NMHLD	24	96	4	96
NMHLD	24	192	5	96
NMHLD	24	288	6	96
EXTAP	25	0	7
NMTAP	25	192	1
NMTAP	25	192	7
NMTAP	25	288	1
NMTAP	25	288	7
NMHLD	26	0	6	96
NMTAP	26	96	4
EXTAP	26	192	3
EXTAP	26	192	5
EXTAP	26	264	3
EXTAP	26	264	5
EXTAP	26	336	2
EXSTR	26	336	6
NMSCL	26	336	6	96	144	2
NMTAP	27	192	1
NMTAP	27	288	0
NMTAP	27	288	1
EXTAP	28	0	2
EXTAP	28	0	7
EXTAP	28	48	2
EXTAP	28	48	7
NMTAP	28	144	6
EXTAP	28	192	0
EXTAP	28	192	5
EXSTR	28	240	0
NMSXL	28	240	0	96	336	6
EXSTR	28	240	5
NMSXR	28	240	5	96	336	7
NMSTR	30	0	0
NMSLL	30	0	0	96	192	4
NMHLD	30	0	5	288
NMHLD	31	0	1	288
NMSTR	31	0	3
NMSLL	31	0	3	96	192	7
NMSTR	32	0	1
NMSCR	32	0	1	96	192	5
NMTAP	32	288	7
NMSTR	33	0	7
NMSCL	33	0	7	96	192	3
NMTAP	34	0	1
NMTAP	34	48	1
NMTAP	34	96	3
NMTAP	34	144	3
NMTAP	34	192	2
NMTAP	34	240	2
NMTAP	34	288	4
NMTAP	34	336	4
NMTAP	35	0	3
NMTAP	35	48	3
NMTAP	35	96	5
EXTAP	35	144	4
EXTAP	35	144	5
NMTAP	35	288	0
NMTAP	35	288	7
BRSTR	36	0	6
NMSI_	36	0	6	96	48	3
BRTAP	36	0	7
NMTAP	36	192	0
NMSTR	36	192	1
NMSI_	36	192	1	96	48	4
NMTAP	37	0	6
NMTAP	37	0	7
NMTAP	37	96	0
NMTAP	37	144	0
NMTAP	37	192	7
NMTAP	37	288	0
NMTAP	37	288	1
NMTAP	38	0	1
NMTAP	38	48	1
NMTAP	38	96	7
NMTAP	38	144	7
NMTAP	38	192	0
NMTAP	38	240	0
NMTAP	38	288	6
NMHLD	39	0	5	96
NMTAP	39	96	4
NMTAP	39	192	3
NMTAP	39	192	4
NMTAP	39	288	2
NMTAP	39	288	3
BRSTR	40	0	2
NMSI_	40	0	2	96	48	7
BRTAP	40	0	3
NMTAP	40	192	4
NMSTR	40	192	5
NMSI_	40	192	5	96	48	0
NMTAP	41	0	2
NMTAP	41	0	3
NMTAP	41	96	1
NMTAP	41	144	1
NMTAP	41	192	0
NMTAP	41	288	6
NMTAP	41	288	7
NMTAP	42	0	4
NMTAP	42	0	5
NMTAP	42	96	6
NMTAP	42	96	7
NMTAP	42	192	0
NMTAP	42	192	1
NMSTR	42	288	2
NMSCR	42	288	2	96	144	5
NMSUL	42	288	2	96	144	5
NMTAP	42	288	3
EXTAP	43	240	6
EXTAP	43	240	7
EXHLD	43	288	6	72
EXHLD	43	288	7	72
EXTAP	44	48	0
EXTAP	44	48	1
EXHLD	44	96	0	72
EXHLD	44	96	1	72
NMTAP	44	240	1
NMTAP	44	240	3
NMHLD	44	288	1	72
NMHLD	44	288	3	72
NMTAP	45	48	3
NMTAP	45	48	4
NMHLD	45	96	3	72
NMHLD	45	96	4	72
NMTAP	45	240	4
NMTAP	45	240	6
NMHLD	45	288	4	72
NMHLD	45	288	6	72
NMTAP	46	48	3
NMTAP	46	48	7
NMHLD	46	96	3	72
NMHLD	46	96	7	72
NMTAP	46	240	4
NMTAP	46	240	5
NMTAP	46	288	4
NMTAP	46	288	5
NMSTR	47	0	2
NMSI_	47	0	2	96	72	7
NMSTR	47	0	3
NMSI_	47	0	3	96	72	7
NMTAP	47	240	6
NMTAP	47	240	7
NMHLD	47	288	6	72
NMHLD	47	288	7	72
NMTAP	48	48	4
NMTAP	48	48	5
NMHLD	48	96	4	72
NMHLD	48	96	5	72
NMTAP	48	240	2
NMTAP	48	240	3
NMHLD	48	288	2	72
NMHLD	48	288	3	72
NMTAP	49	48	0
NMTAP	49	48	1
BRSTR	49	96	0
NMSLL	49	96	0	96	120	3
BRTAP	49	96	1
NMTAP	50	0	1
NMTAP	50	48	1
NMTAP	50	96	0
NMTAP	50	192	6
NMTAP	50	240	6
NMTAP	50	288	7
NMTAP	51	0	0
NMTAP	51	0	5
NMSTR	51	96	0
NMSCR	51	96	0	96	96	3
NMSTR	51	96	5
NMSCR	51	96	5	96	96	0
NMTAP	52	0	2
NMTAP	52	0	7
NMTAP	52	48	2
NMTAP	52	48	7
NMTAP	52	96	2
NMTAP	52	96	7
NMTAP	52	192	0
NMTAP	52	192	1
NMTAP	52	288	6
NMTAP	52	288	7
NMTAP	53	0	0
NMTAP	53	0	5
NMTAP	53	48	0
NMTAP	53	48	5
NMTAP	53	96	0
NMTAP	53	96	5
NMTAP	53	192	6
NMTAP	53	192	7
NMTAP	53	288	0
NMTAP	53	288	1
NMTAP	54	0	2
NMTAP	54	48	2
NMTAP	54	96	3
NMTAP	54	144	3
NMTAP	54	192	1
NMTAP	54	240	1
NMTAP	54	288	7
NMTAP	54	336	7
NMTAP	55	0	0
NMTAP	55	48	0
NMTAP	55	96	6
NMTAP	55	144	6
NMTAP	55	192	4
BRTAP	55	288	3
BRTAP	55	288	5
NMHLD	56	0	6	672
NMTTP	56	96	6	E	0	M1
NMTTP	56	288	5	E	0	M1
NMTTP	57	96	0	C	0	M1
NMTTP	57	288	3	E	0	M1
NMHLD	58	0	1	672
NMTTP	58	96	2	E	0	M1
NMTTP	58	288	3	E	0	M1
NMTTP	59	96	0	C	0	M1
NMTTP	59	288	5	E	0	M1
NMTAP	60	0	6
NMHLD	60	96	6	96
NMTAP	60	192	4
NMHLD	60	288	4	96
NMTAP	61	0	3
NMHLD	61	96	3	96
NMTAP	61	192	1
NMHLD	61	288	1	288
NMTTP	62	0	2	E	0	M1
NMTTP	62	96	3	E	0	M1
NMTTP	62	192	4	E	0	M1
NMTTP	62	288	5	E	0	M1
NMTTP	63	0	0	C	1	M1
NMTTP	63	0	6	E	0	M1
NMTAP	63	288	0
NMTAP	63	288	7
BRSTR	64	0	6
NMSI_	64	0	6	96	48	4
BRSTR	64	0	7
NMSI_	64	0	7	96	48	3
NMSTR	64	192	0
NMSI_	64	192	0	96	48	4
NMSTR	64	192	1
NMSI_	64	192	1	96	48	3
NMTAP	65	0	6
NMTAP	65	0	7
NMTAP	65	96	5
NMTAP	65	144	5
NMTAP	65	192	4
NMTAP	65	288	2
NMTAP	65	288	3
NMTAP	66	0	1
NMTAP	66	48	1
NMTAP	66	96	3
NMTAP	66	144	2
NMTAP	66	192	5
NMTAP	66	240	5
NMTAP	66	288	4
NMTAP	66	336	6
NMHLD	67	0	3	192
NMTAP	67	96	0
NMTAP	67	192	2
NMTAP	67	288	0
NMTAP	67	288	4
NMSTR	68	0	1
NMSI_	68	0	1	96	48	5
NMSTR	68	0	7
NMSI_	68	0	7	96	48	5
NMSTR	68	192	0
NMSI_	68	192	0	96	48	2
NMSTR	68	192	6
NMSI_	68	192	6	96	48	2
NMTAP	69	0	1
NMTAP	69	0	7
NMTAP	69	96	2
NMTAP	69	144	2
NMTAP	69	192	0
NMTAP	69	288	2
NMTAP	69	288	3
NMTAP	70	0	1
NMTAP	70	48	1
NMTAP	70	96	3
NMTAP	70	144	3
NMTAP	70	192	4
NMTAP	70	240	4
NMTAP	70	288	6
NMTAP	70	336	6
NMTAP	71	48	4
NMTAP	71	48	5
BRTAP	71	144	3
BRTAP	71	144	7
EXTAP	71	240	6
EXHLD	71	288	6	72
EXTAP	71	360	4
EXTAP	72	48	1
EXHLD	72	96	1	72
EXTAP	72	168	3
NMTAP	72	240	6
NMHLD	72	288	6	72
NMTAP	72	360	7
NMTAP	73	48	1
NMHLD	73	96	1	72
NMTAP	73	168	0
NMTAP	73	240	2
NMHLD	73	288	2	72
NMTAP	73	360	3
NMTAP	74	48	6
NMHLD	74	96	6	72
NMTAP	74	168	4
NMTAP	74	240	3
NMTAP	74	240	5
NMTAP	74	288	3
NMTAP	74	288	5
NMTAP	75	0	4
NMTAP	75	0	6
NMTAP	75	96	5
NMTAP	75	144	5
NMTAP	75	192	4
NMTAP	75	288	4
NMTAP	75	288	5
NMSTR	76	0	4
NMSI_	76	0	4	96	48	0
NMSTR	76	0	5
NMSI_	76	0	5	96	48	0
NMSTR	76	192	2
NMSI_	76	192	2	96	48	7
NMSTR	76	192	3
NMSI_	76	192	3	96	48	7
NMSTR	77	0	4
NMSI_	77	0	4	96	48	0
NMSTR	77	0	5
NMSI_	77	0	5	96	48	0
NMTAP	77	192	2
NMTAP	77	192	3
NMTAP	77	288	2
NMTAP	77	288	3
NMTAP	78	0	1
NMTAP	78	0	7
NMTAP	78	48	6
NMTAP	78	96	4
NMTAP	78	96	5
NMTAP	78	192	0
NMTAP	78	192	6
NMTAP	78	240	1
NMTAP	78	288	2
NMTAP	78	288	3
NMSTR	79	0	2
BRSCL	79	0	2	96	240	4
NMSTR	79	0	3
BRSUR	79	0	3	96	240	4

T_REC_TAP	274
T_REC_BRK	7
T_REC_XTP	26
T_REC_BXX	1
T_REC_HLD	41
T_REC_XHO	8
T_REC_BHO	0
T_REC_BXH	0
T_REC_STR	27
T_REC_BST	5
T_REC_XST	3
T_REC_XBS	0
T_REC_TTP	20
T_REC_THO	0
T_REC_SLD	34
T_REC_BSL	2
T_REC_ALL	448
T_NUM_TAP	350
T_NUM_BRK	15
T_NUM_HLD	49
T_NUM_SLD	34
T_NUM_ALL	448
T_JUDGE_TAP	363
T_JUDGE_HLD	204
T_JUDGE_SLD	36
T_JUDGE_ALL	603
TTM_EACHPAIRS	112
TTM_SCR_TAP	175000
TTM_SCR_BRK	39000
TTM_SCR_HLD	49000
TTM_SCR_SLD	51000
TTM_SCR_ALL	314000
TTM_SCR_S	303150
TTM_SCR_SS	312500
TTM_RAT_ACV	10048

