VERSION	0.00.00	1.05.00
FES_MODE	0
BPM_DEF	150.000	150.000	150.000	150.000
MET_DEF	4	4
RESOLUTION	384
CLK_DEF	384
COMPATIBLE_CODE	MA2

BPM	0	0	150.000
MET	0	0	4	4

NMTAP	1	0	2
NMTAP	1	0	3
NMHLD	1	48	2	240
NMHLD	1	48	3	240
NMTAP	2	0	3
NMTAP	2	0	4
NMHLD	2	48	3	240
NMHLD	2	48	4	240
NMTAP	3	0	4
NMTAP	3	0	5
NMHLD	3	48	4	240
NMHLD	3	48	5	240
NMTAP	4	0	3
NMTAP	4	0	6
NMTAP	4	72	1
NMTAP	4	72	4
NMTAP	4	144	0
NMTAP	4	144	7
NMSTR	4	192	1
NMSI_	4	192	1	96	48	3
NMSTR	4	192	6
NMSI_	4	192	6	96	48	4
NMTAP	5	0	4
NMTAP	5	0	6
NMHLD	5	48	4	240
NMHLD	5	48	6	240
NMTAP	6	0	3
NMTAP	6	0	4
NMHLD	6	48	3	240
NMHLD	6	48	4	240
NMTAP	7	0	1
NMTAP	7	0	3
NMHLD	7	48	1	240
NMHLD	7	48	3	240
NMTAP	8	0	1
NMTAP	8	0	3
NMTAP	8	72	4
NMTAP	8	72	6
NMTAP	8	144	0
NMTAP	8	144	7
NMTAP	8	192	1
NMTAP	8	192	6
NMTTP	8	240	3	E	0	M1
NMTTP	8	264	4	E	0	M1
NMTTP	8	288	5	E	0	M1
NMSTR	9	0	6
NMSCL	9	0	6	96	48	3
NMTAP	9	96	4
NMTAP	9	192	2
NMTAP	9	240	2
NMTAP	9	264	3
NMTAP	9	312	3
NMTAP	9	336	1
NMTAP	10	0	1
NMTAP	10	0	3
NMTAP	10	48	2
NMTAP	10	96	3
NMTAP	10	144	4
NMTAP	10	192	3
NMTAP	10	192	5
NMTAP	10	240	6
NMTAP	10	288	4
NMTAP	10	288	5
NMSTR	11	0	6
NMSUL	11	0	6	96	48	2
NMTAP	11	96	7
NMTAP	11	192	1
NMTAP	11	240	1
NMTAP	11	264	3
NMTAP	11	312	3
NMTAP	11	336	2
NMTAP	12	0	2
NMTAP	12	0	3
NMTAP	12	48	1
NMTAP	12	96	0
NMTAP	12	96	7
NMTAP	12	144	6
NMTAP	12	192	5
NMTAP	12	192	7
NMTAP	12	240	5
NMTAP	12	240	7
NMTAP	12	288	6
NMTAP	12	312	4
NMTAP	12	336	6
NMSTR	13	0	3
NMSI_	13	0	3	96	48	1
NMSTR	13	0	7
NMSI_	13	0	7	96	48	5
NMSTR	13	192	0
NMSI_	13	192	0	96	48	2
NMSTR	13	192	4
NMSI_	13	192	4	96	48	6
NMTAP	13	240	0
NMTAP	13	240	4
NMTAP	14	0	3
NMTAP	14	0	7
NMTAP	14	48	2
NMTAP	14	96	0
NMTAP	14	96	1
NMTAP	14	144	7
NMTAP	14	192	0
NMTAP	14	192	6
NMTAP	14	240	5
NMTAP	14	288	1
NMTAP	14	288	4
NMSTR	15	0	2
NMSI_	15	0	2	96	48	5
NMTAP	15	0	3
NMSTR	15	96	6
NMSCR	15	96	6	96	96	3
NMHLD	15	192	4	144
NMTAP	15	336	5
NMTAP	16	0	4
NMTAP	16	0	6
NMTAP	16	48	5
NMTAP	16	72	4
NMTAP	16	96	5
NMTAP	16	144	2
NMTAP	16	168	3
NMTAP	16	192	1
NMTAP	16	240	0
NMTAP	16	240	6
BRTAP	16	288	0
BRTAP	16	288	6
NMHLD	17	0	4	48
NMHLD	17	0	5	48
NMHLD	17	72	5	48
NMHLD	17	72	6	48
NMTAP	17	144	6
NMTAP	17	144	7
NMHLD	17	288	2	48
NMHLD	17	288	3	48
NMHLD	17	360	1	48
NMHLD	17	360	2	48
NMTAP	18	48	0
NMTAP	18	48	1
NMTAP	18	144	7
NMTAP	18	192	0
NMTAP	18	192	1
NMTAP	18	240	2
NMTAP	18	288	6
NMTAP	18	288	7
NMTAP	18	336	5
NMTAP	19	0	2
NMTAP	19	48	2
NMTAP	19	72	3
NMTAP	19	120	3
NMTAP	19	144	1
NMTAP	19	192	1
NMTAP	19	216	0
NMTAP	19	264	0
EXTAP	19	288	2
NMTAP	20	0	5
NMTAP	20	48	5
NMTAP	20	72	4
NMTAP	20	120	4
NMTAP	20	144	6
NMTAP	20	192	6
NMTAP	20	216	7
NMTAP	20	264	7
EXTAP	20	288	5
NMTTP	21	0	3	B	0	M1
NMTTP	21	24	5	B	0	M1
NMTTP	21	48	1	B	0	M1
NMTTP	21	72	7	B	0	M1
NMTTP	21	96	2	B	0	M1
NMTTP	21	120	4	B	0	M1
NMTTP	21	144	0	B	0	M1
NMTTP	21	168	6	B	0	M1
NMTTP	21	192	3	E	0	M1
NMTTP	21	216	5	E	0	M1
NMTTP	21	240	1	E	0	M1
NMTTP	21	264	7	E	0	M1
NMTTP	21	288	0	C	0	M1
NMTTP	22	0	0	B	0	M1
NMTTP	22	24	6	B	0	M1
NMTTP	22	48	2	B	0	M1
NMTTP	22	72	4	B	0	M1
NMTTP	22	96	1	B	0	M1
NMTTP	22	120	7	B	0	M1
NMTTP	22	144	3	B	0	M1
NMTTP	22	168	5	B	0	M1
NMTTP	22	192	1	E	0	M1
NMTTP	22	216	7	E	0	M1
NMTTP	22	240	3	E	0	M1
NMTTP	22	264	5	E	0	M1
NMTTP	22	288	0	C	0	M1
NMTAP	23	0	0
NMTAP	23	48	0
NMTAP	23	96	1
NMTAP	23	96	7
NMTAP	23	144	1
NMTAP	23	144	7
NMTAP	23	192	2
NMTAP	23	192	6
NMTAP	23	240	2
NMTAP	23	240	6
NMTAP	23	288	1
NMTAP	23	288	5
NMTAP	23	336	1
NMTAP	23	336	5
NMTTP	24	0	0	A	0	M1
NMTTP	24	0	0	D	1	M1
NMTTP	24	0	3	A	0	M1
NMTTP	24	0	4	A	0	M1
NMTTP	24	0	4	D	1	M1
NMTTP	24	0	7	A	0	M1
NMSTR	24	288	2
NMSCL	24	288	2	96	48	7
NMSTR	24	288	6
NMSCL	24	288	6	96	48	3
NMTAP	24	336	3
NMTAP	24	336	7
NMTAP	25	0	2
NMSTR	25	0	6
NMSLR	25	0	6	96	48	2
NMSTR	25	96	3
NMSF_	25	96	3	96	48	7
NMTAP	25	192	3
NMSTR	25	288	1
NMSCR	25	288	1	96	48	4
NMSTR	25	288	5
NMSCR	25	288	5	96	48	0
NMTAP	25	336	0
NMTAP	25	336	4
NMSTR	26	0	1
NMSLL	26	0	1	96	48	5
NMTAP	26	0	5
NMSTR	26	96	4
NMSF_	26	96	4	96	48	0
NMTAP	26	192	4
NMTAP	26	288	1
NMTAP	26	288	7
NMTAP	26	336	1
NMTAP	26	336	7
NMTAP	27	0	2
NMTAP	27	0	6
NMTAP	27	48	1
NMTAP	27	72	0
NMTAP	27	120	6
NMTAP	27	144	7
NMTAP	27	192	4
NMTAP	27	192	5
NMTAP	27	240	6
NMTAP	27	264	7
NMTAP	27	312	1
NMTAP	27	336	0
NMTAP	28	0	2
NMTAP	28	0	3
NMTAP	28	48	1
NMTAP	28	72	3
NMTAP	28	120	6
NMTAP	28	144	4
BRTAP	28	192	3
BRTAP	28	192	7
NMSTR	28	288	0
NMSUR	28	288	0	96	48	4
NMSTR	28	288	2
NMSCR	28	288	2	96	48	4
NMTAP	28	336	1
NMSTR	29	0	0
NMSCL	29	0	0	96	48	5
NMTAP	29	0	2
NMSTR	29	96	4
NMSI_	29	96	4	96	48	0
NMSI_	29	96	4	96	48	1
NMTAP	29	192	4
NMSTR	29	288	5
NMSCL	29	288	5	96	48	3
NMSTR	29	288	7
NMSUL	29	288	7	96	48	3
NMTAP	29	336	6
NMTAP	30	0	5
NMSTR	30	0	7
NMSCR	30	0	7	96	48	2
NMSTR	30	96	3
NMSI_	30	96	3	96	48	6
NMSI_	30	96	3	96	48	7
NMTAP	30	192	3
NMTAP	30	288	0
NMTAP	30	288	5
NMTAP	30	336	0
NMTAP	30	336	5
NMTAP	31	0	6
NMTAP	31	0	7
NMTAP	31	48	5
NMTAP	31	72	4
NMTAP	31	120	2
NMTAP	31	144	3
NMTAP	31	192	0
NMTAP	31	192	1
NMTAP	31	240	2
NMTAP	31	264	3
NMSTR	31	312	5
NMSCR	31	312	5	96	48	0
NMTAP	31	336	4
NMSTR	32	0	4
NMSCL	32	0	4	96	48	1
NMTAP	32	0	5
NMSTR	32	96	4
NMSV_	32	96	4	96	48	1
NMSV_	32	96	4	96	48	7
NMTAP	32	192	4
NMSTR	32	288	0
NMSI_	32	288	0	96	48	2
NMSTR	32	288	6
NMSI_	32	288	6	96	48	2
NMTAP	32	336	7
NMSTR	33	0	0
NMSI_	33	0	0	96	48	4
NMTAP	33	0	6
NMTAP	33	96	0
NMSTR	33	96	3
NMSF_	33	96	3	96	48	7
NMTAP	33	192	3
NMSTR	33	288	1
NMSI_	33	288	1	96	48	5
NMSTR	33	288	7
NMSI_	33	288	7	96	48	5
NMTAP	33	336	0
NMTAP	34	0	1
NMSTR	34	0	7
NMSI_	34	0	7	96	48	3
NMSTR	34	96	4
NMSF_	34	96	4	96	48	0
NMTAP	34	96	7
NMTAP	34	192	4
NMTAP	34	288	2
NMTAP	34	288	6
NMTAP	34	336	2
NMTAP	34	336	6
NMTAP	35	0	0
NMTAP	35	0	1
NMTAP	35	48	2
NMTAP	35	72	3
NMTAP	35	120	5
NMTAP	35	144	4
NMTAP	35	192	6
NMTAP	35	192	7
NMTAP	35	240	5
NMTAP	35	264	4
NMTAP	35	312	2
NMTAP	35	336	3
NMHLD	36	0	0	48
NMHLD	36	0	1	48
NMHLD	36	72	6	48
NMHLD	36	72	7	48
NMTAP	36	144	1
NMTAP	36	144	5
BRTAP	36	192	1
BRTAP	36	192	5
NMSTR	36	288	0
NMSCR	36	288	0	96	48	3
NMSTR	36	288	3
NMSCR	36	288	3	96	48	6
NMTAP	36	336	7
NMSTR	37	0	3
NMSV_	37	0	3	96	48	1
NMSTR	37	96	6
NMSI_	37	96	6	96	48	3
CNSI_	37	144	1	0	72	7
NMTAP	37	192	6
NMSTR	37	288	4
NMSCR	37	288	4	96	48	7
NMSTR	37	288	7
NMSCR	37	288	7	96	48	2
NMTAP	37	336	3
NMTAP	38	0	4
NMSTR	38	0	7
NMSV_	38	0	7	96	48	5
NMSTR	38	96	2
NMSI_	38	96	2	96	48	7
CNSI_	38	144	5	0	72	3
NMTAP	38	192	2
NMTAP	38	288	0
NMTAP	38	288	5
NMTAP	38	336	0
NMTAP	38	336	5
NMHLD	39	0	6	48
NMHLD	39	0	7	48
NMHLD	39	72	2	48
NMHLD	39	72	3	48
NMTAP	39	144	0
NMTAP	39	144	1
NMHLD	39	192	0	48
NMHLD	39	192	1	48
NMHLD	39	264	4	48
NMHLD	39	264	5	48
NMTAP	39	336	6
NMTAP	39	336	7
NMHLD	40	0	0	192
NMTHO	40	0	0	192	C	0	M1
BRTAP	41	0	0
BRTAP	41	0	4
BRTAP	41	48	2
BRTAP	41	48	6
NMTAP	42	0	0
NMTAP	42	0	2
NMHLD	42	48	0	240
NMHLD	42	48	2	240
NMTAP	43	0	5
NMTAP	43	0	6
NMHLD	43	48	5	240
NMHLD	43	48	6	240
EXTAP	44	0	4
EXTAP	44	0	6
EXTAP	44	72	1
EXTAP	44	72	3
EXTAP	44	144	0
EXTAP	44	144	7
EXTAP	44	192	0
EXTAP	44	192	7
NMTAP	44	288	3
NMTAP	44	288	4
NMSTR	45	0	2
NMSSL	45	0	2	96	192	6
NMTAP	45	0	3
NMTAP	45	48	2
NMHLD	45	48	3	240
NMTAP	46	0	5
NMSTR	46	0	7
NMSSR	46	0	7	96	192	3
NMHLD	46	48	5	240
NMTAP	46	48	7
NMTAP	47	0	3
NMSTR	47	0	5
NMSSL	47	0	5	96	192	1
NMHLD	47	48	3	240
NMTAP	47	48	5
EXTAP	48	0	0
EXTAP	48	0	2
EXTAP	48	72	5
EXTAP	48	72	7
EXTAP	48	144	3
EXTAP	48	144	4
EXTAP	48	192	3
EXTAP	48	192	4
BRTAP	48	288	2
BRTAP	48	288	6
NMHLD	49	0	5	672
NMTAP	49	240	4
NMTAP	49	288	4
NMTAP	50	0	6
NMTAP	50	48	6
NMTAP	50	240	7
NMTAP	50	288	7
NMHLD	51	0	1	672
NMTTP	51	96	4	E	0	M1
NMTAP	51	240	3
NMTAP	52	0	2
NMTAP	52	48	2
NMTHO	52	216	4	72	E	0	M1
NMSTR	53	0	0
NMSI_	53	0	0	96	48	3
NMSTR	53	0	3
NMSI_	53	0	3	96	48	6
NMTAP	53	192	3
NMTAP	53	192	6
EXTAP	53	240	2
EXTAP	53	240	7
EXTAP	53	264	2
EXTAP	53	264	7
NMTAP	53	312	1
NMTAP	53	336	0
NMTAP	53	360	1
NMSTR	54	0	7
NMSCL	54	0	7	96	48	4
NMTAP	54	48	7
NMSTR	54	96	0
NMSCR	54	96	0	96	48	3
NMTAP	54	144	0
NMTAP	54	192	5
NMTAP	54	240	6
NMTAP	54	288	4
NMTAP	54	288	7
NMSTR	55	0	3
NMSCL	55	0	3	96	48	0
NMSTR	55	0	6
NMSCL	55	0	6	96	48	3
NMTAP	55	96	3
NMTAP	55	96	6
NMTAP	55	192	1
NMTAP	55	240	1
NMHLD	55	264	3	48
NMTAP	55	312	2
NMTAP	55	336	3
NMTAP	55	360	1
NMTAP	56	0	7
NMTAP	56	24	0
NMTAP	56	48	6
NMTAP	56	72	4
NMTAP	56	96	5
NMTAP	56	120	2
NMTAP	56	144	3
NMTAP	56	192	0
NMTAP	56	192	1
NMTAP	56	240	0
NMTAP	56	240	1
NMTAP	56	288	2
NMTAP	56	288	7
NMHLD	57	0	4	48
NMHLD	57	0	6	48
NMHLD	57	72	5	48
NMHLD	57	72	7	48
NMTAP	57	144	0
NMTAP	57	144	6
NMHLD	57	288	1	48
NMHLD	57	288	3	48
NMHLD	57	360	0	48
NMHLD	57	360	2	48
NMTAP	58	48	1
NMTAP	58	48	7
NMTAP	58	144	0
NMSTR	58	192	0
NMSF_	58	192	0	96	48	4
NMTAP	58	288	0
NMTAP	59	0	6
NMTAP	59	48	6
NMTAP	59	72	5
NMTAP	59	120	5
NMTAP	59	144	4
NMTAP	59	192	4
NMTAP	59	216	3
NMTAP	59	264	3
EXTAP	59	288	2
NMTAP	60	0	1
NMTAP	60	48	1
NMTAP	60	72	2
NMTAP	60	120	2
NMTAP	60	144	3
NMTAP	60	192	3
NMTAP	60	216	4
NMTAP	60	264	4
BRTAP	60	288	5
NMTTP	61	0	6	A	0	M1
NMTTP	61	24	7	A	0	M1
NMTTP	61	48	6	E	0	M1
NMTTP	61	72	0	E	0	M1
NMTTP	61	96	5	B	0	M1
NMTTP	61	120	0	B	0	M1
NMTTP	61	144	4	B	0	M1
NMTTP	61	168	1	B	0	M1
NMTTP	61	192	4	E	0	M1
NMTTP	61	216	2	E	0	M1
NMTTP	61	240	3	A	0	M1
NMTTP	61	264	2	A	0	M1
NMTTP	61	288	0	C	0	M1
NMTTP	62	0	1	A	0	M1
NMTTP	62	24	0	A	0	M1
NMTTP	62	48	2	E	0	M1
NMTTP	62	72	0	E	0	M1
NMTTP	62	96	2	B	0	M1
NMTTP	62	120	7	B	0	M1
NMTTP	62	144	3	B	0	M1
NMTTP	62	168	6	B	0	M1
NMTTP	62	192	4	E	0	M1
NMTTP	62	216	6	E	0	M1
NMTTP	62	240	4	A	0	M1
NMTTP	62	264	5	A	0	M1
NMTTP	62	288	0	C	0	M1
NMTAP	63	0	6
NMTAP	63	24	7
NMTAP	63	48	6
NMTAP	63	72	7
NMTAP	63	96	5
NMTAP	63	120	0
NMTAP	63	144	5
NMTAP	63	168	0
NMTAP	63	192	7
NMTAP	63	216	2
NMTAP	63	240	7
NMTAP	63	264	2
NMSTR	63	288	0
NMSCL	63	288	0	96	48	5
NMTAP	63	288	1
NMTTP	64	0	1	B	0	M1
NMTTP	64	0	1	E	1	M1
NMSTR	64	96	3
NMSCL	64	96	3	96	48	0
NMTTP	64	192	4	B	0	M1
NMTTP	64	192	4	E	1	M1
NMSTR	64	288	5
BRSCL	64	288	5	96	384	6
NMTTP	65	0	0	C	1	M1
NMSTR	67	0	2
NMSV_	67	0	2	96	288	4
NMHLD	67	0	3	1248
NMSTR	69	0	2
NMSUL	69	0	2	96	288	4
EXSTR	70	96	4
NMSI_	70	96	4	96	48	0
EXTAP	70	108	5
EXTAP	70	120	6
EXTAP	70	132	7
EXTAP	70	144	0
EXTAP	70	156	1
EXTAP	70	168	2
EXTAP	70	180	3
EXTAP	70	192	4
BRTAP	70	288	2
BRTAP	70	288	6
NMTAP	71	0	0
NMTAP	71	0	7
NMTAP	71	48	6
NMTAP	71	72	4
NMTAP	71	96	5
NMSTR	71	144	2
NMSUR	71	144	2	96	48	7
NMSTR	71	144	3
NMSCR	71	144	3	96	48	6
EXTAP	71	240	2
EXTAP	71	240	3
EXTAP	71	336	6
EXTAP	71	336	7
NMTAP	72	0	0
NMTAP	72	0	1
NMTAP	72	48	1
NMTAP	72	72	3
NMTAP	72	96	2
NMSTR	72	144	4
NMSCL	72	144	4	96	48	1
NMSTR	72	144	5
NMSUL	72	144	5	96	48	0
EXTAP	72	240	4
EXTAP	72	240	5
EXTAP	72	336	0
EXTAP	72	336	1
NMTAP	73	0	0
NMTAP	73	0	1
NMTAP	73	48	2
NMTAP	73	72	3
NMTAP	73	120	5
NMTAP	73	144	4
NMTAP	73	192	6
NMTAP	73	192	7
NMTAP	73	240	1
NMTAP	73	264	0
NMSTR	73	312	6
NMSI_	73	312	6	96	48	3
NMTAP	73	336	7
NMSTR	74	0	0
NMSI_	74	0	0	96	48	4
NMTAP	74	0	6
NMSTR	74	96	0
NMSCL	74	96	0	96	48	5
NMSCR	74	96	0	96	48	3
NMTAP	74	192	0
NMTAP	74	288	2
NMTAP	74	288	6
BRTAP	75	0	3
BRTAP	75	0	4
NMTAP	75	48	5
NMTAP	75	72	4
NMTAP	75	72	6
NMTAP	75	120	2
NMTAP	75	144	1
NMSTR	75	144	3
NMSI_	75	144	3	96	48	7
NMTAP	75	240	0
NMTAP	75	240	3
NMTAP	75	288	1
BRTAP	76	0	0
BRTAP	76	0	7
NMTAP	76	48	6
NMTAP	76	72	5
NMTAP	76	72	7
NMTAP	76	120	1
NMSTR	76	144	0
NMSI_	76	144	0	96	48	4
NMSTR	76	144	2
NMSI_	76	144	2	96	48	0
NMTAP	76	240	0
NMTAP	76	240	2
NMTAP	76	336	5
NMTAP	76	336	7
NMHLD	77	0	5	96
NMHLD	77	0	7	96
NMHLD	77	192	0	48
NMHLD	77	192	6	48
NMTAP	77	288	1
NMTAP	77	312	3
NMTAP	77	336	1
NMTAP	77	360	3
NMTAP	78	0	2
NMTAP	78	48	3
NMTAP	78	48	4
NMTAP	78	96	4
NMTAP	78	96	5
NMTAP	78	144	6
NMTAP	78	168	4
BRTAP	78	192	3
BRTAP	78	192	7
NMSTR	78	288	2
NMSI_	78	288	2	96	48	7
NMSTR	78	288	6
NMSI_	78	288	6	96	48	2
NMSTR	79	0	2
NMSCR	79	0	2	96	48	5
NMTAP	79	0	6
NMTAP	79	96	2
NMSTR	79	96	7
BRSF_	79	96	7	96	48	3
BRTAP	79	192	7
NMSTR	79	288	2
NMSI_	79	288	2	96	48	6
NMSTR	79	288	6
NMSI_	79	288	6	96	48	3
NMTAP	79	336	3
NMTAP	79	336	7
NMTAP	80	0	2
NMSTR	80	0	6
NMSCR	80	0	6	96	48	1
NMSTR	80	96	3
BRSF_	80	96	3	96	48	7
NMTAP	80	96	6
BRTAP	80	192	3
NMTAP	80	288	1
NMTAP	80	288	5
NMTAP	80	336	1
NMTAP	80	336	5
NMTAP	81	0	0
NMTAP	81	0	4
NMTAP	81	48	1
NMTAP	81	72	3
NMTAP	81	120	5
NMTAP	81	144	3
NMTAP	81	192	1
NMTAP	81	192	7
NMTAP	81	240	6
NMTAP	81	264	4
NMSTR	81	312	2
NMSXR	81	312	2	96	120	7
NMTAP	81	336	4
NMTAP	82	0	2
NMSTR	82	0	3
NMSCR	82	0	3	96	48	6
NMTAP	82	96	3
EXTAP	82	192	0
EXTAP	82	192	5
NMTAP	82	240	1
NMSTR	82	288	2
NMSI_	82	288	2	96	48	0
NMSTR	82	288	7
NMSI_	82	288	7	96	48	3
NMTAP	83	0	2
NMTAP	83	0	7
NMSTR	83	96	1
NMSI_	83	96	1	96	48	4
NMSTR	83	96	5
NMSI_	83	96	5	96	48	0
NMTAP	83	192	1
NMTAP	83	192	5
NMSTR	83	288	3
NMSCL	83	288	3	96	48	0
NMSTR	83	288	7
NMSCL	83	288	7	96	48	4
NMTTP	83	378	3	A	1	M1
EXSTR	84	0	7
BRSI_	84	0	7	96	96	1
CNSI_	84	192	1	0	96	6
CNSI_	84	288	6	0	48	2
CNSI_	84	336	2	0	48	5
CNSI_	85	0	5	0	192	3
NMSTR	86	0	2
NMSCL	86	0	2	96	48	7
NMTAP	86	0	3
NMTAP	86	48	3
NMTAP	86	96	2
NMTAP	86	96	4
NMTAP	86	144	5
NMTAP	86	192	6
NMTAP	86	216	7
NMTAP	86	240	5
NMTAP	86	288	0
NMTAP	86	288	4
NMTAP	87	0	4
NMSTR	87	0	5
NMSCR	87	0	5	96	48	0
NMTAP	87	48	4
NMTAP	87	96	3
NMTAP	87	96	5
NMTAP	87	144	2
NMTAP	87	192	1
NMTAP	87	216	0
NMTAP	87	240	2
NMTAP	87	288	3
NMTAP	87	288	7
NMSTR	88	0	3
NMSUL	88	0	3	96	48	7
NMTAP	88	48	4
NMTAP	88	96	3
NMTAP	88	96	5
NMTAP	88	144	6
NMSTR	88	192	6
NMSUL	88	192	6	96	48	2
NMTAP	88	240	7
NMTAP	88	288	0
NMTAP	88	288	6
NMTAP	88	336	1
NMTAP	89	0	1
NMTAP	89	0	3
NMTAP	89	48	2
NMTAP	89	72	4
NMSTR	89	96	0
NMSF_	89	96	0	96	48	4
NMTAP	89	192	0
BRTAP	89	288	2
BRTAP	89	288	6
NMSTR	90	0	4
NMSCL	90	0	4	96	48	1
NMTAP	90	0	5
NMTAP	90	48	5
NMTAP	90	96	4
NMTAP	90	96	6
NMTAP	90	144	7
NMTAP	90	192	0
NMTAP	90	216	0
NMTAP	90	240	1
NMTAP	90	288	2
NMTAP	90	288	7
NMTAP	91	0	2
NMSTR	91	0	3
NMSCR	91	0	3	96	48	6
NMTAP	91	48	2
NMTAP	91	96	1
NMTAP	91	96	3
NMTAP	91	144	0
NMTAP	91	192	7
NMTAP	91	216	7
NMTAP	91	240	6
NMTAP	91	288	0
NMTAP	91	288	5
NMTAP	92	0	4
NMTAP	92	0	5
NMTAP	92	48	6
NMTAP	92	96	0
NMTAP	92	96	7
NMTAP	92	144	1
NMTAP	92	192	2
NMTAP	92	192	3
NMTAP	92	240	2
NMTAP	92	240	3
NMTAP	92	288	4
NMTAP	92	288	5
NMTAP	92	336	4
NMTAP	92	336	5
NMTAP	93	0	6
NMTAP	93	0	7
NMTAP	93	48	0
NMTAP	93	48	5
NMTAP	93	96	0
NMTAP	93	96	1
NMTAP	93	144	2
NMTAP	93	144	7
NMTAP	93	192	3
NMTAP	93	192	5
NMTAP	93	240	1
NMSTR	93	240	3
NMSI_	93	240	3	96	48	7
NMTAP	93	288	3
NMTAP	93	288	6
BRTAP	93	336	0
BRTAP	93	336	3

T_REC_TAP	466
T_REC_BRK	27
T_REC_XTP	41
T_REC_BXX	0
T_REC_HLD	57
T_REC_XHO	0
T_REC_BHO	0
T_REC_BXH	0
T_REC_STR	94
T_REC_BST	0
T_REC_XST	2
T_REC_XBS	0
T_REC_TTP	68
T_REC_THO	2
T_REC_SLD	96
T_REC_BSL	4
T_REC_ALL	857
T_NUM_TAP	671
T_NUM_BRK	31
T_NUM_HLD	59
T_NUM_SLD	96
T_NUM_ALL	857
T_JUDGE_TAP	698
T_JUDGE_HLD	197
T_JUDGE_SLD	100
T_JUDGE_ALL	995
TTM_EACHPAIRS	213
TTM_SCR_TAP	335500
TTM_SCR_BRK	80600
TTM_SCR_HLD	59000
TTM_SCR_SLD	144000
TTM_SCR_ALL	619100
TTM_SCR_S	597550
TTM_SCR_SS	616000
TTM_RAT_ACV	10050

