VERSION	0.00.00	1.05.00
FES_MODE	0
BPM_DEF	150.000	150.000	150.000	150.000
MET_DEF	4	4
RESOLUTION	384
CLK_DEF	384
COMPATIBLE_CODE	MA2

BPM	0	0	150.000
MET	0	0	4	4

BXTAP	1	0	2
EXTAP	1	0	3
BXHLD	1	48	2	240
EXHLD	1	48	3	240
EXTAP	2	0	4
BXTAP	2	0	5
EXHLD	2	48	4	240
BXHLD	2	48	5	240
BXTAP	3	0	1
EXTAP	3	0	3
BXHLD	3	48	1	240
EXHLD	3	48	3	240
BXTAP	4	0	0
BXTAP	4	72	7
BXTAP	4	144	0
BXTAP	4	144	6
BXTAP	4	192	0
BXTAP	4	192	6
NMTAP	4	288	2
NMTAP	4	288	4
EXTAP	5	0	4
BXTAP	5	0	6
EXHLD	5	48	4	240
BXTAP	5	48	6
NMTAP	5	192	5
NMTAP	5	288	5
BXTAP	6	0	1
EXTAP	6	0	3
BXTAP	6	48	1
EXHLD	6	48	3	240
NMTAP	6	192	2
NMTAP	6	288	2
BXTAP	7	0	4
EXTAP	7	0	6
BXTAP	7	48	4
EXHLD	7	48	6	240
NMTAP	7	192	5
NMTAP	7	288	5
BXTAP	8	0	7
BXTAP	8	72	1
BXTAP	8	72	7
BXTAP	8	144	2
BXTAP	8	144	6
BXTAP	8	192	2
BXTAP	8	192	6
NMTTP	8	288	3	E	0	M1
NMSTR	9	0	5
NMSCR	9	0	5	96	96	0
NMSTR	9	192	1
NMSCR	9	192	1	96	96	4
NMTAP	10	0	5
NMTAP	10	48	5
NMTAP	10	96	4
NMTAP	10	192	3
NMTAP	10	192	5
NMTAP	10	288	2
NMTAP	10	288	4
NMSTR	11	0	1
NMSCL	11	0	1	96	96	6
NMTAP	11	0	3
NMSTR	11	192	5
NMSCL	11	192	5	96	96	2
NMTAP	12	0	1
NMTAP	12	48	1
NMTAP	12	96	0
NMTAP	12	192	2
NMTAP	12	192	7
EXTAP	12	288	2
EXTAP	12	288	7
NMHLD	13	0	6	96
NMTAP	13	96	4
NMTAP	13	192	3
NMTAP	13	240	3
NMTAP	13	288	2
NMTAP	13	288	4
NMHLD	14	0	1	96
NMTAP	14	96	3
NMTAP	14	192	4
NMTAP	14	240	4
NMTAP	14	288	3
NMTAP	14	288	5
NMSTR	15	0	2
NMSCL	15	0	2	96	96	7
NMSTR	15	0	6
NMSCL	15	0	6	96	96	3
NMTAP	15	288	0
NMTAP	15	288	4
NMTAP	16	0	1
NMTAP	16	48	1
NMTAP	16	96	3
NMTAP	16	144	3
NMTAP	16	192	0
NMTAP	16	240	0
BRTAP	16	288	7
EXTAP	17	0	4
EXTAP	17	0	6
EXTAP	17	72	4
EXTAP	17	72	6
BXTAP	17	144	4
BXTAP	17	144	6
EXTAP	17	288	1
EXTAP	17	288	3
EXTAP	17	360	1
EXTAP	17	360	3
EXTAP	18	48	1
EXTAP	18	48	3
NMTAP	18	144	2
NMSTR	18	192	2
NMSI_	18	192	2	96	48	4
NMTAP	19	0	5
NMTAP	19	48	5
NMTAP	19	96	4
NMTAP	19	144	4
NMTAP	19	192	6
NMTAP	19	240	6
NMTAP	19	288	0
NMTAP	19	336	0
EXTAP	20	0	1
EXTAP	20	0	7
EXTAP	20	72	1
EXTAP	20	72	7
EXTAP	20	144	0
EXTAP	20	144	6
EXTAP	20	216	0
EXTAP	20	216	6
BXTAP	20	288	1
BXTAP	20	288	5
NMTAP	21	0	2
NMHLD	21	0	4	192
NMTTP	21	192	5	E	0	M1
NMTTP	21	288	4	E	0	M1
NMHLD	22	0	3	192
NMTAP	22	0	5
NMTTP	22	192	3	E	0	M1
NMTTP	22	288	4	E	0	M1
NMTAP	23	0	6
NMTAP	23	48	6
NMTAP	23	96	6
NMTAP	23	96	7
NMTAP	23	192	1
NMTAP	23	240	1
NMSTR	23	288	0
NMSSL	23	288	0	96	192	4
NMTAP	23	288	1
EXTAP	24	336	2
EXHLD	25	0	2	72
NMHLD	25	72	1	72
NMSTR	25	144	0
NMSI_	25	144	0	96	48	4
NMTAP	25	336	5
NMHLD	26	0	5	72
NMHLD	26	72	6	72
NMSTR	26	144	7
NMSI_	26	144	7	96	48	3
NMTAP	26	336	0
NMTAP	26	336	1
EXTAP	27	0	0
EXTAP	27	0	1
NMTAP	27	72	0
NMTAP	27	72	7
NMTAP	27	144	6
NMTAP	27	144	7
EXTAP	27	192	6
EXTAP	27	192	7
NMHLD	27	264	5	72
NMTAP	27	336	4
EXTAP	28	0	4
NMTAP	28	72	2
NMTAP	28	72	4
NMTAP	28	144	1
NMTAP	28	144	5
BXTAP	28	192	1
BXTAP	28	192	5
NMTAP	28	288	6
NMTAP	28	336	7
NMHLD	29	0	7	72
NMHLD	29	72	6	72
NMSTR	29	144	5
BRSI_	29	144	5	96	48	1
NMTAP	29	336	0
NMHLD	30	0	0	72
NMHLD	30	72	1	72
NMSTR	30	144	2
BRSI_	30	144	2	96	48	7
NMTAP	30	336	5
EXHLD	31	0	5	72
NMHLD	31	72	4	72
NMTAP	31	144	3
NMHLD	31	192	2	72
NMHLD	31	264	1	72
NMTAP	31	336	0
NMSTR	32	0	0
NMSI_	32	0	0	96	48	3
NMSI_	32	0	0	96	48	5
BXTAP	32	192	2
BXTAP	32	192	6
NMTAP	32	336	1
NMHLD	33	0	1	72
NMHLD	33	72	2	72
NMSTR	33	144	3
NMSI_	33	144	3	96	48	7
NMTAP	33	336	6
NMHLD	34	0	6	72
NMHLD	34	72	5	72
NMSTR	34	144	4
NMSI_	34	144	4	96	48	0
EXTAP	34	336	1
EXTAP	34	336	7
EXTAP	35	0	1
EXTAP	35	0	7
EXTAP	35	72	0
EXTAP	35	72	2
EXTAP	35	144	1
EXTAP	35	144	7
EXTAP	35	192	1
EXTAP	35	192	7
NMHLD	35	264	6	72
NMTAP	35	336	7
NMTAP	36	0	7
NMTAP	36	72	1
NMTAP	36	72	7
NMTAP	36	144	2
NMTAP	36	144	6
BRTAP	36	192	2
BRTAP	36	192	6
NMTAP	36	288	5
NMTAP	36	336	4
NMHLD	37	0	4	72
NMHLD	37	72	5	72
NMSTR	37	144	6
BRSI_	37	144	6	96	48	2
NMTAP	37	336	3
NMHLD	38	0	3	72
NMHLD	38	72	2	72
NMSTR	38	144	1
BRSI_	38	144	1	96	48	4
NMTAP	38	336	5
NMHLD	39	0	5	72
NMTAP	39	72	4
NMTAP	39	144	3
NMTAP	39	144	6
NMHLD	39	192	2	72
NMTAP	39	264	3
NMTAP	39	336	1
NMTAP	39	336	4
NMTAP	40	0	1
NMSTR	40	0	4
NMSCR	40	0	4	96	192	2
NMSUR	40	0	4	96	192	3
BXTAP	41	0	0
BXTAP	41	0	1
BXHLD	41	48	0	240
BXHLD	41	48	1	240
BXTAP	42	0	6
BXTAP	42	0	7
BXHLD	42	48	6	240
BXHLD	42	48	7	240
BXTAP	43	0	1
BXTAP	43	0	3
BXHLD	43	48	1	240
BXHLD	43	48	3	240
NMTAP	44	0	2
NMTAP	44	0	3
NMTAP	44	72	3
NMTAP	44	72	5
NMTAP	44	144	2
NMTAP	44	144	6
NMTAP	44	192	2
NMTAP	44	192	6
EXTAP	44	288	7
BXTAP	45	0	0
BXTAP	45	0	1
BXTAP	45	48	0
BXHLD	45	48	1	144
NMTAP	45	192	3
NMTAP	45	240	3
NMTAP	45	288	2
BXTAP	46	0	6
BXTAP	46	0	7
BXHLD	46	48	6	144
BXTAP	46	48	7
NMTAP	46	192	4
NMTAP	46	240	4
NMTAP	46	288	5
BXTAP	47	0	2
BXTAP	47	0	3
BXHLD	47	48	2	144
BXTAP	47	48	3
NMTAP	47	192	0
NMTAP	47	240	0
NMTAP	47	288	1
NMTAP	48	0	6
NMTAP	48	0	7
NMTAP	48	72	4
NMTAP	48	72	5
NMTAP	48	144	2
NMTAP	48	144	4
NMTAP	48	192	2
NMTAP	48	192	4
EXTAP	48	288	1
EXTAP	48	288	5
EXHLD	49	0	1	768
EXTAP	49	0	5
NMTHO	50	0	3	192	B	0	M1
NMHLD	51	0	0	768
NMTHO	52	0	1	192	B	0	M1
BRTAP	53	192	0
BRTAP	53	192	7
NMSTR	53	288	1
NMSCR	53	288	1	96	96	4
NMTAP	53	288	6
NMSTR	54	0	5
NMSCR	54	0	5	96	96	0
NMTAP	54	192	1
NMTAP	54	240	1
NMTAP	54	288	0
NMSTR	54	288	1
NMSI_	54	288	1	96	96	4
NMSTR	55	0	7
NMSCR	55	0	7	96	96	2
NMTAP	55	192	3
NMTAP	55	288	2
NMTAP	55	336	2
NMTAP	56	0	1
NMTAP	56	0	3
NMTAP	56	96	4
NMTAP	56	96	6
NMTAP	56	192	0
NMTAP	56	192	7
NMTAP	56	240	0
NMTAP	56	240	7
BRTAP	56	288	1
BRTAP	56	288	6
NMHLD	57	0	2	72
NMHLD	57	0	3	72
BXTAP	57	144	1
BXTAP	57	144	2
NMHLD	57	288	4	72
NMHLD	57	288	5	72
BXTAP	58	48	5
BXTAP	58	48	6
NMTAP	58	144	7
NMTAP	58	192	7
NMTAP	58	288	4
NMTAP	58	288	6
NMTAP	59	0	5
NMTAP	59	48	5
NMTAP	59	96	3
NMTAP	59	144	3
NMTAP	59	192	4
NMTAP	59	240	4
NMTAP	59	288	2
NMTAP	59	336	2
EXTAP	60	0	0
EXTAP	60	0	1
EXTAP	60	72	0
EXTAP	60	72	1
EXTAP	60	144	6
EXTAP	60	144	7
EXTAP	60	216	6
EXTAP	60	216	7
EXTAP	60	288	0
EXTAP	60	288	5
NMTAP	61	0	1
NMTAP	61	48	1
NMTAP	61	96	3
NMTAP	61	144	3
NMTAP	61	192	2
NMTAP	61	240	2
NMTAP	61	288	4
NMTAP	61	336	4
NMTAP	62	0	3
NMTAP	62	48	3
NMTAP	62	96	5
NMTAP	62	144	5
NMTAP	62	192	4
NMTAP	62	240	4
NMTAP	62	288	6
NMTAP	62	336	6
NMTAP	63	0	6
NMTAP	63	0	7
NMTAP	63	48	6
NMTAP	63	48	7
NMTAP	63	96	6
NMTAP	63	96	7
NMTAP	63	192	0
NMTAP	63	192	1
NMTAP	63	240	0
NMTAP	63	240	1
NMSTR	63	288	0
NMSSL	63	288	0	96	288	4
NMHLD	63	288	1	864
CNSCR	64	288	4	0	480	3
NMHLD	67	0	0	1248
NMTHO	68	0	0	384	C	0	M1
NMHLD	70	0	7	96
BXTAP	70	192	0
BXTAP	70	192	7
BXSTR	70	288	6
NMSI_	70	288	6	96	48	3
BXSTR	70	288	7
NMSI_	70	288	7	96	48	3
NMSTR	71	96	0
NMSI_	71	96	0	96	48	4
NMSTR	71	96	1
NMSI_	71	96	1	96	48	4
NMSTR	71	288	6
NMSI_	71	288	6	96	48	3
NMSTR	71	288	7
NMSI_	71	288	7	96	48	3
NMSTR	72	96	0
NMSI_	72	96	0	96	48	4
NMSTR	72	96	1
NMSI_	72	96	1	96	48	4
EXTAP	72	288	6
EXTAP	72	336	6
NMHLD	73	0	6	72
NMHLD	73	72	5	72
NMTAP	73	144	4
NMHLD	73	192	3	72
NMHLD	73	264	2	72
NMTAP	73	336	1
NMTAP	74	0	0
NMTAP	74	0	1
NMTAP	74	96	3
NMTAP	74	96	4
BRTAP	74	192	6
BRTAP	74	192	7
NMTHO	75	0	4	144	B	0	M1
NMTHO	75	0	5	144	B	0	M1
NMTHO	75	0	6	144	B	0	M1
EXTAP	75	288	0
NMTHO	76	0	1	144	B	0	M1
NMTHO	76	0	2	144	B	0	M1
NMTHO	76	0	3	144	B	0	M1
EXTAP	76	288	0
EXTAP	76	288	7
NMTHO	77	0	0	384	C	1	M1
NMTHO	77	0	2	384	B	0	M1
NMTHO	77	0	5	384	B	0	M1
BRTAP	78	192	0
BRTAP	78	192	7
NMSTR	78	288	6
NMSI_	78	288	6	96	48	3
NMSTR	78	288	7
NMSI_	78	288	7	96	48	2
NMSTR	79	96	0
NMSI_	79	96	0	96	48	5
NMSTR	79	96	1
NMSI_	79	96	1	96	48	4
NMSTR	79	288	6
NMSI_	79	288	6	96	48	3
NMSTR	79	288	7
NMSI_	79	288	7	96	48	2
NMSTR	80	96	0
NMSI_	80	96	0	96	48	5
NMSTR	80	96	1
NMSI_	80	96	1	96	48	4
NMTAP	80	288	6
NMTAP	80	288	7
NMHLD	81	0	5	72
NMHLD	81	72	6	72
NMTAP	81	144	7
NMHLD	81	192	2	72
NMHLD	81	264	1	72
NMTAP	81	336	0
NMSTR	82	0	0
NMSI_	82	0	0	96	48	4
NMSTR	82	96	6
NMSI_	82	96	6	96	48	2
EXTAP	82	288	1
EXTAP	82	288	3
NMHLD	83	0	1	96
NMHLD	83	0	2	96
NMTAP	83	192	5
NMTAP	83	192	6
EXSTR	83	288	0
BRSUL	83	288	0	96	192	3
EXSTR	83	288	7
BRSUR	83	288	7	96	192	4
CNSCL	84	192	3	0	288	4
CNSCR	84	192	4	0	288	3
NMTAP	86	0	5
NMTAP	86	96	4
NMTAP	86	96	6
NMTAP	86	192	7
NMTAP	86	240	7
NMTAP	86	288	0
NMTAP	87	0	2
NMTAP	87	96	1
NMTAP	87	96	3
NMTAP	87	192	0
NMTAP	87	240	0
NMTAP	87	288	7
NMTAP	88	0	6
NMTAP	88	0	7
NMTAP	88	96	4
NMTAP	88	96	5
NMTAP	88	192	2
NMTAP	88	240	2
NMTAP	88	288	1
NMTAP	88	288	3
NMSTR	89	0	0
NMSI_	89	0	0	96	48	2
NMSTR	89	0	4
NMSI_	89	0	4	96	48	6
BRTAP	89	192	3
BRTAP	89	192	7
BRTAP	89	288	1
BRTAP	89	288	5
NMTAP	90	0	2
NMTAP	90	48	2
NMTAP	90	96	3
NMTAP	90	144	1
NMTAP	90	192	7
NMTAP	90	240	7
NMTAP	90	288	0
NMTAP	90	288	6
NMTAP	91	0	5
NMTAP	91	48	5
NMTAP	91	96	4
NMTAP	91	144	6
NMTAP	91	192	0
NMTAP	91	240	0
NMTAP	91	288	1
NMTAP	91	288	7
NMTAP	92	0	4
NMTAP	92	0	6
NMTAP	92	96	2
NMTAP	92	96	3
NMTAP	92	192	6
NMTAP	92	192	7
NMTAP	92	288	0
NMTAP	92	288	2
NMTAP	93	0	1
NMTAP	93	0	7
NMTAP	93	48	1
NMTAP	93	48	7
NMTAP	93	96	1
NMTAP	93	96	7
BRTAP	93	192	2
BRSTR	93	192	6
NMSI_	93	192	6	96	48	3
CNSI_	93	336	3	0	48	7

T_REC_TAP	234
T_REC_BRK	16
T_REC_XTP	63
T_REC_BXX	51
T_REC_HLD	44
T_REC_XHO	9
T_REC_BHO	0
T_REC_BXH	12
T_REC_STR	41
T_REC_BST	1
T_REC_XST	2
T_REC_XBS	2
T_REC_TTP	5
T_REC_THO	12
T_REC_SLD	42
T_REC_BSL	6
T_REC_ALL	540
T_NUM_TAP	345
T_NUM_BRK	88
T_NUM_HLD	65
T_NUM_SLD	42
T_NUM_ALL	540
T_JUDGE_TAP	415
T_JUDGE_HLD	308
T_JUDGE_SLD	48
T_JUDGE_ALL	771
TTM_EACHPAIRS	145
TTM_SCR_TAP	172500
TTM_SCR_BRK	228800
TTM_SCR_HLD	65000
TTM_SCR_SLD	63000
TTM_SCR_ALL	529300
TTM_SCR_S	504900
TTM_SCR_SS	520500
TTM_RAT_ACV	10169

