VERSION	0.00.00	1.05.00
FES_MODE	0
BPM_DEF	140.000	140.000	140.000	140.000
MET_DEF	4	4
RESOLUTION	384
CLK_DEF	384
COMPATIBLE_CODE	MA2

BPM	0	0	140.000
MET	0	0	4	4

NMSTR	1	0	2
NMSCR	1	0	2	96	96	5
NMTHO	1	288	1	288	B	0	M1
NMTHO	1	288	4	288	B	0	M1
NMTHO	2	0	0	192	C	0	M1
BXTAP	2	288	0
BXTAP	2	288	7
NMHLD	3	0	5	48
NMTAP	3	48	7
NMHLD	3	72	6	48
NMTAP	3	120	0
NMTAP	3	144	7
EXTAP	3	192	0
NMTAP	3	192	1
NMTAP	3	240	0
EXTAP	3	240	1
EXTAP	3	288	2
NMTAP	3	288	7
NMHLD	4	0	1	48
NMTAP	4	48	7
NMHLD	4	72	0	48
NMTAP	4	120	6
NMTAP	4	144	7
NMSTR	4	192	0
NMSI_	4	192	0	96	48	2
NMSTR	4	192	5
NMSI_	4	192	5	96	48	3
BRTAP	4	288	0
BRTAP	4	288	5
NMSTR	5	0	2
NMSCL	5	0	2	96	48	7
NMTAP	5	48	2
NMSTR	5	96	4
NMSUR	5	96	4	96	48	0
NMTAP	5	144	4
NMSTR	5	192	3
NMSUL	5	192	3	96	48	7
NMTAP	5	240	3
BRTAP	5	288	5
NMSTR	6	0	6
NMSI_	6	0	6	96	48	2
NMTAP	6	48	6
NMSTR	6	96	0
NMSI_	6	96	0	96	48	4
NMTAP	6	144	0
NMSTR	6	192	7
NMSCR	6	192	7	96	48	2
NMTAP	6	240	7
BRTAP	6	288	3
EXTAP	7	0	2
NMSTR	7	0	4
NMSUR	7	0	4	96	48	1
NMTAP	7	48	4
NMSTR	7	96	3
NMSUL	7	96	3	96	48	6
NMTAP	7	144	3
NMSTR	7	192	5
NMSCR	7	192	5	96	48	0
NMTAP	7	240	5
NMTAP	7	288	1
EXHLD	8	0	2	48
EXHLD	8	0	7	48
EXHLD	8	72	0	48
EXHLD	8	72	5	48
NMTAP	8	144	2
NMTAP	8	144	7
NMTAP	8	192	1
NMTAP	8	216	0
NMTAP	8	240	1
NMTAP	8	288	2
NMTAP	8	288	6
NMSTR	9	0	5
NMSCR	9	0	5	96	48	0
NMTAP	9	48	5
NMSTR	9	96	3
NMSUL	9	96	3	96	48	7
NMTAP	9	144	3
NMSTR	9	192	4
NMSUR	9	192	4	96	48	0
NMTAP	9	240	4
BRTAP	9	288	2
NMSTR	10	0	1
NMSI_	10	0	1	96	48	5
NMTAP	10	48	1
NMSTR	10	96	7
NMSI_	10	96	7	96	48	3
NMTAP	10	144	7
NMSTR	10	192	0
NMSCL	10	192	0	96	48	5
NMTAP	10	240	0
BRTAP	10	288	4
NMSTR	11	0	3
NMSUL	11	0	3	96	48	6
EXTAP	11	0	5
NMTAP	11	48	3
NMSTR	11	96	4
NMSUR	11	96	4	96	48	1
NMTAP	11	144	4
NMSTR	11	192	2
NMSCL	11	192	2	96	48	7
NMTAP	11	240	2
NMTAP	11	288	6
NMTAP	12	0	4
NMTAP	12	0	5
NMTAP	12	48	2
NMTAP	12	72	3
NMTAP	12	120	5
NMTAP	12	144	4
NMTAP	12	192	2
NMTAP	12	216	2
NMTAP	12	240	3
BRSTR	12	288	0
NMSI_	12	288	0	96	48	4
BRSTR	12	288	1
NMSI_	12	288	1	96	48	3
NMTAP	13	0	0
NMTAP	13	0	1
NMSTR	13	96	6
NMSI_	13	96	6	96	48	4
NMSTR	13	96	7
NMSI_	13	96	7	96	48	3
NMTAP	13	192	6
NMTAP	13	192	7
NMTAP	13	288	1
NMTAP	13	336	1
NMTAP	14	0	0
NMTAP	14	96	2
NMTAP	14	96	3
NMTAP	14	144	4
NMTAP	14	192	3
NMTAP	14	192	5
NMTAP	14	240	6
NMSTR	14	288	6
NMSI_	14	288	6	96	48	4
NMSTR	14	288	7
NMSUL	14	288	7	96	48	3
NMTAP	15	0	6
NMTAP	15	0	7
NMSTR	15	96	0
NMSUR	15	96	0	96	48	4
NMSTR	15	96	1
NMSI_	15	96	1	96	48	3
NMTAP	15	192	0
NMTAP	15	192	1
NMTAP	15	288	6
NMTAP	15	336	6
NMTAP	16	0	7
NMHLD	16	96	0	288
NMTTP	16	192	6	E	0	M1
NMTTP	16	216	7	E	0	M1
NMTTP	16	240	0	E	0	M1
NMTTP	16	264	1	E	0	M1
NMTTP	16	288	2	E	0	M1
NMTTP	16	312	3	E	0	M1
NMTTP	16	336	4	E	0	M1
NMTTP	16	360	5	E	0	M1
EXSTR	17	0	6
NMSI_	17	0	6	96	48	2
NMTAP	17	72	7
NMTAP	17	96	6
NMTAP	17	144	0
NMSTR	17	192	1
NMSI_	17	192	1	96	48	5
NMTAP	17	264	0
NMTAP	17	288	1
NMHLD	17	336	7	48
NMTAP	18	0	4
NMHLD	18	48	6	48
NMTAP	18	96	4
NMHLD	18	144	5	48
NMTAP	18	192	3
EXTAP	18	240	2
EXTAP	18	240	4
EXTAP	18	264	2
EXTAP	18	264	4
NMTAP	18	336	2
NMTAP	18	336	3
NMSTR	19	0	1
NMSCR	19	0	1	96	48	4
NMSTR	19	0	4
NMSCR	19	0	4	96	48	7
NMSTR	19	96	4
NMSI_	19	96	4	96	48	0
NMTAP	19	192	7
BRTAP	19	240	7
NMTAP	19	336	1
NMTAP	20	0	0
NMTAP	20	0	2
NMTAP	20	48	1
NMSTR	20	96	6
NMSCL	20	96	6	96	48	3
NMSTR	20	96	7
NMSCR	20	96	7	96	48	2
BXTAP	20	192	6
BXTAP	20	192	7
NMHLD	21	0	1	624
NMHLD	21	0	3	192
NMTAP	21	288	2
NMHLD	22	0	0	192
NMTAP	22	288	2
BRTAP	22	288	7
NMHLD	23	0	6	384
NMTAP	23	96	0
NMTAP	23	144	0
NMTAP	23	192	7
NMTAP	23	240	7
NMTAP	23	288	5
NMTAP	23	336	5
BRTAP	24	0	4
NMTAP	24	192	0
NMTAP	24	192	7
NMTAP	24	240	1
NMSTR	24	288	2
NMSI_	24	288	2	96	48	7
NMTAP	24	288	4
NMTAP	25	0	2
NMSTR	25	0	5
NMSUR	25	0	5	96	96	0
NMSTR	25	96	0
NMSCR	25	96	0	96	96	6
NMTTP	25	192	0	C	1	M1
EXTAP	25	288	7
NMTAP	26	0	0
NMTAP	26	0	1
NMTAP	26	48	2
NMTAP	26	72	3
NMTAP	26	96	2
NMSTR	26	144	1
NMSI_	26	144	1	96	48	4
NMTAP	26	144	4
NMTAP	26	192	1
NMSTR	26	192	4
NMSI_	26	192	4	96	48	7
NMTAP	26	240	5
EXTAP	26	288	6
NMTAP	27	0	0
NMTAP	27	0	5
NMTAP	27	48	1
NMTAP	27	96	2
NMTAP	27	96	7
NMTAP	27	144	6
NMTAP	27	192	0
NMTAP	27	192	5
NMTAP	27	240	0
NMTAP	27	240	5
NMTAP	27	288	6
NMTAP	27	288	7
NMTAP	27	336	6
NMTAP	27	336	7
NMHLD	28	0	0	48
NMTAP	28	0	5
EXTAP	28	16	4
EXTAP	28	32	3
NMHLD	28	96	0	48
NMTAP	28	96	5
EXTAP	28	112	4
EXTAP	28	128	3
NMHLD	28	192	0	48
NMTAP	28	192	5
EXTAP	28	208	4
EXTAP	28	224	3
NMSTR	28	288	6
NMSI_	28	288	6	96	48	1
NMTAP	28	288	7
NMSTR	29	0	2
NMSUL	29	0	2	96	96	0
NMTAP	29	0	6
NMSTR	29	96	0
NMSCL	29	96	0	96	96	1
NMTTP	29	192	0	C	1	M1
EXTAP	29	288	0
NMTAP	30	0	0
NMTAP	30	0	7
NMTAP	30	48	1
NMTAP	30	72	3
NMTAP	30	96	2
NMTAP	30	144	4
NMTAP	30	144	5
NMTAP	30	192	6
NMSTR	30	192	7
NMSCR	30	192	7	96	96	3
NMTTP	30	288	6	E	1	M1
NMSTR	31	0	0
NMSCL	31	0	0	96	96	4
NMTTP	31	96	2	E	1	M1
NMSTR	31	192	7
NMSI_	31	192	7	96	48	1
NMTAP	31	288	5
NMSTR	31	288	7
NMSI_	31	288	7	96	48	5
NMTAP	32	0	2
NMSTR	32	0	7
NMSI_	32	0	7	96	48	3
NMTAP	32	96	4
NMTAP	32	96	7
NMTAP	32	192	0
NMTAP	32	192	6
NMSTR	32	288	1
NMSI_	32	288	1	96	48	5
BRTAP	33	0	1
NMSTR	33	0	6
NMSUR	33	0	6	96	96	7
NMSTR	33	96	7
NMSCR	33	96	7	96	96	5
NMTTP	33	192	0	C	1	M1
EXTAP	33	288	7
NMTAP	34	0	6
NMTAP	34	0	7
NMTAP	34	48	5
NMTAP	34	72	4
NMTAP	34	96	5
NMTAP	34	144	3
NMSTR	34	144	6
NMSI_	34	144	6	96	48	3
NMSTR	34	192	3
NMSI_	34	192	3	96	48	0
NMTAP	34	192	6
NMTAP	34	240	2
EXTAP	34	288	1
NMTAP	35	0	1
NMHLD	35	48	1	48
NMTAP	35	96	3
NMHLD	35	144	3	48
NMTAP	35	192	4
NMHLD	35	240	4	48
NMSTR	35	288	6
NMSI_	35	288	6	96	48	0
NMTAP	35	336	5
NMSTR	36	0	1
NMSI_	36	0	1	96	48	4
NMTAP	36	0	6
NMTAP	36	48	2
NMTAP	36	96	1
NMTAP	36	96	7
NMTAP	36	144	7
NMTAP	36	192	2
NMTAP	36	192	6
EXSTR	36	288	5
NMSI_	36	288	5	96	48	1
NMSTR	37	0	1
NMSCL	37	0	1	96	96	3
NMTAP	37	96	2
NMTAP	37	144	1
NMTAP	37	192	0
BXTAP	37	288	2
BXTAP	37	288	6
NMTAP	38	0	1
NMTAP	38	24	7
NMTAP	38	48	1
NMTAP	38	72	7
NMTAP	38	96	0
NMTAP	38	144	6
NMTAP	38	144	7
NMTAP	38	192	6
NMSTR	38	192	7
NMSCR	38	192	7	96	48	2
NMTAP	38	288	5
NMSTR	38	288	7
NMSCL	38	288	7	96	48	4
NMTAP	39	0	1
NMSTR	39	0	7
NMSI_	39	0	7	96	48	1
NMSI_	39	0	7	96	48	2
NMSTR	39	96	7
NMSI_	39	96	7	96	48	4
NMSI_	39	96	7	96	48	5
NMTAP	39	192	7
NMTAP	39	288	6
NMTAP	39	288	7
NMTAP	39	336	0
NMTAP	40	0	1
NMTAP	40	0	4
NMTAP	40	48	2
NMTAP	40	72	3
NMTAP	40	96	2
NMTAP	40	144	1
NMTAP	40	144	4
NMTAP	40	192	2
NMTAP	40	192	5
NMTAP	40	240	3
NMTAP	40	240	6
NMTTP	40	288	0	C	1	M1
BRTAP	40	288	7
NMHLD	41	0	2	48
NMHLD	41	0	6	48
NMHLD	41	72	0	48
NMHLD	41	72	1	48
NMTAP	41	144	2
NMTAP	41	144	7
NMTAP	41	192	2
NMTAP	41	192	7
NMTAP	41	240	1
NMTAP	41	240	5
EXTAP	41	288	1
EXTAP	41	288	5
NMHLD	42	0	6	48
NMHLD	42	0	7	48
NMHLD	42	72	0	48
NMHLD	42	72	5	48
NMTAP	42	144	2
NMTAP	42	144	4
NMSTR	42	192	1
NMSI_	42	192	1	96	48	4
NMSTR	42	192	5
NMSI_	42	192	5	96	48	0
NMTAP	42	288	1
NMTAP	42	288	5
BRTAP	43	0	2
BRTAP	43	0	6
NMTAP	43	192	6
NMTAP	43	216	7
NMTAP	43	240	6
NMTAP	43	288	0
NMTAP	43	288	5
NMTAP	43	336	1
NMTAP	44	0	2
NMTAP	44	0	7
NMTAP	44	48	6
NMTAP	44	72	4
NMTAP	44	96	5
NMTAP	44	120	3
NMTAP	44	144	4
NMTAP	44	168	2
NMTAP	44	192	3
EXTAP	44	240	0
EXTAP	44	240	4
EXTAP	44	288	0
EXTAP	44	288	4
NMHLD	45	0	6	48
NMHLD	45	48	7	48
NMTAP	45	96	6
NMTAP	45	120	6
NMTAP	45	144	7
NMTAP	45	168	5
NMHLD	45	192	0	48
NMHLD	45	240	2	48
NMTAP	45	288	1
NMTAP	45	312	1
NMTAP	45	336	3
NMTAP	45	360	3
NMTAP	46	0	2
NMTAP	46	72	1
NMTAP	46	72	3
NMTAP	46	96	1
NMTAP	46	96	3
NMTAP	46	144	2
NMTAP	46	144	4
NMTAP	46	192	3
NMTAP	46	192	5
NMTAP	46	240	6
NMTAP	46	264	4
NMTAP	46	312	4
NMTAP	46	336	6
EXTAP	47	0	3
EXTAP	47	0	7
NMTAP	47	24	0
NMTAP	47	48	1
NMTAP	47	72	2
EXTAP	47	96	0
EXTAP	47	96	3
NMTAP	47	120	1
NMTAP	47	144	2
NMTAP	47	168	3
EXTAP	47	192	1
EXTAP	47	192	4
NMTAP	47	216	2
NMTAP	47	240	3
NMTAP	47	264	4
EXTAP	47	288	5
NMTAP	47	312	6
NMTAP	47	336	7
NMTAP	47	360	0
EXTAP	48	0	4
NMTAP	48	24	3
NMTAP	48	48	2
NMTAP	48	72	1
EXTAP	48	96	0
EXTAP	48	96	7
NMTAP	48	120	6
NMTAP	48	144	5
NMTAP	48	168	4
EXTAP	48	192	0
EXTAP	48	192	3
NMTAP	48	216	1
NMTAP	48	240	2
NMTAP	48	264	3
NMTAP	48	288	4
NMTAP	48	288	7
NMTAP	49	0	2
NMTAP	49	0	7
NMTAP	49	48	1
NMTAP	49	72	0
NMTAP	49	96	2
NMTAP	49	120	3
NMTAP	49	144	1
NMTAP	49	168	4
NMHLD	49	192	0	48
NMTAP	49	240	6
NMTAP	49	264	7
NMTAP	49	288	5
NMTAP	49	312	4
NMTAP	49	336	6
NMTAP	49	360	3
BRSTR	50	0	7
NMSUL	50	0	7	96	48	3
NMTAP	50	96	3
NMTAP	50	96	7
EXTAP	50	112	2
EXTAP	50	128	1
EXTAP	50	144	0
NMTAP	50	192	1
NMTAP	50	192	4
NMTAP	50	240	1
NMTAP	50	240	4
BRTAP	50	288	0
BRTAP	50	288	5
NMSTR	51	0	6
NMSCL	51	0	6	96	192	2
NMTTP	51	288	3	B	0	M1
NMSTR	52	0	1
NMSCR	52	0	1	96	192	5
NMTTP	52	288	4	B	0	M1
NMTHO	53	0	6	576	E	0	M1
NMTHO	53	192	5	384	E	0	M1
NMTHO	54	0	4	192	E	0	M1
NMTTP	54	192	0	C	0	M1
NMTHO	55	0	2	576	E	0	M1
NMTHO	55	192	3	384	E	0	M1
NMTHO	56	0	4	192	E	0	M1
NMTTP	56	192	0	C	0	M1
NMTHO	57	0	0	384	C	0	M1
BRTAP	58	0	7
NMTAP	58	192	6
NMTAP	58	216	4
NMTAP	58	264	2
EXTAP	58	288	3
NMTAP	58	312	2
NMTAP	58	360	0
NMTAP	58	360	1
BRSTR	59	0	0
NMSI_	59	0	0	96	48	4
BRSTR	59	0	1
NMSI_	59	0	1	96	48	5
BRSTR	59	96	0
NMSCL	59	96	0	96	48	5
BRSTR	59	96	1
NMSCR	59	96	1	96	48	4
BRTAP	59	192	0
BRTAP	59	192	1
EXTAP	59	288	3
EXTAP	59	288	6
NMTAP	60	0	5
NMTAP	60	24	4
NMTAP	60	48	6
NMTAP	60	72	3
NMTAP	60	96	7
NMTAP	60	144	0
NMSTR	60	144	1
NMSXL	60	144	1	96	48	3
NMTAP	60	192	2
NMSTR	60	192	3
NMSCL	60	192	3	96	72	7
NMTAP	60	240	4
BXTAP	60	288	5
NMTAP	61	0	5
NMTAP	61	48	4
NMTAP	61	48	6
NMTAP	61	96	2
NMTAP	61	144	1
NMTAP	61	144	3
NMTAP	61	192	5
NMTAP	61	216	4
NMTAP	61	240	5
NMTAP	61	288	6
NMSTR	61	288	7
NMSCL	61	288	7	96	96	2
NMTAP	61	336	0
NMTAP	61	336	1
NMSTR	62	0	2
NMSCR	62	0	2	96	96	7
NMTAP	62	96	7
NMTAP	62	192	2
EXSTR	62	288	0
NMSI_	62	288	0	96	48	4
EXSTR	62	288	1
NMSI_	62	288	1	96	48	3
NMSTR	63	0	0
NMSI_	63	0	0	96	48	6
NMSTR	63	0	1
NMSI_	63	0	1	96	48	5
NMSTR	63	96	0
NMSUR	63	96	0	96	48	4
NMSTR	63	96	1
NMSCR	63	96	1	96	48	3
NMTAP	63	192	0
NMTAP	63	192	1
EXTAP	63	288	4
EXTAP	63	288	6
NMTAP	64	0	5
NMTAP	64	24	7
NMTAP	64	48	6
NMTAP	64	72	0
NMTAP	64	96	7
NMTAP	64	144	0
NMTAP	64	144	1
NMTAP	64	192	2
NMSTR	64	192	7
NMSCL	64	192	7	96	96	1
NMTTP	64	288	1	B	0	M1
NMTTP	64	288	1	E	1	M1
NMTTP	64	288	2	E	0	M1
NMSTR	65	0	7
NMSCR	65	0	7	96	96	5
NMTTP	65	96	5	B	1	M1
NMTTP	65	96	5	E	0	M1
NMTTP	65	96	6	E	0	M1
NMHLD	65	192	7	96
NMTAP	65	288	5
NMTAP	65	336	5
NMTAP	66	0	4
NMTAP	66	0	6
NMTAP	66	96	2
NMTAP	66	96	3
NMTAP	66	144	1
NMTAP	66	168	1
NMTAP	66	192	3
NMTAP	66	216	3
NMTAP	66	240	2
NMTAP	66	264	2
NMSTR	66	288	3
NMSUR	66	288	3	96	48	7
NMSTR	66	288	4
NMSCR	66	288	4	96	48	6
BRSTR	67	0	3
NMSCL	67	0	3	96	48	1
BRSTR	67	0	4
NMSUL	67	0	4	96	48	0
BRSTR	67	96	3
BRSUR	67	96	3	96	96	4
BRSTR	67	96	4
BRSCR	67	96	4	96	96	3
NMTTP	67	192	3	A	0	M1
NMTTP	67	192	4	A	0	M1
NMTTP	67	192	4	D	1	M1
NMTAP	68	0	6
NMTAP	68	0	7
NMTAP	68	48	0
NMTAP	68	48	5
NMTAP	68	96	1
NMTAP	68	120	0
NMSTR	68	144	1
NMSXR	68	144	1	96	48	7
NMTAP	68	192	2
NMSTR	68	192	7
NMSCR	68	192	7	96	96	4
NMTAP	68	240	6
BXTAP	68	288	5
NMHLD	69	0	5	48
NMHLD	69	48	7	48
NMHLD	69	96	0	48
NMHLD	69	144	2	48
NMTAP	69	192	3
NMTAP	69	240	5
NMTAP	69	264	4
NMSTR	69	288	6
NMSCL	69	288	6	96	96	0
NMTAP	69	336	7
NMSTR	70	0	0
NMSCR	70	0	0	96	96	6
NMTAP	70	0	6
NMTAP	70	96	7
NMTAP	70	192	0
NMTAP	70	240	0
BRSTR	70	288	1
NMSI_	70	288	1	96	48	5
NMTAP	70	288	7
NMSTR	71	0	0
NMSI_	71	0	0	96	48	4
NMSTR	71	96	7
NMSI_	71	96	7	96	48	3
NMSTR	71	192	6
NMSI_	71	192	6	96	48	2
BRSTR	71	288	5
NMSI_	71	288	5	96	48	1
NMSTR	72	0	4
NMSI_	72	0	4	96	48	0
NMSTR	72	96	3
NMSI_	72	96	3	96	48	7
NMTAP	72	192	2
BRSTR	72	288	0
NMSCL	72	288	0	96	48	5
BRSTR	72	288	1
NMSUL	72	288	1	96	48	5
NMTAP	73	0	0
NMTAP	73	0	1
NMSTR	73	96	6
NMSUR	73	96	6	96	48	2
NMSTR	73	96	7
NMSCR	73	96	7	96	48	2
NMTAP	73	192	6
NMTAP	73	192	7
NMTAP	73	288	0
NMTAP	73	288	1
NMTAP	73	336	2
NMTAP	74	0	2
NMTAP	74	0	3
NMTAP	74	48	5
NMTAP	74	72	4
NMTAP	74	96	5
NMTAP	74	144	3
NMTAP	74	144	6
NMTAP	74	192	1
NMTTP	74	192	5	E	0	M1
NMTTP	74	240	3	E	0	M1
NMTAP	74	240	6
BRTAP	74	288	0
NMTTP	74	288	0	C	1	M1
NMTAP	75	0	2
NMTAP	75	0	6
NMTAP	75	48	1
NMTAP	75	72	0
NMTAP	75	120	0
NMHLD	75	144	2	48
EXTAP	75	192	3
EXTAP	75	240	1
EXTAP	75	240	4
EXTAP	75	288	0
EXTAP	75	288	5
NMTAP	76	0	6
NMTAP	76	0	7
NMTAP	76	48	5
NMTAP	76	72	4
NMTAP	76	120	4
NMTAP	76	144	7
NMSTR	76	192	1
NMSI_	76	192	1	96	48	4
NMSTR	76	192	5
NMSI_	76	192	5	96	48	0
NMTAP	76	288	1
NMTAP	76	288	5
BRTAP	77	0	2
BRTAP	77	0	6
NMTAP	77	96	5
NMTAP	77	120	4
NMTAP	77	144	6
NMTAP	77	168	2
NMTAP	77	192	3
NMTAP	77	216	1
NMTAP	77	240	6
NMTAP	77	264	7
NMTAP	77	288	0
NMTAP	77	288	5
NMHLD	78	0	1	48
NMTAP	78	48	3
NMHLD	78	72	3	48
NMTAP	78	120	5
NMTAP	78	144	5
NMSTR	78	192	3
NMSI_	78	192	3	96	48	0
NMSTR	78	192	7
NMSI_	78	192	7	96	48	4
NMTAP	78	288	3
NMTAP	78	288	7
NMTAP	79	0	0
NMTAP	79	0	4
NMTAP	79	12	1
NMTAP	79	24	2
NMTAP	79	36	3
NMTAP	79	48	4
NMTAP	79	60	5
NMTAP	79	72	6
NMTAP	79	84	7
NMTAP	79	96	0
NMTAP	79	108	1
NMTAP	79	120	2
NMTAP	79	132	3
NMTAP	79	144	4
NMTAP	79	156	5
NMTAP	79	168	6
NMTAP	79	180	7
NMTAP	79	192	0
NMTTP	79	192	0	C	1	M1

T_REC_TAP	400
T_REC_BRK	21
T_REC_XTP	51
T_REC_BXX	8
T_REC_HLD	39
T_REC_XHO	4
T_REC_BHO	0
T_REC_BXH	0
T_REC_STR	89
T_REC_BST	15
T_REC_XST	4
T_REC_XBS	0
T_REC_TTP	31
T_REC_THO	10
T_REC_SLD	108
T_REC_BSL	2
T_REC_ALL	782
T_NUM_TAP	575
T_NUM_BRK	46
T_NUM_HLD	53
T_NUM_SLD	108
T_NUM_ALL	782
T_JUDGE_TAP	619
T_JUDGE_HLD	146
T_JUDGE_SLD	110
T_JUDGE_ALL	875
TTM_EACHPAIRS	150
TTM_SCR_TAP	287500
TTM_SCR_BRK	119600
TTM_SCR_HLD	53000
TTM_SCR_SLD	162000
TTM_SCR_ALL	622100
TTM_SCR_S	599000
TTM_SCR_SS	617500
TTM_RAT_ACV	10074

