VERSION	0.00.00	1.05.00
FES_MODE	0
BPM_DEF	140.000	140.000	140.000	140.000
MET_DEF	4	4
RESOLUTION	384
CLK_DEF	384
COMPATIBLE_CODE	MA2

BPM	0	0	140.000
MET	0	0	4	4

BRTAP	2	288	0
NMHLD	3	0	6	96
NMHLD	3	0	7	96
EXTAP	3	192	0
EXTAP	3	240	1
EXTAP	3	288	2
NMTAP	3	288	7
EXHLD	4	0	0	96
EXHLD	4	0	1	96
NMTAP	4	192	2
NMTAP	4	192	7
BXTAP	4	288	0
BXTAP	4	288	5
NMTAP	5	0	4
NMTAP	5	96	3
NMSTR	5	96	5
BRSCR	5	96	5	96	96	0
NMTAP	6	0	3
NMSTR	6	96	2
BRSCL	6	96	2	96	96	7
NMTAP	6	96	4
NMTAP	7	0	4
NMTAP	7	96	3
NMSTR	7	96	5
BRSCR	7	96	5	96	96	0
BXTAP	8	0	0
BXTAP	8	0	1
BXTAP	8	96	0
BXTAP	8	96	7
BXTAP	8	192	6
BXTAP	8	192	7
BXTAP	8	288	0
BXTAP	8	288	7
NMTAP	9	0	0
NMTAP	9	0	1
NMSTR	9	96	2
BRSCL	9	96	2	96	96	7
NMTAP	9	96	3
NMTAP	10	0	6
NMTAP	10	0	7
NMTAP	10	96	4
NMSTR	10	96	5
BRSCR	10	96	5	96	96	0
NMTAP	11	0	0
NMTAP	11	0	1
NMSTR	11	96	2
BRSCL	11	96	2	96	96	7
NMTAP	11	96	3
BXTAP	12	0	6
BXTAP	12	0	7
BXTAP	12	96	0
BXTAP	12	96	1
BXTAP	12	192	6
BXTAP	12	192	7
BXTAP	12	288	0
BXTAP	12	288	5
NMHLD	13	0	1	96
NMTAP	13	96	3
NMTAP	13	192	4
NMTAP	13	240	4
NMTAP	13	288	2
NMHLD	14	0	6	96
NMTAP	14	96	4
NMTAP	14	192	3
NMTAP	14	240	3
NMTAP	14	288	5
NMHLD	15	0	1	96
NMTAP	15	96	0
NMHLD	15	192	6	96
NMTAP	15	288	7
NMTAP	16	0	0
NMTAP	16	0	5
NMTAP	16	96	1
NMTAP	16	96	4
NMTTP	16	192	2	B	0	M1
NMTTP	16	192	3	B	0	M1
NMTTP	16	192	3	E	0	M1
NMHLD	17	0	1	96
NMHLD	17	96	0	96
NMTAP	17	192	2
NMTAP	17	240	2
NMTAP	17	288	7
NMHLD	18	0	6	96
NMHLD	18	96	7	96
NMTAP	18	192	5
NMTAP	18	240	5
NMTAP	18	288	0
NMHLD	19	0	1	96
NMHLD	19	0	3	96
NMHLD	19	192	4	96
NMHLD	19	192	6	96
NMTAP	20	0	5
NMTAP	20	48	5
NMTAP	20	96	4
NMTAP	20	192	2
NMTAP	20	192	6
NMSTR	21	0	4
NMSCL	21	0	4	96	144	1
NMSTR	21	0	5
NMSUL	21	0	5	96	144	0
NMSTR	22	0	2
NMSUR	22	0	2	96	144	7
NMSTR	22	0	3
NMSCR	22	0	3	96	144	6
EXTAP	22	336	0
EXTAP	22	336	5
EXTAP	23	0	0
EXTAP	23	0	5
NMTAP	23	96	1
NMTAP	23	96	6
NMTAP	23	192	2
NMTAP	23	192	7
NMTAP	23	288	1
NMTAP	23	288	6
NMHLD	24	0	0	192
NMHLD	24	0	5	192
NMTAP	24	288	2
NMTAP	24	288	7
BXTAP	25	0	1
BXTAP	25	0	3
NMTAP	25	96	4
NMTAP	25	96	6
BXSTR	25	192	6
NMSI_	25	192	6	96	48	4
BXSTR	25	192	7
NMSI_	25	192	7	96	48	1
EXTAP	26	0	2
EXTAP	26	0	3
NMTAP	26	96	4
NMTAP	26	96	5
NMTAP	26	144	4
NMTAP	26	144	5
NMTAP	26	192	4
NMSTR	26	192	5
NMSCR	26	192	5	96	96	0
NMHLD	27	0	1	96
NMTAP	27	96	0
NMTAP	27	144	7
NMHLD	27	192	6	96
NMTAP	27	288	7
NMTAP	28	0	5
NMTAP	28	0	7
NMTAP	28	96	0
NMTAP	28	96	2
NMTAP	28	192	1
NMTAP	28	192	5
BRTAP	28	288	2
BRTAP	28	288	3
NMSTR	29	0	0
NMSI_	29	0	0	96	48	4
NMSTR	29	0	1
NMSI_	29	0	1	96	48	5
NMTAP	29	192	3
NMTAP	29	192	6
EXTAP	29	288	4
EXTAP	29	288	5
NMSTR	30	0	6
NMSI_	30	0	6	96	48	2
NMSTR	30	0	7
NMSI_	30	0	7	96	48	3
NMTAP	30	192	1
NMTAP	30	192	4
EXHLD	30	288	1	96
EXTAP	30	288	4
NMHLD	31	0	3	96
NMHLD	31	96	4	96
NMHLD	31	192	6	96
NMTAP	31	288	7
BRTAP	32	0	0
BRTAP	32	0	1
BRTAP	32	96	0
BRTAP	32	96	1
BRTAP	32	192	6
BRTAP	32	192	7
BRTAP	32	288	6
BRTAP	32	288	7
NMTAP	33	0	4
NMTAP	33	0	6
NMTAP	33	96	1
NMTAP	33	96	3
BRSTR	33	192	0
NMSI_	33	192	0	96	48	6
BRSTR	33	192	1
NMSI_	33	192	1	96	48	3
EXTAP	34	0	4
EXTAP	34	0	5
NMTAP	34	96	2
NMTAP	34	96	3
NMTAP	34	144	2
NMTAP	34	144	3
NMSTR	34	192	2
NMSCL	34	192	2	96	96	7
NMTAP	34	192	3
NMHLD	35	0	6	96
NMTAP	35	96	7
NMTAP	35	144	0
NMHLD	35	192	1	96
NMTAP	35	288	0
NMTAP	36	0	0
NMTAP	36	0	2
NMTAP	36	96	5
NMTAP	36	96	7
NMTAP	36	192	2
NMTAP	36	192	6
BRTAP	36	288	4
BRTAP	36	288	5
NMSTR	37	0	6
NMSI_	37	0	6	96	48	2
NMSTR	37	0	7
NMSI_	37	0	7	96	48	3
NMTAP	37	192	1
NMTAP	37	192	4
EXTAP	37	288	2
EXTAP	37	288	3
NMSTR	38	0	0
NMSI_	38	0	0	96	48	4
NMSTR	38	0	1
NMSI_	38	0	1	96	48	5
NMTAP	38	192	3
NMTAP	38	192	6
EXTAP	38	288	3
EXHLD	38	288	6	96
NMHLD	39	0	4	96
NMHLD	39	96	3	96
NMHLD	39	192	1	96
NMSTR	39	288	0
NMSI_	39	288	0	96	96	3
NMSI_	39	288	0	96	96	5
NMTTP	40	192	4	B	1	M1
NMHLD	41	0	2	72
NMHLD	41	72	3	72
NMTAP	41	144	1
NMTAP	41	192	1
EXTAP	41	240	0
EXTAP	41	240	7
EXTAP	41	288	0
EXTAP	41	288	7
NMHLD	42	0	6	72
NMHLD	42	72	4	72
EXTAP	42	144	5
EXTAP	42	192	5
NMTAP	42	288	3
NMTAP	42	288	6
NMHLD	43	0	1	96
NMTAP	43	0	4
NMTAP	43	96	3
NMTAP	43	192	3
NMHLD	43	192	6	96
NMTAP	43	288	4
NMTAP	44	0	1
NMTAP	44	48	1
NMTAP	44	96	0
NMTAP	44	192	6
NMTAP	44	240	6
NMTAP	44	288	7
NMTAP	45	0	2
NMTAP	45	48	2
NMTAP	45	96	3
NMTAP	45	192	1
NMTAP	45	192	4
NMTAP	45	288	3
NMTAP	45	288	6
NMSTR	46	0	4
NMSCL	46	0	4	96	96	1
NMSTR	46	0	5
NMSUL	46	0	5	96	96	0
BRTAP	46	288	0
BRTAP	46	288	7
NMTAP	47	0	6
NMTAP	47	48	6
NMTAP	47	96	7
NMTAP	47	144	7
NMTAP	47	192	5
NMTAP	47	240	5
BRTAP	47	288	4
BRTAP	47	288	6
NMTAP	48	0	2
NMTAP	48	48	2
NMTAP	48	96	3
NMTAP	48	144	3
NMTAP	48	192	1
NMTAP	48	240	1
BRTAP	48	288	0
BRTAP	48	288	2
NMTAP	49	0	1
NMTAP	49	48	1
NMTAP	49	96	3
NMTAP	49	144	2
NMTAP	49	192	5
NMTAP	49	240	5
NMTAP	49	288	4
NMTAP	49	288	6
NMHLD	50	0	6	96
NMHLD	50	0	7	96
EXTAP	50	192	6
EXTAP	50	192	7
EXTAP	50	240	0
EXTAP	50	240	5
BXSTR	50	288	1
NMSCR	50	288	1	96	384	7
BXTAP	50	288	4
CNSI_	52	0	7	0	240	3
NMTTP	53	0	3	E	0	M1
NMTTP	53	192	4	E	0	M1
NMTHO	54	0	5	192	E	0	M1
NMSTR	55	0	6
NMSCL	55	0	6	96	96	3
NMTTP	55	192	2	B	0	M1
NMTTP	55	192	3	B	0	M1
NMTTP	55	192	3	E	0	M1
NMSTR	56	0	1
NMSCR	56	0	1	96	96	4
NMTTP	56	192	4	B	0	M1
NMTTP	56	192	5	B	0	M1
NMTTP	56	192	5	E	0	M1
NMTTP	57	0	7	E	0	M1
NMTTP	57	96	0	E	0	M1
NMTTP	57	192	1	E	0	M1
NMTTP	57	288	4	E	0	M1
NMHLD	58	0	2	192
NMHLD	58	0	5	192
BRTAP	58	288	0
BRTAP	58	288	7
NMTAP	59	0	0
NMTAP	59	0	2
NMTAP	59	96	5
NMTAP	59	96	7
BRSTR	59	192	4
BRSI_	59	192	4	96	48	2
BRSTR	59	192	5
BRSI_	59	192	5	96	48	7
NMTAP	60	0	0
NMTAP	60	0	1
NMTAP	60	96	6
NMTAP	60	96	7
NMTAP	60	144	6
NMTAP	60	144	7
NMTAP	60	192	0
NMSTR	60	192	5
BRSCR	60	192	5	96	48	0
NMHLD	61	0	1	96
NMTAP	61	96	3
NMTAP	61	144	4
NMHLD	61	192	6	96
NMTAP	61	288	7
NMTAP	61	336	0
BRTAP	62	0	1
BRTAP	62	0	7
NMTAP	62	96	3
NMTAP	62	96	5
NMTAP	62	144	3
NMTAP	62	144	5
NMTAP	62	192	3
NMTAP	62	192	5
BRTAP	62	288	2
BRTAP	62	288	6
NMSTR	63	0	0
NMSI_	63	0	0	96	48	4
NMSTR	63	0	1
NMSI_	63	0	1	96	48	4
NMSTR	63	192	6
NMSI_	63	192	6	96	48	3
NMSTR	63	192	7
NMSI_	63	192	7	96	48	3
NMTAP	64	0	2
NMTAP	64	0	4
NMTAP	64	96	1
NMTAP	64	96	3
NMTAP	64	144	1
NMTAP	64	144	3
NMTAP	64	192	1
NMSTR	64	192	3
NMSCR	64	192	3	96	96	6
NMSTR	65	0	0
NMSCR	65	0	0	96	96	3
NMTAP	65	192	7
NMTAP	65	288	3
NMTAP	65	288	6
NMTHO	66	0	4	192	B	0	M1
NMTHO	66	0	5	192	B	0	M1
NMTHO	66	0	5	192	E	0	M1
BRTAP	66	288	0
BRTAP	66	288	7
NMTAP	67	0	0
NMTAP	67	0	1
NMSTR	67	96	2
NMSI_	67	96	2	96	48	6
NMSTR	67	96	3
NMSI_	67	96	3	96	48	7
BRTAP	67	288	0
BRTAP	67	288	5
NMTAP	68	0	1
NMTAP	68	0	3
NMTAP	68	96	4
NMTAP	68	96	6
NMTAP	68	144	4
NMTAP	68	144	6
NMTAP	68	192	4
NMSTR	68	192	6
NMSI_	68	192	6	96	48	0
NMHLD	69	0	2	96
NMTAP	69	96	0
NMTAP	69	144	7
NMHLD	69	192	6	96
NMTAP	69	288	7
NMTAP	69	336	0
NMTAP	70	0	1
NMTAP	70	0	3
NMTAP	70	96	4
NMTAP	70	96	6
NMTAP	70	192	0
NMTAP	70	192	7
NMTAP	70	240	0
NMTAP	70	240	7
BRTAP	70	288	0
BRTAP	70	288	7
NMTAP	71	0	1
NMTAP	71	0	6
NMSTR	71	96	4
NMSI_	71	96	4	96	48	1
NMSTR	71	96	5
NMSI_	71	96	5	96	48	0
BRTAP	71	288	2
BRTAP	71	288	7
NMTAP	72	0	1
NMTAP	72	0	6
NMSTR	72	96	2
NMSI_	72	96	2	96	48	7
NMSTR	72	96	3
NMSI_	72	96	3	96	48	6
BRTAP	72	288	0
BRTAP	72	288	5
NMSTR	73	0	1
NMSCR	73	0	1	96	96	4
NMSTR	73	0	4
NMSCR	73	0	4	96	96	7
NMTAP	73	288	4
NMSTR	73	288	7
NMSI_	73	288	7	96	48	3
NMTAP	74	192	2
NMTAP	74	192	4
NMTAP	74	240	2
NMTAP	74	240	4
BRTAP	74	288	1
BRTAP	74	288	5
NMHLD	75	0	0	72
NMHLD	75	72	1	72
NMTAP	75	144	2
EXTAP	75	192	2
EXTAP	75	192	3
EXTAP	75	240	2
EXTAP	75	240	3
EXTAP	75	288	1
EXTAP	75	288	4
NMHLD	76	0	7	72
NMHLD	76	72	6	72
NMTAP	76	144	5
BXTAP	76	192	4
BXTAP	76	192	5
BXSTR	76	288	4
NMSUR	76	288	4	96	192	3
BXSTR	76	288	5
NMSCR	76	288	5	96	192	2
NMTAP	77	288	1
NMTAP	77	288	4
NMTAP	78	0	2
NMTAP	78	0	5
NMTAP	78	48	3
NMTAP	78	72	4
NMTAP	78	120	4
NMTAP	78	144	3
NMSTR	78	192	2
NMSI_	78	192	2	96	48	7
NMTAP	78	192	5
NMSTR	78	288	6
NMSI_	78	288	6	96	48	3
BXHLD	79	0	0	192
NMTTP	79	192	2	B	0	M1
NMTTP	79	192	3	B	0	M1
NMTTP	79	192	3	E	1	M1

T_REC_TAP	207
T_REC_BRK	37
T_REC_XTP	33
T_REC_BXX	23
T_REC_HLD	44
T_REC_XHO	4
T_REC_BHO	0
T_REC_BXH	1
T_REC_STR	44
T_REC_BST	4
T_REC_XST	0
T_REC_XBS	5
T_REC_TTP	19
T_REC_THO	4
T_REC_SLD	45
T_REC_BSL	9
T_REC_ALL	479
T_NUM_TAP	303
T_NUM_BRK	79
T_NUM_HLD	52
T_NUM_SLD	45
T_NUM_ALL	479
T_JUDGE_TAP	372
T_JUDGE_HLD	124
T_JUDGE_SLD	54
T_JUDGE_ALL	550
TTM_EACHPAIRS	143
TTM_SCR_TAP	151500
TTM_SCR_BRK	205400
TTM_SCR_HLD	52000
TTM_SCR_SLD	67500
TTM_SCR_ALL	476400
TTM_SCR_S	454450
TTM_SCR_SS	468500
TTM_RAT_ACV	10168

