VERSION	0.00.00	1.04.00
FES_MODE	0
BPM_DEF	160.000	160.000	160.000	160.000
MET_DEF	4	4
RESOLUTION	384
CLK_DEF	384
COMPATIBLE_CODE	MA2

BPM	0	0	160.000
MET	0	0	4	4

NMTTP	1	0	1	E	0	M1
NMTTP	1	96	2	E	0	M1
NMTTP	1	192	3	E	0	M1
NMTTP	1	288	1	B	1	M1
NMSTR	2	0	0
NMSCR	2	0	0	96	96	4
NMTAP	2	192	0
NMTAP	2	288	0
NMSTR	3	0	0
NMSCR	3	0	0	96	96	4
NMTAP	3	192	0
NMSTR	3	288	0
NMSXL	3	288	0	96	288	3
NMSTR	5	0	0
NMSCR	5	0	0	96	96	4
NMTAP	5	192	0
NMTAP	5	288	0
NMSTR	6	0	0
NMSCR	6	0	0	96	96	4
NMTAP	6	192	0
NMTAP	6	288	0
NMSTR	7	0	0
NMSCR	7	0	0	96	96	4
NMTAP	7	192	0
NMSTR	7	288	0
NMSXL	7	288	0	96	288	4
NMTAP	9	0	7
NMTAP	9	96	0
NMTAP	9	192	0
NMTAP	9	240	0
NMTAP	9	240	7
NMTAP	9	288	7
NMTAP	9	336	7
BRTAP	10	0	0
BRTAP	10	0	5
NMTAP	10	96	5
NMTAP	10	192	5
NMTAP	10	288	5
NMTAP	11	0	5
NMSTR	11	48	6
NMSI_	11	48	6	96	48	2
NMSTR	11	144	7
NMSI_	11	144	7	96	48	3
NMSTR	11	240	0
NMSI_	11	240	0	96	48	4
NMTAP	11	336	1
NMSTR	12	0	1
NMSI_	12	0	1	96	48	5
NMTAP	12	240	0
NMTAP	12	288	0
NMTAP	12	336	0
NMSTR	13	0	2
NMSI_	13	0	2	96	48	5
NMTAP	13	0	7
NMTAP	13	192	3
NMTAP	13	192	6
NMSTR	13	288	0
NMSI_	13	288	0	96	48	5
NMTAP	13	288	7
NMTAP	13	336	0
NMSTR	13	336	7
NMSI_	13	336	7	96	48	2
BRTAP	14	0	0
BRTAP	14	0	7
NMTAP	14	192	2
NMTAP	14	192	3
NMTAP	14	240	7
NMTAP	14	288	4
NMTAP	14	288	5
NMTAP	14	336	0
NMTAP	15	0	2
NMTAP	15	0	3
NMTAP	15	48	7
NMTAP	15	96	4
NMTAP	15	96	5
NMTAP	15	144	0
NMTAP	15	192	5
NMTAP	15	240	1
NMSTR	15	288	5
NMSI_	15	288	5	96	96	0
NMSTR	15	336	1
NMSI_	15	336	1	96	96	4
NMTAP	15	360	5
NMTAP	16	192	5
NMTAP	16	288	5
NMTAP	17	0	3
NMTAP	17	0	4
NMSTR	17	48	0
NMSI_	17	48	0	96	96	5
NMTAP	17	48	7
NMTAP	17	96	3
NMSTR	17	96	4
NMSI_	17	96	4	96	96	1
BRTAP	17	288	2
NMTAP	18	0	5
NMHLD	18	48	1	96
NMTAP	18	96	2
NMTAP	18	144	6
NMTAP	18	192	2
NMHLD	18	240	6	96
NMTAP	18	288	5
NMTAP	18	336	3
NMHLD	19	0	5	96
NMSTR	19	48	6
NMSI_	19	48	6	96	48	2
NMSTR	19	144	7
NMSI_	19	144	7	96	48	3
NMTAP	20	0	2
NMHLD	20	48	6	96
NMTAP	20	96	5
NMTAP	20	144	1
NMTAP	20	192	5
NMHLD	20	240	1	96
NMTAP	20	288	2
NMTAP	20	336	4
NMHLD	21	0	2	96
NMSTR	21	48	1
NMSI_	21	48	1	96	48	5
NMSTR	21	144	0
NMSI_	21	144	0	96	48	4
NMTAP	22	0	7
NMHLD	22	48	0	96
NMTAP	22	96	3
NMTAP	22	144	7
NMTAP	22	192	0
NMHLD	22	240	7	96
NMTAP	22	288	4
NMTAP	22	336	0
NMSTR	23	0	1
NMSCL	23	0	1	96	48	6
NMSTR	23	96	5
NMSCL	23	96	5	96	96	2
NMTAP	24	0	4
NMTAP	24	48	4
NMTAP	24	72	3
NMTAP	24	96	2
NMHLD	24	192	1	48
NMHLD	24	192	3	48
NMHLD	24	288	1	48
NMHLD	24	288	3	48
NMTAP	25	0	4
NMTAP	25	48	4
NMTAP	25	72	3
NMTAP	25	96	2
NMHLD	25	192	1	48
NMHLD	25	192	3	48
NMHLD	25	288	1	48
NMHLD	25	288	3	48
NMTAP	26	0	4
NMTAP	26	48	4
NMTAP	26	72	3
NMTAP	26	96	2
NMHLD	26	192	1	48
NMHLD	26	192	3	48
NMHLD	26	288	1	48
NMHLD	26	288	3	48
NMTAP	27	0	4
NMTAP	27	48	4
NMTAP	27	72	3
NMTAP	27	96	2
NMHLD	27	192	2	48
NMHLD	27	192	3	48
NMHLD	27	288	2	48
NMHLD	27	288	3	48
NMTAP	28	0	4
NMTAP	28	48	4
NMTAP	28	72	3
NMTAP	28	96	2
NMHLD	28	192	1	48
NMHLD	28	192	3	48
NMHLD	28	288	1	48
NMHLD	28	288	3	48
NMTAP	29	0	4
NMTAP	29	48	4
NMTAP	29	72	3
NMTAP	29	96	2
NMHLD	29	192	1	48
NMHLD	29	192	3	48
NMHLD	29	288	1	48
NMHLD	29	288	3	48
NMTAP	30	0	4
NMTAP	30	48	4
NMTAP	30	72	3
NMTAP	30	96	2
NMHLD	30	192	1	48
NMHLD	30	192	3	48
NMHLD	30	288	1	48
NMHLD	30	288	3	48
NMSTR	31	0	2
NMSCR	31	0	2	96	48	5
NMSTR	31	192	3
NMSCL	31	192	3	96	48	0
NMSTR	31	192	4
NMSCR	31	192	4	96	48	7
EXTAP	31	288	3
EXTAP	31	288	4
EXTAP	32	0	1
NMTAP	32	24	6
NMTAP	32	48	1
NMTAP	32	72	6
NMTAP	32	96	1
NMTAP	32	120	6
NMTAP	32	144	1
NMTAP	32	168	6
NMTAP	32	192	1
NMTAP	32	216	6
NMTAP	32	240	1
NMTAP	32	264	6
NMTAP	32	288	1
NMTAP	32	312	6
NMTAP	32	336	1
NMTAP	32	360	6
EXTAP	33	0	2
NMTAP	33	24	3
NMTAP	33	48	2
NMTAP	33	72	3
NMTAP	33	96	2
NMTAP	33	120	3
NMTAP	33	144	2
NMTAP	33	168	3
EXTAP	33	192	0
NMTAP	33	216	7
NMTAP	33	240	0
NMTAP	33	264	7
NMTAP	33	288	0
NMTAP	33	312	7
NMTAP	33	336	0
NMTAP	33	360	7
EXTAP	34	0	4
NMTAP	34	24	5
NMTAP	34	48	4
NMTAP	34	72	5
NMTAP	34	96	4
NMTAP	34	120	5
NMTAP	34	144	4
NMTAP	34	168	5
NMTAP	34	192	4
NMTAP	34	216	5
NMTAP	34	240	4
NMTAP	34	264	5
NMTAP	34	288	4
NMTAP	34	312	5
NMTAP	34	336	4
NMTAP	34	360	5
EXTAP	35	0	3
NMTAP	35	24	6
NMTAP	35	48	3
NMTAP	35	72	6
EXTAP	35	96	1
NMTAP	35	120	4
NMTAP	35	144	1
NMTAP	35	168	4
EXTAP	35	192	3
NMTAP	35	216	6
NMTAP	35	240	3
NMTAP	35	264	6
EXTAP	35	288	1
NMTAP	35	312	4
NMTAP	35	336	1
NMTAP	35	360	4
EXTAP	36	0	2
NMTAP	36	24	3
NMTAP	36	48	2
NMTAP	36	72	3
NMTAP	36	96	2
NMTAP	36	120	3
NMTAP	36	144	2
NMTAP	36	168	3
EXTAP	36	192	1
NMTAP	36	216	6
NMTAP	36	240	1
NMTAP	36	264	6
NMTAP	36	288	1
NMTAP	36	312	6
NMTAP	36	336	1
NMTAP	36	360	6
EXTAP	37	0	4
NMTAP	37	24	5
NMTAP	37	48	4
NMTAP	37	72	5
NMTAP	37	96	4
NMTAP	37	120	5
NMTAP	37	144	4
NMTAP	37	168	5
EXTAP	37	192	0
NMTAP	37	216	7
NMTAP	37	240	0
NMTAP	37	264	7
NMTAP	37	288	1
NMTAP	37	312	6
NMTAP	37	336	2
NMTAP	37	360	5
EXTAP	38	0	3
NMTAP	38	24	4
NMTAP	38	48	3
NMTAP	38	72	4
NMTAP	38	96	3
NMTAP	38	120	4
NMTAP	38	144	3
NMTAP	38	168	4
NMTAP	38	192	3
NMTAP	38	216	4
NMTAP	38	240	3
NMTAP	38	264	4
NMTAP	38	288	3
NMTAP	38	312	4
NMTAP	38	336	3
NMTAP	38	360	4
NMTAP	39	0	2
NMTAP	39	24	6
NMTAP	39	48	2
NMTAP	39	72	6
NMTAP	39	96	1
NMTAP	39	120	5
NMTAP	39	144	1
NMTAP	39	168	5
NMTAP	39	192	0
NMTAP	39	216	7
NMTAP	39	240	2
NMTAP	39	264	3
NMTAP	39	288	0
NMTAP	39	312	7
NMTAP	39	336	4
NMTAP	39	360	5
EXTAP	40	0	2
NMTAP	40	24	6
NMTAP	40	48	2
NMTAP	40	72	6
NMTAP	40	96	2
NMTAP	40	120	6
NMTAP	40	144	2
NMTAP	40	168	6
NMTAP	40	192	2
NMTAP	40	216	6
NMTAP	40	240	2
NMTAP	40	264	6
NMTAP	40	288	2
NMTAP	40	312	6
NMTAP	40	336	2
NMTAP	40	360	6
EXTAP	41	0	1
NMTAP	41	24	3
NMTAP	41	48	1
NMTAP	41	72	3
NMTAP	41	96	1
NMTAP	41	120	3
NMTAP	41	144	1
NMTAP	41	168	3
EXTAP	41	192	0
NMTAP	41	216	7
NMTAP	41	240	0
NMTAP	41	264	7
NMTAP	41	288	0
NMTAP	41	312	7
NMTAP	41	336	0
NMTAP	41	360	7
EXTAP	42	0	1
NMTAP	42	24	5
NMTAP	42	48	1
NMTAP	42	72	5
NMTAP	42	96	1
NMTAP	42	120	5
NMTAP	42	144	1
NMTAP	42	168	5
NMTAP	42	192	1
NMTAP	42	216	5
NMTAP	42	240	1
NMTAP	42	264	5
NMTAP	42	288	1
NMTAP	42	312	5
NMTAP	42	336	1
NMTAP	42	360	5
EXTAP	43	0	4
NMTAP	43	24	6
NMTAP	43	48	4
NMTAP	43	72	6
EXTAP	43	96	0
NMTAP	43	120	7
NMTAP	43	144	0
NMTAP	43	168	7
EXTAP	43	192	1
NMTAP	43	216	3
NMTAP	43	240	1
NMTAP	43	264	3
EXTAP	43	288	0
NMTAP	43	312	7
NMTAP	43	336	0
NMTAP	43	360	7
EXTAP	44	0	2
NMTAP	44	24	3
NMTAP	44	48	1
EXTAP	44	72	5
NMTAP	44	96	4
NMTAP	44	120	6
EXTAP	44	144	0
NMTAP	44	168	7
EXTAP	44	192	2
NMTAP	44	216	6
NMTAP	44	240	2
NMTAP	44	264	6
NMTAP	44	288	1
NMTAP	44	312	5
NMTAP	44	336	1
NMTAP	44	360	5
NMTAP	45	0	0
NMTAP	45	24	7
NMTAP	45	48	2
NMTAP	45	72	3
NMTAP	45	96	0
NMTAP	45	120	7
NMTAP	45	144	4
NMTAP	45	168	5
EXHLD	45	192	2	96
EXHLD	45	192	6	96
NMSTR	46	0	2
NMSV_	46	0	2	96	1248	0
NMSTR	46	0	6
NMSV_	46	0	6	96	1248	4
NMTAP	50	48	2
NMTAP	50	96	2
NMTAP	50	144	3
NMHLD	50	192	1	96
NMTAP	50	288	3
NMTAP	50	336	4
NMHLD	51	0	2	48
NMHLD	51	0	4	48
NMHLD	51	96	1	48
NMHLD	51	96	3	48
NMHLD	51	192	0	48
NMHLD	51	192	2	48
NMSTR	51	288	7
NMSCR	51	288	7	96	288	4
NMHLD	51	336	7	432
NMTAP	53	192	0
NMTAP	53	192	1
NMTAP	53	288	1
NMTAP	53	288	3
NMTAP	53	336	1
NMTAP	53	336	3
NMTAP	54	48	2
NMTAP	54	96	2
NMTAP	54	144	3
NMHLD	54	192	1	96
NMTAP	54	288	3
NMTAP	54	336	4
NMHLD	55	0	2	48
NMHLD	55	0	4	48
NMHLD	55	96	1	48
NMHLD	55	96	3	48
NMHLD	55	192	0	48
NMHLD	55	192	2	48
NMSTR	55	288	7
NMSI_	55	288	7	96	96	4
NMHLD	55	336	7	432
CNSI_	56	96	4	0	96	0
CNSI_	56	192	0	0	96	3
CNSI_	56	288	3	0	96	1
NMTTP	57	0	1	A	1	M1
BRSTR	57	240	0
NMSI_	57	240	0	96	48	3
NMTAP	57	288	3
NMTAP	57	336	0
BRSTR	58	0	7
NMSI_	58	0	7	96	48	4
NMTAP	58	48	4
NMTAP	58	96	7
BRSTR	58	144	0
NMSI_	58	144	0	96	48	3
NMTAP	58	192	3
NMTAP	58	240	0
BRSTR	58	288	7
NMSI_	58	288	7	96	48	4
NMTAP	58	336	4
NMTAP	59	0	7
NMSTR	59	48	0
NMSI_	59	48	0	96	48	4
NMTAP	59	144	0
NMTAP	59	144	7
NMTAP	59	240	1
NMTAP	59	240	6
NMTAP	59	288	1
NMTAP	59	288	6
NMTAP	60	0	5
NMTAP	60	48	4
NMTAP	60	48	6
NMTAP	60	144	2
NMSTR	60	192	1
NMSI_	60	192	1	96	48	4
NMTAP	60	192	3
NMTAP	60	288	7
NMTAP	61	0	6
NMTAP	61	48	5
NMTAP	61	48	7
NMTAP	61	144	1
NMTAP	61	192	0
NMTAP	61	192	2
NMTAP	61	240	7
NMSTR	61	288	0
NMSV_	61	288	0	96	48	2
NMSTR	61	288	6
NMSV_	61	288	6	96	48	4
NMTAP	62	0	0
NMTAP	62	0	6
NMSTR	62	192	3
NMSI_	62	192	3	96	48	7
NMTAP	62	288	3
BRTAP	63	96	7
BRTAP	63	192	7
BRTAP	64	0	1
NMSTR	64	48	0
NMSI_	64	48	0	96	48	5
NMTAP	64	96	1
EXTAP	64	144	0
NMTAP	64	192	1
NMSTR	64	240	3
NMSI_	64	240	3	96	48	6
NMTAP	64	288	1
EXTAP	64	336	3
NMTAP	65	0	1
NMSTR	65	48	7
NMSI_	65	48	7	96	48	3
NMTAP	65	96	1
EXTAP	65	144	7
NMTAP	65	192	1
NMSTR	65	240	4
NMSI_	65	240	4	96	48	0
NMTAP	65	288	1
EXTAP	65	336	4
NMTAP	66	0	1
NMSTR	66	96	2
NMSI_	66	96	2	96	48	6
NMSTR	66	96	3
NMSI_	66	96	3	96	48	7
NMTAP	66	192	2
NMTAP	66	192	3
NMTAP	66	288	0
NMTAP	66	288	5
NMSTR	66	336	1
NMSXL	66	336	1	96	96	0
NMTAP	66	336	4
NMTAP	67	48	0
NMSTR	67	96	7
NMSI_	67	96	7	96	48	4
NMTAP	67	144	6
NMTAP	67	192	5
NMSTR	67	288	3
NMSI_	67	288	3	96	48	6
NMSI_	67	288	3	96	48	7
NMTAP	68	0	3
NMSTR	68	96	4
NMSI_	68	96	4	96	48	0
NMSTR	68	96	5
NMSI_	68	96	5	96	48	1
NMTAP	68	192	4
NMTAP	68	192	5
NMTAP	68	288	2
NMTAP	68	288	7
NMTAP	68	336	3
NMSTR	68	336	6
NMSXR	68	336	6	96	96	7
NMTAP	69	48	7
NMSTR	69	96	0
NMSI_	69	96	0	96	48	4
NMTAP	69	144	1
NMTAP	69	192	2
NMSTR	69	288	7
NMSI_	69	288	7	96	48	4
NMSUL	69	288	7	96	48	2
NMTAP	70	0	7
NMSTR	70	96	0
NMSCR	70	96	0	96	48	3
NMSTR	70	96	3
NMSCR	70	96	3	96	48	6
NMTAP	70	192	0
NMTAP	70	192	3
NMTAP	70	288	4
NMTAP	70	288	7
NMSTR	70	336	3
NMSCL	70	336	3	96	48	0
NMTAP	70	336	6
NMTAP	71	48	7
NMTAP	71	64	6
NMTAP	71	80	5
NMSTR	71	96	4
NMSI_	71	96	4	96	24	0
NMSTR	71	192	4
NMSI_	71	192	4	96	48	2
NMSI_	71	192	4	96	48	6
BRTAP	71	288	4
NMTAP	72	0	4
NMHLD	72	0	6	72
NMTAP	72	24	3
NMTAP	72	48	2
NMTAP	72	72	1
NMTAP	72	96	0
NMTAP	72	96	6
NMHLD	72	144	0	72
NMTAP	72	144	6
NMTAP	72	168	5
NMTAP	72	192	4
NMTAP	72	216	3
NMTAP	72	240	0
NMTAP	72	240	2
NMHLD	72	288	0	72
NMTAP	72	288	2
NMTAP	72	312	3
NMTAP	72	336	4
NMTAP	72	360	5
NMTAP	73	0	0
NMTAP	73	0	6
NMTAP	73	48	0
NMHLD	73	48	6	72
NMTAP	73	72	1
NMTAP	73	96	2
NMTAP	73	120	3
NMTAP	73	144	4
NMTAP	73	144	6
NMSTR	73	192	4
NMSI_	73	192	4	96	48	0
NMSTR	73	192	6
NMSI_	73	192	6	96	48	2
NMTAP	73	288	4
NMTAP	73	288	6
NMHLD	74	0	1	72
NMTAP	74	0	3
NMTAP	74	24	4
NMTAP	74	48	5
NMTAP	74	72	6
NMTAP	74	96	1
NMTAP	74	96	7
NMTAP	74	144	1
NMHLD	74	144	7	72
NMTAP	74	168	2
NMTAP	74	192	3
NMTAP	74	216	4
NMTAP	74	240	5
NMTAP	74	240	7
NMTAP	74	288	5
NMHLD	74	288	7	72
NMTAP	74	312	4
NMTAP	74	336	3
NMTAP	74	360	2
NMTAP	75	0	1
NMTAP	75	0	7
NMHLD	75	48	1	72
NMTAP	75	48	7
NMTAP	75	72	6
NMTAP	75	96	5
NMTAP	75	120	4
NMTAP	75	144	1
NMTAP	75	144	3
NMSTR	75	192	1
NMSI_	75	192	1	96	48	5
NMSTR	75	192	3
NMSI_	75	192	3	96	48	7
BRTAP	75	288	1
BRTAP	75	288	3
NMSTR	76	0	4
NMSI_	76	0	4	96	48	0
NMSTR	76	0	6
NMSCL	76	0	6	96	48	3
NMTAP	76	96	4
NMTAP	76	96	6
NMSTR	76	192	1
NMSCR	76	192	1	96	48	4
NMSTR	76	192	3
NMSI_	76	192	3	96	48	7
NMTAP	76	288	1
NMTAP	76	288	3
NMSTR	77	0	0
NMSCL	77	0	0	96	48	6
NMSTR	77	48	6
NMSCL	77	48	6	96	48	4
NMSTR	77	96	4
NMSCL	77	96	4	96	48	2
NMSTR	77	144	2
NMSCL	77	144	2	96	48	0
NMTAP	77	192	7
NMTAP	77	216	6
NMTAP	77	240	5
NMTAP	77	264	4
NMTAP	77	288	3
NMTAP	77	336	2
NMTAP	77	336	5
NMTAP	78	0	0
NMTAP	78	0	7
NMTAP	78	48	6
NMTAP	78	72	5
NMTAP	78	96	3
NMTAP	78	96	4
NMTAP	78	144	1
NMTAP	78	144	2
NMTAP	78	192	0
NMTAP	78	192	7
NMTAP	78	240	1
NMTAP	78	264	2
NMSTR	78	288	3
NMSCL	78	288	3	96	48	0
NMSTR	78	288	4
NMSI_	78	288	4	96	48	1
NMTAP	78	336	5
NMTAP	78	336	6
NMSTR	79	0	3
NMSI_	79	0	3	96	48	6
NMSTR	79	0	4
NMSCR	79	0	4	96	48	7
NMSTR	79	96	3
NMSCL	79	96	3	96	144	4
NMSTR	79	96	4
NMSUL	79	96	4	96	144	3

T_REC_TAP	441
T_REC_BRK	11
T_REC_XTP	31
T_REC_BXX	0
T_REC_HLD	60
T_REC_XHO	2
T_REC_BHO	0
T_REC_BXH	0
T_REC_STR	73
T_REC_BST	4
T_REC_XST	0
T_REC_XBS	0
T_REC_TTP	5
T_REC_THO	0
T_REC_SLD	80
T_REC_BSL	0
T_REC_ALL	707
T_NUM_TAP	550
T_NUM_BRK	15
T_NUM_HLD	62
T_NUM_SLD	80
T_NUM_ALL	707
T_JUDGE_TAP	565
T_JUDGE_HLD	98
T_JUDGE_SLD	80
T_JUDGE_ALL	743
TTM_EACHPAIRS	95
TTM_SCR_TAP	275000
TTM_SCR_BRK	39000
TTM_SCR_HLD	62000
TTM_SCR_SLD	120000
TTM_SCR_ALL	496000
TTM_SCR_S	479700
TTM_SCR_SS	494500
TTM_RAT_ACV	10030

