VERSION	0.00.00	1.04.00
FES_MODE	1
BPM_DEF	160.000	160.000	160.000	160.000
MET_DEF	4	4
RESOLUTION	384
CLK_DEF	384
COMPATIBLE_CODE	MA2

BPM	0	0	160.000
MET	0	0	4	4

NMTTP	1	0	1	E	0	M1
NMTTP	1	96	2	E	0	M1
NMTTP	1	192	3	E	0	M1
NMTTP	1	288	1	B	1	M1
NMSTR	2	0	0
NMSCR	2	0	0	96	96	4
NMTAP	2	192	0
NMTAP	2	288	0
NMSTR	3	0	0
NMSCR	3	0	0	96	96	4
NMTAP	3	192	0
NMSTR	3	288	0
NMSXL	3	288	0	96	288	3
NMSTR	5	0	0
NMSCR	5	0	0	96	96	4
NMTAP	5	192	0
NMTAP	5	288	0
NMSTR	6	0	0
NMSCR	6	0	0	96	96	4
NMTAP	6	192	0
NMTAP	6	288	0
NMSTR	7	0	0
NMSCR	7	0	0	96	96	4
NMTAP	7	192	0
NMSTR	7	288	0
NMSXL	7	288	0	96	288	4
NMTAP	9	0	7
NMTAP	9	96	0
NMTAP	9	192	0
NMTAP	9	288	3
NMTAP	9	288	4
NMSTR	10	0	2
NMSCR	10	0	2	96	48	4
NMHLD	10	0	3	672
NMSTR	10	192	2
NMSCR	10	192	2	96	48	4
NMSTR	11	0	2
NMSCR	11	0	2	96	48	4
NMTAP	11	192	1
NMSTR	11	288	0
NMSCR	11	288	0	96	96	3
NMSTR	12	0	3
NMSUR	12	0	3	96	96	0
NMSTR	12	96	0
NMSCR	12	96	0	96	96	3
NMSTR	12	192	3
NMSUR	12	192	3	96	96	0
NMSTR	12	288	0
NMSCR	12	288	0	96	96	3
NMSTR	13	0	3
NMSUR	13	0	3	96	96	0
NMSTR	13	96	0
NMSCR	13	96	0	96	96	3
BRTAP	13	192	3
NMSTR	13	288	0
NMSI_	13	288	0	96	48	5
NMSI_	13	288	0	96	48	6
NMSTR	14	0	0
NMSCR	14	0	0	96	48	3
NMTAP	14	96	0
NMSTR	14	96	4
NMSI_	14	96	4	96	48	7
EXTAP	14	192	2
NMTAP	14	192	4
NMTAP	14	288	2
NMSTR	14	336	1
NMSLR	14	336	1	96	96	5
NMSTR	15	48	5
NMSCL	15	48	5	96	96	0
NMTAP	15	144	6
NMTAP	15	240	7
NMSTR	15	336	0
NMSI_	15	336	0	96	48	4
NMTAP	16	0	0
NMSTR	16	48	5
NMSI_	16	48	5	96	48	1
NMTAP	16	96	5
NMSTR	16	144	2
NMSI_	16	144	2	96	48	6
NMTAP	16	192	2
NMTAP	16	336	3
BRSTR	17	0	4
NMSUR	17	0	4	96	96	5
BRSTR	17	0	5
NMSCR	17	0	5	96	96	4
BRTAP	17	96	4
BRTAP	17	96	5
NMTTP	17	108	6	E	0	M1
NMTTP	17	120	7	E	0	M1
NMTTP	17	132	0	E	0	M1
NMTTP	17	144	1	E	0	M1
NMTTP	17	156	2	E	0	M1
NMTTP	17	168	3	E	0	M1
NMTTP	17	180	4	E	0	M1
NMTTP	17	192	5	E	0	M1
NMSTR	17	288	1
NMSCR	17	288	1	96	48	4
NMSTR	17	288	5
NMSCR	17	288	5	96	48	0
NMSTR	18	0	1
NMSUL	18	0	1	96	48	5
NMSTR	18	0	5
NMSUL	18	0	5	96	48	1
NMSTR	18	96	1
NMSCR	18	96	1	96	48	4
NMSTR	18	96	5
NMSCR	18	96	5	96	48	0
NMSTR	18	192	1
NMSUL	18	192	1	96	48	5
NMSTR	18	192	5
NMSUL	18	192	5	96	48	1
NMSTR	18	288	1
NMSCR	18	288	1	96	48	4
NMSTR	19	0	0
NMSCL	19	0	0	96	48	5
NMSTR	19	96	1
NMSCR	19	96	1	96	48	4
NMSTR	19	288	1
NMSCR	19	288	1	96	48	4
NMSTR	19	288	5
NMSCR	19	288	5	96	48	0
BRTAP	20	0	1
BRTAP	20	0	5
NMSTR	20	96	0
NMSCL	20	96	0	96	48	5
NMSTR	20	96	4
NMSCL	20	96	4	96	48	1
BRTAP	20	192	0
BRTAP	20	192	4
NMSTR	20	288	2
NMSCL	20	288	2	96	48	7
NMSTR	20	288	6
NMSCL	20	288	6	96	48	3
BRTAP	21	0	2
BRTAP	21	0	6
NMSTR	21	96	3
NMSCR	21	96	3	96	48	6
NMSTR	21	96	7
NMSCR	21	96	7	96	48	2
BRTAP	21	192	3
BRTAP	21	192	7
NMSTR	21	288	3
NMSCL	21	288	3	96	48	0
NMSTR	21	288	7
NMSCL	21	288	7	96	48	4
NMSTR	22	0	3
NMSUR	22	0	3	96	48	7
NMSTR	22	0	7
NMSUR	22	0	7	96	48	3
NMSTR	22	96	3
NMSCL	22	96	3	96	48	0
NMSTR	22	96	7
NMSCL	22	96	7	96	48	4
NMSTR	22	192	3
NMSUR	22	192	3	96	48	7
NMSTR	22	192	7
NMSUR	22	192	7	96	48	3
NMSTR	22	288	3
NMSCL	22	288	3	96	288	7
NMSTR	22	288	7
NMSCL	22	288	7	96	288	3
NMTAP	24	0	4
NMTAP	24	48	4
NMTAP	24	72	3
NMTAP	24	96	2
NMHLD	24	192	1	48
NMHLD	24	192	3	48
NMHLD	24	288	1	48
NMHLD	24	288	3	48
NMTAP	25	0	4
NMTAP	25	48	4
NMTAP	25	72	3
NMTAP	25	96	2
NMHLD	25	192	1	48
NMHLD	25	192	3	48
NMHLD	25	288	1	48
NMHLD	25	288	3	48
NMTAP	26	0	4
NMTAP	26	48	4
NMTAP	26	72	3
NMTAP	26	96	2
NMHLD	26	192	1	48
NMHLD	26	192	3	48
NMHLD	26	288	1	48
NMHLD	26	288	3	48
NMTAP	27	0	4
NMTAP	27	48	4
NMTAP	27	72	3
NMTAP	27	96	2
NMHLD	27	192	2	48
NMHLD	27	192	3	48
NMHLD	27	288	2	48
NMHLD	27	288	3	48
NMTAP	28	0	4
NMTAP	28	48	4
NMTAP	28	72	3
NMTAP	28	96	2
NMHLD	28	192	1	48
NMHLD	28	192	3	48
NMHLD	28	288	1	48
NMHLD	28	288	3	48
NMTAP	29	0	4
NMTAP	29	48	4
NMTAP	29	72	3
NMTAP	29	96	2
NMHLD	29	192	1	48
NMHLD	29	192	3	48
NMHLD	29	288	1	48
NMHLD	29	288	3	48
NMTAP	30	0	4
NMTAP	30	48	4
NMTAP	30	72	3
NMTAP	30	96	2
NMHLD	30	192	1	48
NMHLD	30	192	3	48
NMHLD	30	288	1	48
NMHLD	30	288	3	48
NMSTR	31	0	2
NMSCR	31	0	2	96	48	5
NMTAP	31	192	6
NMTAP	31	192	7
NMTAP	31	288	0
NMTAP	31	288	1
NMSTR	32	0	0
NMSV_	32	0	0	96	48	2
NMSTR	32	96	1
NMSV_	32	96	1	96	48	3
NMSTR	32	192	2
NMSV_	32	192	2	96	48	4
NMSTR	32	288	3
NMSV_	32	288	3	96	48	5
NMSTR	33	0	4
NMSV_	33	0	4	96	48	6
NMSTR	33	96	5
NMSV_	33	96	5	96	48	7
NMSTR	33	192	6
NMSV_	33	192	6	96	48	0
NMHLD	34	0	5	720
NMTTP	34	96	6	E	0	M1
NMTTP	34	108	0	C	0	M1
NMTTP	34	120	1	B	0	M1
NMTTP	34	120	2	B	0	M1
NMTTP	34	120	2	E	0	M1
NMTTP	34	240	0	E	0	M1
NMTTP	34	252	0	C	0	M1
NMTTP	34	264	3	B	0	M1
NMTTP	34	264	4	B	0	M1
NMTTP	34	264	4	E	0	M1
NMTTP	35	0	6	E	0	M1
NMTTP	35	12	0	C	0	M1
NMTTP	35	24	1	B	0	M1
NMTTP	35	24	2	B	0	M1
NMTTP	35	24	2	E	0	M1
NMTTP	35	144	0	E	0	M1
NMTTP	35	156	0	C	0	M1
NMTTP	35	168	3	B	0	M1
NMTTP	35	168	4	B	0	M1
NMTTP	35	168	4	E	0	M1
NMTTP	35	288	6	E	0	M1
NMTTP	35	300	0	C	0	M1
NMTTP	35	312	1	B	0	M1
NMTTP	35	312	2	B	0	M1
NMTTP	35	312	2	E	0	M1
NMSTR	36	0	2
NMSI_	36	0	2	96	192	5
NMSTR	36	192	1
NMSI_	36	192	1	96	288	6
NMTAP	37	0	3
NMTAP	37	168	4
NMTAP	37	192	4
NMTAP	37	288	3
NMTAP	37	288	5
NMSTR	38	0	5
NMSI_	38	0	5	96	48	0
NMTAP	38	48	5
NMHLD	38	96	5	96
CNSI_	38	144	0	0	48	4
CNSI_	38	192	4	0	48	1
NMSTR	38	288	2
NMSI_	38	288	2	96	48	7
NMTAP	38	336	2
NMHLD	39	0	2	96
CNSI_	39	48	7	0	48	3
CNSI_	39	96	3	0	48	6
NMTAP	39	144	1
NMTAP	39	192	1
EXTAP	39	240	0
NMSTR	39	288	0
NMSLR	39	288	0	96	96	4
NMSTR	40	0	4
NMSLL	40	0	4	96	96	7
NMSTR	40	96	7
NMSLL	40	96	7	96	96	3
NMSTR	40	192	3
NMSLR	40	192	3	96	96	0
NMTAP	40	288	0
NMTAP	41	0	3
NMTAP	41	48	3
NMSTR	41	144	0
NMSF_	41	144	0	96	48	4
NMTAP	41	144	1
BRTAP	41	240	0
NMTAP	42	0	1
NMHLD	42	0	5	48
NMTAP	42	48	3
NMTAP	42	96	1
NMTAP	42	96	7
NMTAP	42	144	3
NMTAP	42	168	4
NMTAP	42	192	1
NMTAP	42	216	5
NMTAP	42	240	3
NMTAP	42	288	0
NMSTR	42	288	6
NMSI_	42	288	6	96	48	3
NMTAP	42	336	2
NMTAP	42	336	4
NMTAP	43	0	0
BRTAP	43	0	6
NMTAP	43	48	2
NMTAP	43	96	1
NMTAP	43	96	4
NMTAP	43	144	2
NMTAP	43	168	3
NMTAP	43	192	1
NMTAP	43	216	4
NMTAP	43	240	2
NMTAP	43	288	0
NMTAP	43	288	6
NMTAP	43	336	1
NMTAP	43	336	5
NMTAP	44	0	2
NMTAP	44	24	4
NMTAP	44	72	1
NMTAP	44	96	0
NMHLD	44	120	2	48
NMTAP	44	168	7
NMTAP	44	192	1
NMTAP	44	192	5
NMTAP	44	240	2
NMTAP	44	288	3
NMTAP	44	288	6
NMTAP	44	336	5
NMTAP	45	0	3
NMTAP	45	0	4
NMTAP	45	48	2
NMHLD	45	96	1	144
NMHLD	45	96	7	144
NMTTP	45	248	2	D	0	M1
NMTTP	45	248	7	D	0	M1
NMTTP	45	256	2	A	0	M1
NMTTP	45	256	6	A	0	M1
NMTTP	45	264	3	D	0	M1
NMTTP	45	264	6	D	0	M1
NMTTP	45	272	3	A	0	M1
NMTTP	45	272	5	A	0	M1
NMTTP	45	280	4	D	0	M1
NMTTP	45	280	5	D	0	M1
NMTTP	45	288	4	A	1	M1
BRHLD	46	0	4	768
NMTTP	46	288	1	E	0	M1
NMSTR	47	0	1
NMSUL	47	0	1	96	96	5
BRHLD	47	288	5	672
NMSTR	48	96	2
NMSUL	48	96	2	96	288	1
CNSUL	49	96	1	0	96	7
BRTAP	49	288	7
NMTAP	50	48	2
NMTAP	50	96	2
NMTAP	50	144	3
NMHLD	50	192	1	96
NMTAP	50	288	3
NMTAP	50	336	4
NMHLD	51	0	2	48
NMHLD	51	0	4	48
NMHLD	51	96	1	48
NMHLD	51	96	3	48
NMHLD	51	192	0	48
NMHLD	51	192	2	48
NMSTR	51	288	7
NMSCR	51	288	7	96	288	4
NMHLD	51	336	7	432
NMTAP	53	192	0
NMTAP	53	192	1
NMTAP	53	288	1
NMTAP	53	288	3
NMTAP	53	336	1
NMTAP	53	336	3
NMTAP	54	48	2
NMTAP	54	96	2
NMTAP	54	144	3
NMHLD	54	192	1	96
NMTAP	54	288	3
NMTAP	54	336	4
NMHLD	55	0	2	48
NMHLD	55	0	4	48
NMHLD	55	96	1	48
NMHLD	55	96	3	48
NMHLD	55	192	0	48
NMHLD	55	192	2	48
NMSTR	55	288	7
NMSI_	55	288	7	96	96	4
NMHLD	55	336	7	432
CNSI_	56	96	4	0	96	0
CNSI_	56	192	0	0	96	3
CNSI_	56	288	3	0	96	1
EXHLD	57	96	0	192
EXHLD	57	96	7	192
BRSTR	58	0	0
NMSI_	58	0	0	96	48	4
EXHLD	58	0	7	48
BRSTR	58	96	0
NMSI_	58	96	0	96	48	2
EXHLD	58	96	7	48
BRSTR	58	192	0
NMSI_	58	192	0	96	48	4
EXHLD	58	192	7	48
BRSTR	58	288	0
NMSI_	58	288	0	96	48	2
EXHLD	58	288	7	48
BRSTR	59	0	0
NMSI_	59	0	0	96	48	4
EXHLD	59	0	7	48
BRSTR	59	96	0
NMSI_	59	96	0	96	48	2
EXHLD	59	96	7	48
EXHLD	59	192	5	48
NMTAP	59	288	0
NMTAP	59	288	5
NMTAP	60	0	1
NMTAP	60	48	0
NMSTR	60	48	7
NMSI_	60	48	7	96	48	3
NMTAP	60	96	6
NMSTR	60	144	0
NMSI_	60	144	0	96	48	4
NMTAP	60	144	7
NMTAP	60	192	1
NMTAP	60	240	0
NMSTR	60	240	7
NMSI_	60	240	7	96	48	3
NMTAP	60	288	6
NMSTR	60	336	0
NMSI_	60	336	0	96	48	4
NMTAP	60	336	7
NMTAP	61	0	1
NMTAP	61	48	0
NMSTR	61	48	7
NMSI_	61	48	7	96	48	3
NMTAP	61	96	6
NMSTR	61	144	0
NMSI_	61	144	0	96	48	4
NMTAP	61	144	7
NMTAP	61	192	1
NMTAP	61	240	0
NMTAP	61	240	7
NMTAP	61	288	6
NMTAP	62	0	7
NMTAP	62	24	0
NMTAP	62	48	1
NMTAP	62	72	2
NMTAP	62	96	6
NMTAP	62	120	5
NMTAP	62	144	4
NMTAP	62	168	3
NMTAP	62	192	0
NMTAP	62	216	1
NMTAP	62	240	2
NMTAP	62	264	3
NMTAP	62	288	7
NMTAP	62	312	6
NMTAP	62	336	5
NMTAP	62	360	4
NMTAP	63	0	1
NMTAP	63	24	2
NMTAP	63	48	3
NMTAP	63	72	4
NMTAP	63	96	0
NMTAP	63	120	7
NMTAP	63	144	6
NMTAP	63	168	5
NMTAP	63	192	2
NMTAP	63	216	3
NMTAP	63	240	4
NMTAP	63	264	5
NMTAP	63	288	6
NMTAP	64	0	0
NMSTR	64	0	7
NMSCR	64	0	7	96	72	6
NMTTP	64	96	0	B	0	M1
EXTAP	64	96	7
NMTTP	64	108	1	B	0	M1
NMTTP	64	120	2	B	0	M1
NMTTP	64	132	3	B	0	M1
NMTTP	64	144	4	B	0	M1
NMTTP	64	156	5	B	0	M1
NMTTP	64	168	6	B	0	M1
EXSTR	64	192	0
NMSCL	64	192	0	96	72	1
EXTAP	64	192	7
EXTAP	64	288	0
NMTTP	64	288	0	B	0	M1
NMTTP	64	300	7	B	0	M1
NMTTP	64	312	6	B	0	M1
NMTTP	64	324	5	B	0	M1
NMTTP	64	336	4	B	0	M1
NMTTP	64	348	3	B	0	M1
NMTTP	64	360	2	B	0	M1
EXTAP	65	0	0
EXSTR	65	0	7
NMSCR	65	0	7	96	72	6
NMTTP	65	96	0	B	0	M1
EXTAP	65	96	7
NMTTP	65	108	1	B	0	M1
NMTTP	65	120	2	B	0	M1
NMTTP	65	132	3	B	0	M1
NMTTP	65	144	4	B	0	M1
NMTTP	65	156	5	B	0	M1
NMTTP	65	168	6	B	0	M1
EXTAP	65	192	0
EXTAP	65	192	7
NMTAP	65	288	0
NMTAP	65	288	7
NMTAP	66	0	4
NMTAP	66	0	6
NMTAP	66	48	7
NMTAP	66	96	3
NMTAP	66	96	4
NMTAP	66	144	0
NMTAP	66	192	1
NMTAP	66	192	3
NMTAP	66	240	7
NMTAP	66	288	3
NMTAP	66	288	4
NMTAP	66	336	0
NMHLD	67	0	2	96
NMTAP	67	48	4
NMHLD	67	96	3	96
NMTAP	67	144	1
NMHLD	67	192	4	96
NMTAP	67	240	6
NMHLD	67	288	5	96
NMTAP	67	336	0
NMTAP	68	0	3
NMTAP	68	48	1
NMTAP	68	96	3
NMTAP	68	96	4
NMTAP	68	144	6
NMTAP	68	192	2
NMTAP	68	192	4
NMTAP	68	240	1
NMTAP	68	288	3
NMTAP	68	288	4
NMHLD	69	0	5	96
NMTAP	69	48	3
NMHLD	69	96	4	96
NMTAP	69	144	6
NMHLD	69	192	3	96
NMTAP	69	240	1
NMHLD	69	288	2	96
NMHLD	69	336	7	624
NMTAP	70	96	3
NMTAP	70	192	3
NMTAP	70	336	0
NMTAP	71	0	6
NMTAP	71	48	1
NMTAP	71	96	5
NMTAP	71	144	2
NMTAP	71	192	4
NMSTR	71	288	0
NMSI_	71	288	0	96	36	5
NMSTR	72	0	0
NMSI_	72	0	0	96	36	3
NMTAP	72	0	2
NMTAP	72	96	0
NMTAP	72	96	6
NMTAP	72	192	6
NMTAP	72	216	7
NMTAP	72	264	1
NMTAP	72	288	0
NMTAP	72	336	2
NMTAP	72	336	3
NMSTR	73	0	4
NMSCR	73	0	4	96	96	2
NMTAP	73	0	5
NMTAP	73	48	6
NMHLD	73	96	7	72
NMTAP	73	240	7
NMTAP	73	288	1
NMTAP	73	288	5
NMSTR	74	0	7
NMSCL	74	0	7	96	36	4
NMSTR	74	48	7
NMSCR	74	48	7	96	36	2
EXTAP	74	96	7
EXTAP	74	144	7
NMSTR	74	192	3
NMSF_	74	192	3	96	36	7
NMTAP	74	240	3
EXTAP	74	288	3
EXTAP	75	0	0
EXTAP	75	0	7
EXTAP	75	12	1
EXTAP	75	24	2
EXHLD	75	36	3	60
EXTAP	75	96	0
EXTAP	75	108	1
EXTAP	75	120	2
EXHLD	75	132	3	60
EXTAP	75	192	0
EXTAP	75	204	1
EXTAP	75	216	2
EXHLD	75	228	3	60
NMSTR	75	288	7
NMSI_	75	288	7	96	36	2
NMTAP	76	0	5
NMSTR	76	0	7
NMSI_	76	0	7	96	36	4
NMTAP	76	96	1
NMTAP	76	96	7
NMTAP	76	192	2
NMTAP	76	216	3
NMTAP	76	264	5
NMTAP	76	288	4
NMTAP	76	336	6
NMTAP	76	336	7
NMTAP	77	0	0
NMTAP	77	48	1
NMHLD	77	48	3	144
NMTTP	77	96	2	B	0	M1
NMTTP	77	108	3	B	0	M1
NMTTP	77	120	4	B	0	M1
NMTTP	77	132	5	B	0	M1
NMTTP	77	144	6	B	0	M1
NMTTP	77	156	7	B	0	M1
NMTTP	77	168	0	B	0	M1
NMTTP	77	180	1	B	0	M1
NMTTP	77	192	2	B	0	M1
NMTAP	77	240	0
NMTAP	77	288	2
NMTAP	77	288	6
BXTAP	78	0	0
NMTAP	78	12	1
NMTAP	78	24	2
NMTAP	78	36	3
NMTAP	78	48	4
NMTAP	78	60	5
NMTAP	78	72	6
NMTAP	78	84	7
EXTAP	78	96	0
NMTAP	78	108	1
NMTAP	78	120	2
NMTAP	78	132	3
NMTAP	78	144	4
NMTAP	78	156	5
NMTAP	78	168	6
NMTAP	78	180	7
BXTAP	78	192	0
NMTAP	78	204	1
NMTAP	78	216	2
NMTAP	78	228	3
NMTAP	78	240	4
NMTAP	78	252	5
NMTAP	78	264	6
NMTAP	78	276	7
EXTAP	78	288	0
NMTAP	78	300	1
NMTAP	78	312	2
NMTAP	78	324	3
NMTAP	78	336	4
NMTAP	78	348	5
NMTAP	78	360	6
NMTAP	78	372	7
BXTAP	79	0	0
NMTAP	79	12	1
NMTAP	79	24	2
NMTAP	79	36	3
NMTAP	79	48	4
NMTAP	79	60	5
NMTAP	79	72	6
NMTAP	79	84	7
EXTAP	79	96	0
NMTAP	79	108	1
NMTAP	79	120	2
NMTAP	79	132	3
NMTAP	79	144	4
NMTAP	79	156	5
NMTAP	79	168	6
NMTAP	79	180	7
BXTAP	79	192	0
BRTAP	79	288	0
BRTAP	79	288	3

T_REC_TAP	281
T_REC_BRK	16
T_REC_XTP	25
T_REC_BXX	4
T_REC_HLD	63
T_REC_XHO	12
T_REC_BHO	2
T_REC_BXH	0
T_REC_STR	91
T_REC_BST	8
T_REC_XST	2
T_REC_XBS	0
T_REC_TTP	79
T_REC_THO	0
T_REC_SLD	102
T_REC_BSL	0
T_REC_ALL	685
T_NUM_TAP	478
T_NUM_BRK	30
T_NUM_HLD	75
T_NUM_SLD	102
T_NUM_ALL	685
T_JUDGE_TAP	506
T_JUDGE_HLD	188
T_JUDGE_SLD	102
T_JUDGE_ALL	796
TTM_EACHPAIRS	101
TTM_SCR_TAP	239000
TTM_SCR_BRK	78000
TTM_SCR_HLD	75000
TTM_SCR_SLD	153000
TTM_SCR_ALL	545000
TTM_SCR_S	525750
TTM_SCR_SS	542000
TTM_RAT_ACV	10055

