VERSION	0.00.00	1.04.00
FES_MODE	1
BPM_DEF	160.000	160.000	160.000	160.000
MET_DEF	4	4
RESOLUTION	384
CLK_DEF	384
COMPATIBLE_CODE	MA2

BPM	0	0	160.000
MET	0	0	4	4

NMTTP	1	0	1	E	0	M1
NMTTP	1	96	2	E	0	M1
NMTTP	1	192	3	E	0	M1
NMTTP	1	288	1	B	1	M1
NMSTR	2	0	0
NMSCR	2	0	0	96	96	4
NMTAP	2	192	0
NMTAP	2	288	0
NMSTR	3	0	0
NMSCR	3	0	0	96	96	4
NMTAP	3	192	0
NMSTR	3	288	0
NMSXL	3	288	0	96	288	3
NMSTR	5	0	0
NMSCR	5	0	0	96	96	4
NMTAP	5	192	0
NMTAP	5	288	0
NMSTR	6	0	0
NMSCR	6	0	0	96	96	4
NMTAP	6	192	0
NMTAP	6	288	0
NMSTR	7	0	0
NMSCR	7	0	0	96	96	4
NMTAP	7	192	0
NMSTR	7	288	0
NMSXL	7	288	0	96	288	4
NMTAP	9	0	7
NMTAP	9	96	0
NMTAP	9	192	0
NMTAP	10	0	1
NMSTR	10	0	6
NMSCL	10	0	6	96	48	3
NMTAP	10	96	0
NMSTR	10	192	1
NMSCR	10	192	1	96	48	4
NMTAP	10	192	5
NMTAP	10	288	6
NMTAP	11	0	1
NMSTR	11	0	5
NMSCR	11	0	5	96	48	0
NMTAP	11	96	1
NMSTR	11	192	2
NMSCL	11	192	2	96	48	7
NMTAP	11	192	6
NMTAP	11	288	6
NMTAP	12	0	2
NMSTR	12	0	6
NMSCL	12	0	6	96	48	3
NMTAP	12	48	3
NMTAP	12	48	7
NMTAP	12	96	2
NMTAP	12	192	2
NMSTR	12	192	6
NMSCL	12	192	6	96	48	3
NMTAP	12	240	3
NMTAP	12	240	7
NMTAP	12	288	2
NMTAP	13	0	2
BRSTR	13	0	6
NMSCL	13	0	6	96	48	3
NMTAP	13	48	3
NMTAP	13	48	7
NMTAP	13	96	2
NMTAP	13	192	2
BRSTR	13	192	6
NMSCL	13	192	6	96	48	3
NMTAP	13	240	3
NMTAP	13	240	7
NMTAP	13	288	2
BRSTR	14	0	1
BRSI_	14	0	1	96	48	5
BRTAP	14	0	6
NMTAP	14	96	0
NMTAP	14	96	1
NMSTR	14	192	6
NMSCL	14	192	6	96	48	3
NMTAP	14	240	7
NMTAP	14	288	6
NMSTR	15	0	1
NMSCL	15	0	1	96	48	6
NMTAP	15	48	2
NMTAP	15	96	1
NMSTR	15	192	4
NMSI_	15	192	4	96	48	0
NMTAP	15	240	5
NMTAP	15	288	4
NMSTR	16	0	1
NMSI_	16	0	1	96	48	5
NMTAP	16	0	5
NMTAP	16	96	0
NMTAP	16	96	1
NMTAP	16	192	3
NMTAP	16	192	6
NMTAP	16	264	1
NMTAP	16	264	4
NMHLD	16	336	3	336
NMTAP	16	336	7
NMTAP	17	0	0
NMTAP	17	48	0
NMTAP	17	96	6
NMTAP	17	144	6
NMSTR	17	192	1
NMSI_	17	192	1	96	48	6
EXTAP	17	288	1
NMSTR	18	0	1
NMSI_	18	0	1	96	48	4
NMSTR	18	0	6
NMSI_	18	0	6	96	48	3
NMTAP	18	48	2
NMTAP	18	48	5
BRSTR	18	96	1
NMSI_	18	96	1	96	48	7
BRTAP	18	96	6
NMTAP	18	192	1
NMSTR	18	192	5
NMSI_	18	192	5	96	48	1
NMTAP	18	240	6
NMSTR	18	288	3
NMSI_	18	288	3	96	48	0
NMTAP	18	288	5
NMTAP	18	336	2
NMTAP	19	0	3
NMTAP	19	0	6
NMTAP	19	48	7
NMTAP	19	96	2
NMTAP	19	96	6
NMTAP	19	144	3
NMTAP	19	144	4
NMTAP	19	192	2
NMTAP	19	192	5
NMTAP	19	240	0
NMTAP	19	240	7
NMTAP	19	288	1
NMSTR	19	288	6
NMSI_	19	288	6	96	48	3
NMTAP	19	336	3
NMSTR	20	0	1
NMSI_	20	0	1	96	48	5
NMTAP	20	0	6
NMTAP	20	48	0
NMTAP	20	96	1
NMSTR	20	96	6
NMSI_	20	96	6	96	48	0
NMTAP	20	144	7
NMSTR	20	192	2
NMSI_	20	192	2	96	48	6
NMTAP	20	192	6
NMTAP	20	240	1
NMTAP	20	288	2
NMSTR	20	288	4
NMSI_	20	288	4	96	48	7
NMTAP	20	336	5
NMTAP	21	0	1
NMTAP	21	0	4
NMTAP	21	48	0
NMTAP	21	96	1
NMTAP	21	96	5
NMTAP	21	144	3
NMTAP	21	144	4
NMTAP	21	192	2
NMTAP	21	192	5
NMTAP	21	240	0
NMTAP	21	240	7
NMSTR	21	288	1
NMSI_	21	288	1	96	48	4
NMTAP	21	288	6
NMTAP	21	336	4
NMTAP	22	0	1
NMSTR	22	0	6
NMSI_	22	0	6	96	48	2
NMTAP	22	48	7
NMSTR	22	96	1
NMSI_	22	96	1	96	48	7
NMTAP	22	96	6
NMTAP	22	144	0
NMTAP	22	192	1
NMSTR	22	192	5
NMSI_	22	192	5	96	48	1
NMTAP	22	240	6
NMSTR	22	288	3
NMSI_	22	288	3	96	48	0
NMTAP	22	288	5
NMTAP	22	336	2
NMTAP	23	0	3
NMTAP	23	0	6
NMTAP	23	48	7
NMTAP	23	96	2
NMTAP	23	144	1
NMTAP	23	144	5
NMTAP	23	192	3
NMTAP	23	192	7
NMTAP	24	0	4
NMTAP	24	48	4
NMTAP	24	72	3
NMTAP	24	96	2
NMHLD	24	192	1	48
NMHLD	24	192	3	48
NMHLD	24	288	1	48
NMHLD	24	288	3	48
NMTAP	25	0	4
NMTAP	25	48	4
NMTAP	25	72	3
NMTAP	25	96	2
NMHLD	25	192	1	48
NMHLD	25	192	3	48
NMHLD	25	288	1	48
NMHLD	25	288	3	48
NMTAP	26	0	4
NMTAP	26	48	4
NMTAP	26	72	3
NMTAP	26	96	2
NMHLD	26	192	1	48
NMHLD	26	192	3	48
NMHLD	26	288	1	48
NMHLD	26	288	3	48
NMTAP	27	0	4
NMTAP	27	48	4
NMTAP	27	72	3
NMTAP	27	96	2
NMHLD	27	192	2	48
NMHLD	27	192	3	48
NMHLD	27	288	2	48
NMHLD	27	288	3	48
NMTAP	28	0	4
NMTAP	28	48	4
NMTAP	28	72	3
NMTAP	28	96	2
NMHLD	28	192	1	48
NMHLD	28	192	3	48
NMHLD	28	288	1	48
NMHLD	28	288	3	48
NMTAP	29	0	4
NMTAP	29	48	4
NMTAP	29	72	3
NMTAP	29	96	2
NMHLD	29	192	1	48
NMHLD	29	192	3	48
NMHLD	29	288	1	48
NMHLD	29	288	3	48
NMTAP	30	0	4
NMTAP	30	48	4
NMTAP	30	72	3
NMTAP	30	96	2
NMHLD	30	192	1	48
NMHLD	30	192	3	48
NMHLD	30	288	1	48
NMHLD	30	288	3	48
NMSTR	31	0	2
NMSCR	31	0	2	96	48	5
NMSTR	32	0	2
NMSI_	32	0	2	96	48	5
NMSTR	32	48	5
NMSI_	32	48	5	96	48	2
NMSTR	32	96	2
NMSI_	32	96	2	96	48	7
NMSTR	32	144	7
NMSCL	32	144	7	96	96	2
NMHLD	32	192	0	96
NMSTR	33	0	7
NMSI_	33	0	7	96	48	4
NMSTR	33	48	4
NMSI_	33	48	4	96	48	7
NMSTR	33	96	7
NMSI_	33	96	7	96	48	2
NMSTR	33	144	2
NMSCR	33	144	2	96	96	7
NMHLD	33	192	1	96
NMSTR	34	0	0
NMSCR	34	0	0	96	96	5
NMSTR	34	96	5
NMSUR	34	96	5	96	96	2
NMSTR	34	192	2
NMSCR	34	192	2	96	96	7
NMSTR	34	288	7
NMSUR	34	288	7	96	96	4
NMSTR	35	0	4
NMSCR	35	0	4	96	96	1
NMSTR	35	96	1
NMSUR	35	96	1	96	96	6
NMSTR	35	192	6
NMSCR	35	192	6	96	96	1
BRTAP	35	288	1
NMSTR	36	0	5
NMSCL	36	0	5	96	48	2
NMSTR	36	96	5
NMSCR	36	96	5	96	96	2
NMSUR	36	96	5	96	96	2
NMTAP	36	192	5
NMSTR	37	0	2
NMSCR	37	0	2	96	48	5
NMSTR	37	96	2
NMSCL	37	96	2	96	96	5
NMSUL	37	96	2	96	96	5
NMTAP	37	192	2
NMSTR	38	0	0
NMSCR	38	0	0	96	48	3
NMSTR	38	0	4
NMSCR	38	0	4	96	48	7
NMSTR	38	96	0
NMSUL	38	96	0	96	48	4
NMSTR	38	96	4
NMSUL	38	96	4	96	48	0
NMSTR	38	192	0
NMSCR	38	192	0	96	48	3
NMSTR	38	192	4
NMSCR	38	192	4	96	48	7
BRTAP	38	288	0
BRTAP	38	288	4
NMSTR	39	0	0
NMSI_	39	0	0	96	48	5
NMSTR	39	0	4
NMSI_	39	0	4	96	48	1
NMSTR	39	192	3
NMSI_	39	192	3	96	48	6
NMSTR	39	192	7
NMSI_	39	192	7	96	48	2
NMSTR	40	0	0
NMSI_	40	0	0	96	48	4
NMSTR	40	0	7
NMSI_	40	0	7	96	48	5
BRSTR	40	96	0
NMSI_	40	96	0	96	48	2
BRSTR	40	96	7
NMSI_	40	96	7	96	48	3
BRSTR	40	192	0
NMSI_	40	192	0	96	48	4
BRSTR	40	192	7
NMSI_	40	192	7	96	48	5
BRTAP	40	288	0
BRTAP	40	288	7
NMTAP	41	0	1
NMTAP	41	0	3
NMTAP	41	48	0
NMTAP	41	48	7
NMTAP	41	96	4
NMTAP	41	96	6
NMTAP	41	144	0
NMTAP	41	144	7
NMSTR	41	192	1
NMSI_	41	192	1	96	48	5
NMSTR	41	192	3
NMSI_	41	192	3	96	48	6
NMTAP	41	240	0
NMTAP	41	240	7
NMTAP	42	0	4
NMTAP	42	0	6
NMTAP	42	48	0
NMTAP	42	48	7
NMTAP	42	96	1
NMTAP	42	96	6
NMTAP	42	144	0
NMTAP	42	144	7
NMSTR	42	192	1
NMSI_	42	192	1	96	48	5
NMSTR	42	192	3
NMSI_	42	192	3	96	48	6
NMTAP	42	240	0
NMTAP	42	240	7
NMTAP	43	0	4
NMTAP	43	0	7
NMTAP	43	48	4
NMTAP	43	48	7
NMHLD	43	96	3	48
NMHLD	43	96	6	48
NMHLD	43	192	1	48
NMHLD	43	192	4	48
NMTAP	43	288	2
NMTAP	43	288	5
NMTAP	43	336	1
NMTAP	43	336	6
NMSTR	44	0	0
NMSI_	44	0	0	96	48	4
NMSTR	44	0	7
NMSI_	44	0	7	96	48	3
BRTAP	44	96	0
BRTAP	44	96	7
NMSTR	44	192	0
NMSCR	44	192	0	96	48	3
NMSTR	44	192	7
NMSCL	44	192	7	96	48	4
BRTAP	44	288	0
BRTAP	44	288	7
NMSTR	45	0	3
NMSCR	45	0	3	96	48	7
NMSTR	45	0	4
NMSCR	45	0	4	96	48	7
BRSTR	45	96	3
NMSCL	45	96	3	96	48	0
BRSTR	45	96	4
NMSCL	45	96	4	96	48	0
BRTAP	45	192	3
BRTAP	45	192	4
NMSTR	46	0	2
NMSI_	46	0	2	96	48	5
NMSTR	46	48	5
NMSI_	46	48	5	96	48	2
NMSTR	46	96	2
NMSI_	46	96	2	96	48	7
NMSTR	46	144	7
NMSCR	46	144	7	96	96	6
NMSTR	47	0	4
NMSUR	47	0	4	96	48	1
NMSTR	47	0	5
NMSCR	47	0	5	96	48	0
NMSTR	47	192	2
NMSCL	47	192	2	96	48	7
NMSTR	47	192	3
NMSUL	47	192	3	96	48	6
NMSTR	48	0	5
NMSI_	48	0	5	96	48	2
NMSTR	48	48	2
NMSI_	48	48	2	96	48	5
NMSTR	48	96	5
NMSI_	48	96	5	96	48	0
NMSTR	48	144	0
NMSCL	48	144	0	96	96	1
NMSTR	49	0	3
NMSI_	49	0	3	96	48	0
NMSTR	49	48	4
NMSI_	49	48	4	96	48	7
NMSTR	49	192	0
NMSI_	49	192	0	96	48	3
NMSTR	49	240	7
NMSI_	49	240	7	96	48	4
NMTAP	50	48	2
NMTAP	50	96	2
NMTAP	50	144	3
NMHLD	50	192	1	96
NMTAP	50	288	3
NMTAP	50	336	4
NMHLD	51	0	2	48
NMHLD	51	0	4	48
NMHLD	51	96	1	48
NMHLD	51	96	3	48
NMHLD	51	192	0	48
NMHLD	51	192	2	48
NMSTR	51	288	7
NMSCR	51	288	7	96	288	4
NMHLD	51	336	7	432
NMTAP	53	192	0
NMTAP	53	192	1
NMTAP	53	288	1
NMTAP	53	288	3
NMTAP	53	336	1
NMTAP	53	336	3
NMTAP	54	48	2
NMTAP	54	96	2
NMTAP	54	144	3
NMHLD	54	192	1	96
NMTAP	54	288	3
NMTAP	54	336	4
NMHLD	55	0	2	48
NMHLD	55	0	4	48
NMHLD	55	96	1	48
NMHLD	55	96	3	48
NMHLD	55	192	0	48
NMHLD	55	192	2	48
NMSTR	55	288	7
NMSI_	55	288	7	96	96	4
NMHLD	55	336	7	432
CNSI_	56	96	4	0	96	0
CNSI_	56	192	0	0	96	3
CNSI_	56	288	3	0	96	1
BRTAP	58	0	1
BRTAP	58	0	5
NMTAP	58	96	4
NMTAP	58	96	5
NMTAP	58	144	6
NMTAP	58	192	4
NMTAP	58	192	5
NMTAP	58	240	3
NMSTR	58	288	5
NMSI_	58	288	5	96	48	0
NMTAP	58	312	4
NMTAP	58	360	4
BRSTR	59	0	5
NMSI_	59	0	5	96	48	1
NMTAP	59	48	3
BRSTR	59	96	5
NMSLR	59	96	5	96	96	3
NMTAP	59	144	3
BRTAP	59	192	5
NMTAP	59	240	2
BRTAP	59	288	0
NMTAP	60	0	2
NMTAP	60	24	4
NMTAP	60	48	3
NMTAP	60	72	3
NMTAP	60	96	2
NMTAP	60	120	4
NMTAP	60	144	3
NMTAP	60	168	3
NMSTR	60	192	3
NMSI_	60	192	3	96	48	0
NMSI_	60	192	3	96	48	6
EXTAP	60	288	3
NMTAP	61	0	5
NMTAP	61	24	3
NMTAP	61	48	4
NMTAP	61	72	4
NMTAP	61	96	5
NMTAP	61	120	3
NMTAP	61	144	4
NMTAP	61	168	4
NMSTR	61	192	4
NMSI_	61	192	4	96	48	1
NMSI_	61	192	4	96	48	7
EXTAP	61	288	4
EXTAP	62	0	4
EXTAP	62	0	6
NMTAP	62	48	6
NMTAP	62	96	6
NMTAP	62	96	7
NMTAP	62	144	6
NMTAP	62	192	5
NMTAP	62	192	6
NMTAP	62	240	6
NMTAP	62	288	0
NMTAP	62	288	6
NMTAP	62	336	6
EXTAP	63	0	2
EXTAP	63	0	5
NMTAP	63	48	2
NMTAP	63	96	0
NMTAP	63	96	2
NMTAP	63	144	2
NMTAP	63	192	2
NMTAP	63	192	3
NMTAP	63	240	2
NMTAP	63	288	2
NMTAP	63	288	7
NMHLD	63	336	2	48
EXTAP	64	0	3
NMTAP	64	24	2
NMTAP	64	48	4
NMTAP	64	72	1
NMTAP	64	96	5
NMTAP	64	120	0
NMTAP	64	144	6
NMTAP	64	168	7
NMTAP	64	192	6
NMTAP	64	204	5
NMTAP	64	216	4
NMTAP	64	228	3
NMTAP	64	240	2
NMTAP	64	252	1
NMTAP	64	264	0
NMTAP	64	276	7
NMTAP	64	288	6
NMTAP	64	300	5
NMTAP	64	312	4
NMTAP	64	324	3
NMTAP	64	336	2
NMTAP	64	348	1
NMTAP	64	360	0
NMTAP	64	372	7
EXSTR	65	0	2
NMSXR	65	0	2	96	144	3
EXSTR	65	0	6
NMSXR	65	0	6	96	144	7
NMTTP	65	288	0	C	0	M1
NMTAP	66	0	3
NMSTR	66	0	5
NMSI_	66	0	5	96	48	3
NMTAP	66	48	2
NMTAP	66	96	1
NMTAP	66	144	0
NMTAP	66	168	0
EXSTR	66	192	3
NMSCR	66	192	3	96	48	6
NMTAP	66	240	1
NMTAP	66	288	2
NMTAP	66	288	3
NMTAP	66	336	1
NMSTR	67	0	2
NMSI_	67	0	2	96	48	4
NMTAP	67	0	7
NMTAP	67	48	7
NMTAP	67	96	6
NMTAP	67	144	5
NMTAP	67	168	5
EXSTR	67	192	4
NMSCL	67	192	4	96	48	1
NMTAP	67	240	6
NMTAP	67	288	4
NMTAP	67	288	5
NMTAP	67	336	6
NMSTR	68	0	5
NMSCL	68	0	5	96	48	3
NMTAP	68	48	5
NMSTR	68	96	1
NMSCL	68	96	1	96	48	7
NMTAP	68	144	1
NMSTR	68	192	6
NMSI_	68	192	6	96	48	2
NMTAP	68	240	6
NMSTR	68	288	4
NMSI_	68	288	4	96	48	0
NMSI_	68	288	4	96	48	6
CNSI_	68	336	2	0	48	4
NMTAP	68	336	4
EXTAP	69	96	0
EXTAP	69	96	6
NMTAP	69	192	0
NMTAP	69	240	0
NMTAP	69	288	1
NMTAP	69	288	7
NMTAP	69	336	2
NMSTR	70	0	2
NMSI_	70	0	2	96	48	4
NMTAP	70	0	5
NMTAP	70	48	6
NMTAP	70	96	7
NMTAP	70	144	0
NMTAP	70	168	0
EXSTR	70	192	4
NMSCL	70	192	4	96	48	1
NMTAP	70	240	6
NMTAP	70	288	4
NMSTR	70	288	5
NMSI_	70	288	5	96	48	7
NMTAP	70	336	6
NMSTR	71	0	0
NMSI_	71	0	0	96	48	4
NMTAP	71	0	5
NMTAP	71	48	1
NMTAP	71	96	0
NMTAP	71	96	5
NMTAP	71	192	3
NMTAP	71	192	7
NMTAP	71	240	2
NMTAP	71	240	6
NMTAP	71	288	1
NMTAP	71	288	5
NMTAP	71	336	0
NMTAP	71	336	4
NMSTR	72	0	3
NMSUR	72	0	3	96	48	7
NMSTR	72	0	7
NMSUR	72	0	7	96	48	3
NMSTR	72	96	3
NMSCL	72	96	3	96	48	0
NMSTR	72	96	7
NMSCL	72	96	7	96	48	4
NMSTR	72	192	3
NMSV_	72	192	3	96	48	6
NMSTR	72	192	7
NMSV_	72	192	7	96	48	2
NMSTR	72	288	3
NMSLL	72	288	3	96	96	6
NMSTR	72	288	7
NMSLL	72	288	7	96	96	2
NMTAP	73	240	1
NMTAP	73	240	5
NMTAP	73	288	2
NMTAP	73	288	6
NMTAP	73	336	3
NMTAP	73	336	7
NMSTR	74	0	0
NMSUL	74	0	0	96	48	4
NMSTR	74	0	4
NMSUL	74	0	4	96	48	0
NMSTR	74	96	0
NMSCR	74	96	0	96	48	3
NMSTR	74	96	4
NMSCR	74	96	4	96	48	7
NMSTR	74	192	0
NMSV_	74	192	0	96	48	5
NMSTR	74	192	4
NMSV_	74	192	4	96	48	1
NMSTR	74	288	0
NMSLR	74	288	0	96	96	5
NMSTR	74	288	4
NMSLR	74	288	4	96	96	1
NMTAP	75	192	2
NMTAP	75	192	6
NMSTR	76	0	0
NMSI_	76	0	0	96	48	2
NMTAP	76	0	4
NMTAP	76	48	7
NMTAP	76	72	6
NMSTR	76	96	0
NMSI_	76	96	0	96	48	4
NMTAP	76	96	5
NMSTR	76	144	6
BRSI_	76	144	6	96	48	3
NMTAP	76	168	5
NMSTR	76	192	0
NMSCR	76	192	0	96	48	2
NMTAP	76	192	4
NMTAP	76	240	6
NMTAP	76	288	0
NMTAP	76	336	5
NMSTR	77	0	7
NMSI_	77	0	7	96	48	5
NMTAP	77	48	0
NMTAP	77	72	1
NMTAP	77	96	2
NMSTR	77	96	7
NMSI_	77	96	7	96	48	3
NMSTR	77	144	1
BRSI_	77	144	1	96	48	4
NMTAP	77	168	2
NMTAP	77	192	3
NMSTR	77	192	7
NMSCL	77	192	7	96	48	5
NMTAP	77	240	1
NMTAP	77	288	7
NMTAP	77	336	2
NMTAP	78	0	3
NMTAP	78	24	4
NMTAP	78	48	3
NMTAP	78	72	4
NMTAP	78	96	2
NMTAP	78	120	5
NMTAP	78	144	2
NMTAP	78	168	5
NMTAP	78	192	1
NMTAP	78	216	6
NMTAP	78	240	1
NMTAP	78	264	6
NMTAP	78	288	0
NMTAP	78	312	7
NMTAP	78	336	0
NMTAP	78	360	7
NMSTR	79	0	0
NMSI_	79	0	0	96	96	4
NMSTR	79	96	0
NMSCL	79	96	0	96	72	5
NMSCL	79	96	0	96	96	4
NMSCL	79	96	0	96	120	3
NMSCL	79	96	0	96	144	2
NMSCL	79	96	0	96	168	1

T_REC_TAP	342
T_REC_BRK	17
T_REC_XTP	10
T_REC_BXX	0
T_REC_HLD	52
T_REC_XHO	0
T_REC_BHO	0
T_REC_BXH	0
T_REC_STR	130
T_REC_BST	12
T_REC_XST	5
T_REC_XBS	0
T_REC_TTP	5
T_REC_THO	0
T_REC_SLD	153
T_REC_BSL	3
T_REC_ALL	729
T_NUM_TAP	492
T_NUM_BRK	32
T_NUM_HLD	52
T_NUM_SLD	153
T_NUM_ALL	729
T_JUDGE_TAP	521
T_JUDGE_HLD	78
T_JUDGE_SLD	156
T_JUDGE_ALL	755
TTM_EACHPAIRS	150
TTM_SCR_TAP	246000
TTM_SCR_BRK	83200
TTM_SCR_HLD	52000
TTM_SCR_SLD	229500
TTM_SCR_ALL	610700
TTM_SCR_S	589300
TTM_SCR_SS	607500
TTM_RAT_ACV	10052

