VERSION	0.00.00	1.04.00
FES_MODE	0
BPM_DEF	256.000	256.000	256.000	256.000
MET_DEF	4	4
RESOLUTION	384
CLK_DEF	384
COMPATIBLE_CODE	MA2

BPM	0	0	256.000

NMTAP	2	0	0
NMTAP	2	0	7
NMTAP	2	192	0
NMTAP	2	240	7
NMTAP	2	336	1
NMTAP	2	336	6
NMTAP	3	192	0
NMTAP	3	240	7
NMTAP	3	288	6
NMTAP	3	336	5
NMTAP	4	0	3
NMTAP	4	0	4
NMTAP	4	192	3
NMTAP	4	240	4
NMTAP	4	336	2
NMTAP	4	336	5
NMTAP	5	192	0
NMTAP	5	192	7
NMTAP	5	240	1
NMTAP	5	240	7
NMTAP	5	288	0
NMTAP	5	288	7
NMTAP	5	336	0
NMTAP	5	336	6
NMTAP	6	0	0
NMTAP	6	0	7
NMTAP	6	192	7
NMTAP	6	240	0
NMTAP	6	336	1
NMTAP	6	336	6
NMTAP	7	192	7
NMTAP	7	240	0
NMTAP	7	288	1
NMTAP	7	336	2
NMTAP	8	0	3
NMTAP	8	0	4
NMTAP	8	192	4
NMTAP	8	240	3
NMTAP	8	336	2
NMTAP	8	336	5
NMTAP	9	192	3
NMTAP	9	192	4
NMTAP	9	288	1
NMTAP	9	288	6
BRTAP	10	0	0
NMTAP	10	0	4
NMTAP	10	24	1
NMTAP	10	48	2
NMTAP	10	72	3
NMTAP	10	96	4
NMTAP	10	120	5
NMTAP	10	144	6
NMTAP	10	168	7
NMTAP	10	192	0
NMTAP	10	216	1
NMTAP	10	240	2
NMTAP	10	264	3
NMTAP	10	288	4
NMTAP	10	312	5
NMTAP	10	336	6
NMTAP	10	360	7
NMTAP	11	0	0
NMTAP	11	192	0
NMTAP	11	240	6
NMTAP	11	288	2
NMTAP	11	336	5
NMTAP	12	0	3
BRTAP	12	0	7
NMTAP	12	24	6
NMTAP	12	48	5
NMTAP	12	72	4
NMTAP	12	96	3
NMTAP	12	120	2
NMTAP	12	144	1
NMTAP	12	168	0
NMTAP	12	192	7
NMTAP	12	216	6
NMTAP	12	240	5
NMTAP	12	264	4
NMTAP	12	288	3
NMTAP	12	312	2
NMTAP	12	336	1
NMTAP	12	360	0
NMTAP	13	0	7
NMTAP	13	192	3
NMTAP	13	192	4
NMTAP	13	288	1
NMTAP	13	288	6
BRTAP	14	0	0
NMTAP	14	0	4
NMTAP	14	24	1
NMTAP	14	48	2
NMTAP	14	72	3
NMTAP	14	96	4
NMTAP	14	120	5
NMTAP	14	144	6
NMTAP	14	168	7
NMTAP	14	192	0
NMTAP	14	216	1
NMTAP	14	240	2
NMTAP	14	264	3
NMTAP	14	288	4
NMTAP	15	0	3
BRTAP	15	0	7
NMTAP	15	24	6
NMTAP	15	48	5
NMTAP	15	72	4
NMTAP	15	96	3
NMTAP	15	120	2
NMTAP	15	144	1
NMTAP	15	168	0
NMTAP	15	192	7
NMTAP	15	216	6
NMTAP	15	240	5
NMTAP	15	264	4
NMTAP	15	288	3
BRTAP	16	0	0
NMTAP	16	0	4
NMTAP	16	24	1
NMTAP	16	48	2
NMTAP	16	72	3
NMTAP	16	96	4
NMTAP	16	120	5
NMTAP	16	144	6
NMTAP	16	192	3
BRTAP	16	192	7
NMTAP	16	216	6
NMTAP	16	240	5
NMTAP	16	264	4
NMTAP	16	288	3
NMTAP	16	312	2
NMTAP	16	336	1
BRTAP	17	0	3
BRTAP	17	0	7
BRTAP	17	96	0
BRTAP	17	96	4
BRSTR	17	192	2
NMSI_	17	192	2	96	48	7
BRSTR	17	192	6
NMSI_	17	192	6	96	48	3
BRTAP	17	288	2
BRTAP	17	288	6
NMSTR	18	0	0
NMSI_	18	0	0	96	96	4
NMSTR	18	96	4
NMSI_	18	96	4	96	96	7
NMSTR	18	192	7
NMSI_	18	192	7	96	96	4
NMSTR	18	288	4
NMSI_	18	288	4	96	96	0
NMSTR	19	0	0
NMSI_	19	0	0	96	96	4
NMSTR	19	96	4
NMSI_	19	96	4	96	96	1
NMSTR	19	192	1
NMSI_	19	192	1	96	96	4
NMSTR	19	288	4
NMSI_	19	288	4	96	96	0
NMSTR	20	0	0
NMSI_	20	0	0	96	96	4
NMSTR	20	96	4
NMSI_	20	96	4	96	96	7
NMSTR	20	192	7
NMSI_	20	192	7	96	96	4
NMTAP	20	288	4
NMTAP	21	0	0
NMTAP	21	24	3
NMTAP	21	24	7
NMTAP	21	48	2
NMTAP	21	48	6
NMTAP	21	72	1
NMTAP	21	72	5
NMSTR	21	96	0
NMSI_	21	96	0	96	48	5
NMSTR	21	96	4
NMSI_	21	96	4	96	48	1
BRTAP	21	192	0
BRTAP	21	192	4
NMSTR	22	0	7
NMSI_	22	0	7	96	96	3
NMSTR	22	96	3
NMSI_	22	96	3	96	96	0
NMSTR	22	192	0
NMSI_	22	192	0	96	96	3
NMSTR	22	288	3
NMSI_	22	288	3	96	96	7
NMSTR	23	0	7
NMSI_	23	0	7	96	96	3
NMSTR	23	96	3
NMSI_	23	96	3	96	96	6
NMSTR	23	192	6
NMSI_	23	192	6	96	96	3
NMTAP	23	288	3
NMTAP	24	0	7
NMTAP	24	24	0
NMTAP	24	48	1
NMTAP	24	72	2
NMTAP	24	96	7
NMTAP	24	120	6
NMTAP	24	144	5
NMTAP	24	168	4
NMTAP	24	192	0
NMTAP	24	224	1
NMTAP	24	256	2
NMTAP	24	288	6
NMTAP	24	320	5
NMTAP	24	352	4
BRTAP	25	0	3
NMTAP	25	48	2
NMTAP	25	96	1
NMTAP	25	144	0
BRTAP	25	192	4
NMTAP	25	240	5
NMTAP	25	288	6
NMTAP	25	336	7
BRTAP	26	0	0
BRTAP	26	0	1
NMTAP	26	144	3
NMTAP	26	144	7
NMSTR	26	192	0
NMSCR	26	192	0	96	48	3
NMSTR	26	192	4
NMSCR	26	192	4	96	48	7
NMTAP	26	288	0
NMTAP	26	288	4
NMTAP	27	0	0
NMTAP	27	96	0
NMTAP	27	96	1
NMTAP	27	144	0
NMTAP	27	144	1
NMSTR	27	192	0
NMSI_	27	192	0	96	48	4
NMSTR	27	192	1
NMSI_	27	192	1	96	48	5
BRTAP	27	288	0
BRTAP	27	288	1
NMSTR	28	0	7
NMSI_	28	0	7	96	96	3
NMSTR	28	96	3
NMSI_	28	96	3	96	96	0
NMSTR	28	192	0
NMSI_	28	192	0	96	96	3
NMTAP	28	288	3
NMTAP	29	0	7
NMTAP	29	24	0
NMTAP	29	24	4
NMTAP	29	48	1
NMTAP	29	48	5
NMTAP	29	72	2
NMTAP	29	72	6
NMSTR	29	96	3
NMSI_	29	96	3	96	48	6
NMSTR	29	96	7
NMSI_	29	96	7	96	48	2
BRTAP	29	192	3
BRTAP	29	192	7
NMSTR	30	0	0
NMSI_	30	0	0	96	96	4
NMSTR	30	96	4
NMSI_	30	96	4	96	96	7
NMSTR	30	192	7
NMSI_	30	192	7	96	96	4
NMSTR	30	288	4
NMSI_	30	288	4	96	96	0
NMSTR	31	0	0
NMSI_	31	0	0	96	96	4
NMSTR	31	96	4
NMSI_	31	96	4	96	96	1
NMSTR	31	192	1
NMSI_	31	192	1	96	96	4
NMTAP	31	288	4
NMTAP	32	0	7
NMTAP	32	48	7
NMTAP	32	96	7
NMTAP	32	144	7
NMTAP	32	192	3
NMTAP	32	192	7
NMTAP	32	240	3
NMTAP	32	240	7
NMTAP	32	288	3
NMTAP	32	288	7
NMTAP	32	336	3
NMTAP	32	336	7
BRTAP	33	0	3
BRTAP	33	0	7
BRTAP	33	48	2
BRTAP	33	96	1
BRTAP	33	144	0
BRTAP	33	192	7
BRTAP	33	240	6
BRTAP	33	288	5
BRTAP	33	336	4
BRSTR	34	0	1
NMSI_	34	0	1	96	48	5
BRSTR	34	0	7
NMSI_	34	0	7	96	48	4
BRTAP	34	96	1
BRTAP	34	96	7
BRSTR	34	192	0
NMSI_	34	192	0	96	48	3
BRSTR	34	192	6
NMSI_	34	192	6	96	48	2
BRTAP	34	288	0
BRTAP	34	288	6
NMSTR	35	0	0
NMSI_	35	0	0	96	48	4
NMTAP	35	96	0
NMTAP	35	96	6
NMTAP	35	192	1
NMSTR	35	192	7
NMSI_	35	192	7	96	48	3
NMTAP	35	288	7
BRSTR	36	0	1
NMSI_	36	0	1	96	48	4
BRSTR	36	0	7
NMSI_	36	0	7	96	48	3
BRTAP	36	96	1
BRTAP	36	96	7
BRSTR	36	192	0
NMSI_	36	192	0	96	48	4
BRSTR	36	192	6
NMSI_	36	192	6	96	48	3
BRTAP	36	288	0
BRTAP	36	288	6
NMSTR	37	0	0
NMSI_	37	0	0	96	48	4
NMTAP	37	96	0
NMTAP	37	96	6
NMTAP	37	144	6
NMSTR	37	192	7
NMSI_	37	192	7	96	48	3
NMTAP	37	288	1
NMTAP	37	288	7
BRSTR	38	0	1
NMSI_	38	0	1	96	48	5
BRSTR	38	0	7
NMSI_	38	0	7	96	48	2
BRTAP	38	96	1
BRTAP	38	96	7
BRSTR	38	192	0
NMSI_	38	192	0	96	48	5
BRSTR	38	192	6
NMSI_	38	192	6	96	48	2
BRTAP	38	288	0
BRTAP	38	288	6
NMHLD	39	0	0	144
NMTAP	39	96	6
NMTAP	39	144	6
NMTAP	39	288	3
NMTAP	39	288	4
NMTAP	40	0	0
NMTAP	40	48	0
NMTAP	40	96	0
NMTAP	40	144	0
NMTAP	40	192	0
NMTAP	40	240	0
NMTAP	40	288	0
NMTAP	40	336	0
BRTAP	41	0	0
BRTAP	41	0	4
BRTAP	41	48	0
BRTAP	41	48	4
BRTAP	41	96	0
BRTAP	41	96	4
BRTAP	41	144	0
BRTAP	41	144	4
BRTAP	41	192	0
BRTAP	41	192	4
BRTAP	41	240	0
BRTAP	41	240	4
BRTAP	41	288	0
BRTAP	41	288	4
BRTAP	41	336	0
BRTAP	41	336	4
BRSTR	42	0	6
NMSI_	42	0	6	96	48	2
BRSTR	42	0	7
NMSI_	42	0	7	96	48	3
BRSTR	42	96	6
NMSCL	42	96	6	96	48	3
BRSTR	42	96	7
NMSCR	42	96	7	96	48	2
BRSTR	42	192	6
NMSI_	42	192	6	96	48	2
BRSTR	42	192	7
NMSI_	42	192	7	96	48	3
BRTAP	42	288	6
BRTAP	42	288	7
NMSTR	43	0	0
NMSI_	43	0	0	96	48	4
NMSTR	43	0	7
NMSI_	43	0	7	96	48	5
NMTAP	43	96	0
NMTAP	43	96	7
NMSTR	43	192	0
NMSI_	43	192	0	96	48	2
NMSTR	43	192	7
NMSI_	43	192	7	96	48	3
NMTAP	43	288	0
NMTAP	43	288	7
BRSTR	44	0	0
NMSI_	44	0	0	96	48	4
BRSTR	44	0	1
NMSI_	44	0	1	96	48	5
BRSTR	44	96	0
NMSCL	44	96	0	96	48	5
BRSTR	44	96	1
NMSCR	44	96	1	96	48	4
BRSTR	44	192	0
NMSI_	44	192	0	96	48	4
BRSTR	44	192	1
NMSI_	44	192	1	96	48	5
BRTAP	44	288	0
BRTAP	44	288	1
NMSTR	45	0	0
NMSI_	45	0	0	96	48	2
NMSTR	45	0	7
NMSI_	45	0	7	96	48	3
NMTAP	45	96	0
NMTAP	45	96	7
NMSTR	45	192	0
NMSI_	45	192	0	96	48	4
NMSTR	45	192	7
NMSI_	45	192	7	96	48	5
NMTAP	45	288	0
NMTAP	45	288	7
BRSTR	46	0	6
NMSI_	46	0	6	96	48	2
BRTAP	46	0	7
NMTAP	46	96	3
NMTAP	46	96	6
BRTAP	46	192	0
BRSTR	46	192	1
NMSI_	46	192	1	96	48	5
NMTAP	46	288	1
NMTAP	46	288	4
BRSTR	47	0	6
NMSI_	47	0	6	96	48	2
BRTAP	47	0	7
NMTAP	47	96	3
NMTAP	47	96	6
BRTAP	47	192	0
BRSTR	47	192	1
NMSI_	47	192	1	96	48	5
NMTAP	47	288	1
NMTAP	47	288	4
NMTAP	48	0	0
NMTAP	48	144	7
NMTAP	48	240	7
NMTAP	48	336	0
BRTAP	49	192	5
BRTAP	49	288	3
BRSTR	50	0	1
NMSCL	50	0	1	96	2880	6
NMTAP	50	0	4
NMTAP	50	144	4
NMTAP	50	288	4
NMTAP	51	48	5
NMTAP	51	96	5
NMTAP	51	144	5
NMTAP	51	192	4
NMTAP	51	240	5
NMTAP	51	288	4
NMTAP	52	0	2
NMTAP	52	48	3
NMTAP	52	96	2
NMTAP	52	144	3
NMTAP	52	240	5
NMTAP	52	288	4
NMTAP	52	336	5
NMTAP	53	0	4
NMTAP	53	48	5
NMTAP	53	96	5
NMTAP	53	144	2
NMTAP	53	192	2
NMTAP	53	288	5
NMTAP	53	312	4
NMTAP	53	336	3
NMTAP	53	360	2
NMTAP	54	0	1
NMTAP	54	96	1
NMTAP	54	120	2
NMTAP	54	144	3
NMTAP	54	168	4
NMTAP	54	192	5
NMTAP	54	288	5
NMTAP	54	312	4
NMTAP	54	336	3
NMTAP	54	360	2
NMTAP	55	0	1
NMTAP	55	96	1
NMTAP	55	120	2
NMTAP	55	144	3
NMTAP	55	168	4
NMTAP	55	192	5
NMTAP	55	288	5
NMTAP	55	312	4
NMTAP	55	336	3
NMTAP	55	360	2
NMTAP	56	0	1
NMTAP	56	96	1
NMTAP	56	120	2
NMTAP	56	144	3
NMTAP	56	168	4
NMTAP	56	192	5
NMTAP	56	240	4
NMTAP	56	288	5
NMTAP	56	336	4
NMTAP	57	96	4
NMTAP	57	288	3
BRTAP	58	0	0
BRTAP	58	0	1
NMTAP	58	144	2
NMTAP	58	288	3
BRTAP	59	0	0
BRTAP	59	0	4
BRTAP	59	144	2
BRTAP	59	144	6
BRTAP	59	288	1
BRTAP	59	288	5
BRTAP	60	0	3
BRTAP	60	0	7
NMTAP	60	96	4
NMTAP	60	192	3
NMTAP	60	288	4
BRTAP	61	0	3
BRTAP	61	0	7
BRTAP	61	144	1
BRTAP	61	144	5
BRTAP	61	288	2
BRTAP	61	288	6
BRTAP	62	0	0
BRTAP	62	0	4
NMTAP	62	96	2
NMTAP	62	96	6
NMTAP	62	192	0
NMTAP	62	192	4
NMTAP	62	288	3
NMTAP	62	288	7
NMTAP	62	312	2
NMTAP	62	312	6
NMTAP	62	336	1
NMTAP	62	336	5
NMTAP	62	360	0
NMTAP	62	360	4
BRTAP	63	0	3
BRTAP	63	0	7
NMTAP	63	96	1
NMTAP	63	96	5
NMTAP	63	192	3
NMTAP	63	192	7
NMTAP	63	288	0
NMTAP	63	288	4
NMTAP	63	312	1
NMTAP	63	312	5
NMTAP	63	336	2
NMTAP	63	336	6
NMTAP	63	360	3
NMTAP	63	360	7
BRTAP	64	0	0
BRTAP	64	0	4
NMTAP	64	96	2
NMTAP	64	96	6
NMTAP	64	144	1
NMTAP	64	144	5
BRTAP	64	192	0
BRTAP	64	192	4
NMTAP	64	288	2
NMTAP	64	288	6
NMSTR	65	0	1
NMSCR	65	0	1	96	96	5
NMSTR	65	0	5
NMSUL	65	0	5	96	96	1
NMTAP	66	0	3
NMHLD	66	0	7	96
NMTAP	66	96	3
NMHLD	66	144	5	96
NMTAP	66	192	3
NMTAP	66	288	3
NMHLD	66	288	6	96
NMTAP	67	0	3
NMTAP	67	48	7
NMTAP	67	96	3
NMTAP	67	96	7
NMTAP	67	192	3
NMTAP	67	192	5
NMTAP	67	288	3
NMTAP	67	288	6
NMTAP	67	336	3
NMTAP	68	0	2
NMHLD	68	0	7	96
NMTAP	68	96	2
NMHLD	68	144	5	96
NMTAP	68	192	2
NMTAP	68	288	2
NMHLD	68	288	6	96
NMTAP	69	0	2
NMTAP	69	48	1
NMTAP	69	48	7
NMTAP	69	72	2
NMTAP	69	96	3
NMTAP	69	96	7
NMTAP	69	144	2
NMTAP	69	192	2
NMTAP	69	192	5
NMTAP	69	288	2
NMTAP	69	288	6
NMTAP	70	0	1
NMHLD	70	0	7	96
NMTAP	70	96	1
NMHLD	70	144	5	96
NMTAP	70	192	1
NMTAP	70	288	1
NMHLD	70	288	6	96
NMTAP	71	0	1
NMTAP	71	48	0
NMTAP	71	48	7
NMTAP	71	72	1
NMTAP	71	96	2
NMTAP	71	96	7
NMTAP	71	144	3
NMTAP	71	192	3
NMTAP	71	192	5
NMTAP	71	288	2
NMTAP	71	288	6
NMTAP	71	312	1
NMTAP	71	336	0
NMTAP	72	0	0
NMHLD	72	0	7	96
NMTAP	72	96	0
NMHLD	72	144	5	96
NMTAP	72	192	0
NMTAP	72	288	0
NMHLD	72	288	6	96
BRTAP	73	0	0
NMHLD	74	0	0	96
NMTAP	74	0	4
NMTAP	74	96	4
NMHLD	74	144	2	96
NMTAP	74	192	4
NMHLD	74	288	1	96
NMTAP	74	288	4
NMTAP	75	0	4
NMTAP	75	48	0
NMTAP	75	96	0
NMTAP	75	96	4
NMTAP	75	192	2
NMTAP	75	192	4
NMTAP	75	288	1
NMTAP	75	288	4
NMTAP	75	336	4
NMHLD	76	0	0	96
NMTAP	76	0	5
NMTAP	76	96	5
NMHLD	76	144	2	96
NMTAP	76	192	5
NMHLD	76	288	1	96
NMTAP	76	288	5
NMTAP	77	0	5
NMTAP	77	48	0
NMTAP	77	48	6
NMTAP	77	72	5
NMTAP	77	96	0
NMTAP	77	96	4
NMTAP	77	144	5
NMTAP	77	192	2
NMTAP	77	192	5
NMTAP	77	288	1
NMTAP	77	288	5
NMHLD	78	0	0	96
NMTAP	78	0	6
NMTAP	78	96	6
NMHLD	78	144	2	96
NMTAP	78	192	6
NMHLD	78	288	1	96
NMTAP	78	288	6
NMTAP	79	0	6
NMTAP	79	48	0
NMTAP	79	48	7
NMTAP	79	72	6
NMTAP	79	96	0
NMTAP	79	96	5
NMTAP	79	144	4
NMTAP	79	192	2
NMTAP	79	192	4
NMTAP	79	240	3
NMTAP	79	288	2
NMTAP	79	288	4
NMTAP	79	336	3
BRTAP	80	0	0
BRTAP	80	48	0
NMTAP	80	192	3
NMTAP	80	192	4
NMTAP	80	288	3
NMTAP	80	288	4
NMTAP	81	0	7
NMTAP	81	48	7
NMTAP	81	192	1
NMTAP	81	192	4
NMTAP	81	288	3
NMTAP	81	288	6
BRTAP	82	0	0
BRSTR	82	0	1
NMSCR	82	0	1	96	288	4
NMTAP	82	192	7
NMTAP	82	240	7
NMTAP	82	336	6
NMTAP	83	192	3
NMTAP	83	240	2
NMTAP	83	288	1
NMTAP	83	336	0
NMSTR	84	0	6
NMSCL	84	0	6	96	288	3
NMTAP	84	0	7
NMTAP	84	192	0
NMTAP	84	240	0
NMTAP	84	336	1
NMTAP	85	192	4
NMTAP	85	192	5
NMTAP	85	288	6
NMTAP	85	288	7
NMTAP	86	0	0
NMSTR	86	0	1
NMSCR	86	0	1	96	288	4
NMTAP	86	192	7
NMTAP	86	240	7
NMTAP	86	336	6
NMTAP	87	192	3
NMTAP	87	240	2
NMTAP	87	288	1
NMTAP	87	336	0
NMSTR	88	0	6
NMSCL	88	0	6	96	288	3
NMTAP	88	0	7
NMTAP	88	192	0
NMTAP	88	240	0
NMTAP	88	336	1
NMTAP	89	192	4
NMTAP	89	192	5
NMTAP	89	288	6
NMTAP	89	288	7
BRTAP	90	0	0
BRTAP	90	0	1
NMTAP	90	96	0
NMTAP	90	96	1
NMTAP	90	192	0
NMTAP	90	240	1
NMTAP	90	288	0
NMTAP	90	336	1
NMTAP	91	0	2
NMTAP	91	0	7
NMTAP	91	96	0
NMTAP	91	144	1
NMTAP	91	192	2
NMTAP	91	192	7
NMTAP	91	288	0
NMTAP	91	288	1
BRTAP	92	0	6
BRTAP	92	0	7
NMTAP	92	96	7
NMTAP	92	144	6
NMTAP	92	192	7
NMTAP	92	240	6
NMTAP	92	288	7
NMTAP	92	336	6
NMTAP	93	0	0
NMTAP	93	0	5
NMTAP	93	96	7
NMTAP	93	144	6
NMTAP	93	192	0
NMTAP	93	192	5
NMTAP	93	240	0
NMTAP	93	240	5
NMTAP	93	336	6
NMTAP	93	336	7
BRTAP	94	0	4
BRTAP	94	0	5
NMTAP	94	96	4
NMTAP	94	96	5
NMTAP	94	192	4
NMTAP	94	240	5
NMTAP	94	288	4
NMTAP	94	336	5
BRTAP	95	0	2
BRTAP	95	0	3
NMTAP	95	96	3
NMTAP	95	144	2
NMTAP	95	192	1
NMTAP	95	192	4
NMTAP	95	288	2
NMTAP	95	288	3
NMTAP	95	336	1
BRTAP	96	0	0
NMTAP	96	48	1
NMTAP	96	96	2
NMTAP	96	144	3
BRTAP	96	192	4
NMTAP	96	216	5
NMTAP	96	240	6
NMTAP	96	264	7
NMTAP	96	288	0
NMTAP	96	312	1
NMTAP	96	336	2
NMTAP	96	360	3
BRTAP	97	0	4
BRTAP	97	0	5
BRTAP	97	96	0
BRTAP	97	96	7
BRTAP	97	192	0
BRTAP	97	204	1
BRTAP	97	216	2
BRTAP	97	228	3
BRTAP	97	240	4
BRTAP	97	252	5
BRTAP	97	264	6
BRTAP	97	276	7
BRTAP	97	288	0
NMHLD	98	0	0	48
BRTAP	98	0	4
NMHLD	98	96	0	48
BRTAP	98	96	4
NMTAP	98	192	2
BRTAP	98	192	4
NMTAP	98	240	1
NMTAP	98	288	2
BRTAP	98	288	4
NMTAP	98	336	1
NMHLD	99	0	0	48
BRTAP	99	0	4
NMTAP	99	96	2
BRTAP	99	96	4
NMTAP	99	144	1
NMHLD	99	192	0	48
BRTAP	99	192	4
NMTAP	99	288	2
BRTAP	99	288	4
BRTAP	99	336	4
NMHLD	100	0	1	48
BRTAP	100	0	4
NMTAP	100	96	2
BRTAP	100	96	4
NMTAP	100	144	1
NMTAP	100	192	2
BRTAP	100	192	4
NMTAP	100	240	1
NMTAP	100	288	2
BRTAP	100	288	4
NMTAP	100	336	1
NMHLD	101	0	0	48
BRTAP	101	0	4
NMTAP	101	96	1
BRTAP	101	96	4
NMTAP	101	144	1
NMHLD	101	192	0	48
BRTAP	101	192	4
NMTAP	101	288	2
BRTAP	101	288	4
BRTAP	101	336	6
BRTAP	101	360	5
NMHLD	102	0	0	48
BRTAP	102	0	4
NMHLD	102	96	0	48
BRTAP	102	96	4
NMTAP	102	192	2
BRTAP	102	192	4
NMTAP	102	240	1
NMTAP	102	288	2
BRTAP	102	288	4
NMTAP	102	336	1
NMHLD	103	0	0	48
BRTAP	103	0	4
NMTAP	103	96	2
BRTAP	103	96	4
NMTAP	103	144	1
NMHLD	103	192	0	48
BRTAP	103	192	4
NMTAP	103	288	2
BRTAP	103	288	4
NMTAP	103	336	1
BRTAP	103	336	4
NMTAP	104	48	0
NMTAP	104	96	1
NMTAP	104	144	2
NMTAP	104	192	3
BRTAP	104	192	4
NMTAP	104	240	4
BRTAP	104	288	4
NMTAP	104	288	5
NMTAP	104	336	6
NMSTR	105	0	6
NMSI_	105	0	6	96	48	3
NMSTR	105	0	7
NMSI_	105	0	7	96	48	2
NMTAP	105	96	6
NMTAP	105	96	7
BRSTR	105	192	0
NMSI_	105	192	0	96	48	5
BRSTR	105	192	1
NMSI_	105	192	1	96	48	4
BRTAP	105	288	0
BRTAP	105	288	1
BRTAP	106	0	3
NMHLD	106	0	7	48
BRTAP	106	96	3
NMHLD	106	96	7	48
BRTAP	106	192	3
NMTAP	106	192	5
NMTAP	106	240	6
BRTAP	106	288	3
NMTAP	106	288	5
NMTAP	106	336	6
BRTAP	107	0	3
NMHLD	107	0	7	48
BRTAP	107	96	3
NMTAP	107	96	5
NMTAP	107	144	6
BRTAP	107	192	3
NMHLD	107	192	7	48
BRTAP	107	288	3
NMTAP	107	288	5
BRTAP	107	336	3
BRTAP	108	0	3
NMHLD	108	0	6	48
BRTAP	108	96	3
NMTAP	108	96	5
NMTAP	108	144	6
BRTAP	108	192	3
NMTAP	108	192	5
NMTAP	108	240	6
BRTAP	108	288	3
NMTAP	108	288	5
NMTAP	108	336	6
BRTAP	109	0	3
NMHLD	109	0	7	48
BRTAP	109	96	3
NMTAP	109	96	5
NMTAP	109	144	6
BRTAP	109	192	3
NMTAP	109	192	7
BRTAP	109	240	3
NMHLD	109	240	7	48
BRTAP	109	336	1
NMTAP	109	336	7
BRTAP	109	360	2
BRTAP	110	0	3
NMHLD	110	0	6	48
BRTAP	110	96	3
NMHLD	110	96	6	48
BRTAP	110	192	3
NMTAP	110	192	5
NMTAP	110	240	6
BRTAP	110	288	3
NMTAP	110	288	5
NMTAP	110	336	6
BRTAP	111	0	3
NMHLD	111	0	7	48
BRTAP	111	96	3
NMTAP	111	96	5
NMTAP	111	144	6
BRTAP	111	192	3
NMHLD	111	192	7	48
BRTAP	111	288	3
NMTAP	111	288	6
BRTAP	111	336	3
NMTAP	111	336	7
NMTAP	112	48	7
NMTAP	112	96	6
NMTAP	112	144	5
BRTAP	112	192	3
NMTAP	112	192	4
NMTAP	112	240	3
NMTAP	112	288	2
BRTAP	112	288	3
NMTAP	112	336	1
NMTAP	113	0	0
NMTAP	113	0	7
NMTAP	113	96	0
NMTAP	113	96	7
BRTAP	113	192	0
BRTAP	113	204	1
BRTAP	113	216	2
BRTAP	113	228	3
BRTAP	113	240	4
BRTAP	113	252	5
BRTAP	113	264	6
BRTAP	113	276	7
BRSTR	113	288	0
NMSI_	113	288	0	96	48	4
BRTAP	113	288	4
BRTAP	114	0	0
BRTAP	114	0	5
NMSTR	114	48	6
NMSI_	114	48	6	96	48	3
NMTAP	114	96	6
BRTAP	114	144	2
BRTAP	114	144	6
NMSTR	114	192	1
NMSI_	114	192	1	96	48	5
NMTAP	114	240	1
BRTAP	114	288	1
BRTAP	114	288	6
NMSTR	114	336	7
NMSI_	114	336	7	96	48	2
NMTAP	115	0	7
BRTAP	115	48	1
BRTAP	115	48	7
NMSTR	115	96	0
NMSI_	115	96	0	96	48	4
NMTAP	115	144	0
BRTAP	115	192	0
BRTAP	115	192	5
NMTAP	115	240	6
BRTAP	115	288	1
BRSTR	115	288	6
NMSI_	115	288	6	96	48	3
BRTAP	116	0	2
BRTAP	116	0	6
NMSTR	116	48	1
NMSI_	116	48	1	96	48	5
NMTAP	116	96	1
BRTAP	116	144	1
BRTAP	116	144	6
NMSTR	116	192	7
NMSI_	116	192	7	96	48	2
NMTAP	116	240	7
BRTAP	116	288	1
BRTAP	116	288	7
NMSTR	116	336	0
NMSI_	116	336	0	96	48	4
NMTAP	117	0	0
BRTAP	117	48	0
BRTAP	117	48	5
NMSTR	117	96	6
NMSI_	117	96	6	96	48	2
NMTAP	117	144	6
BRTAP	117	192	3
BRTAP	117	192	6
NMTAP	117	240	3
BRSTR	117	288	3
NMSI_	117	288	3	96	48	7
BRTAP	117	288	4
BRTAP	118	0	3
BRTAP	118	0	6
NMSTR	118	48	5
NMSI_	118	48	5	96	48	0
NMTAP	118	96	5
BRTAP	118	144	1
BRTAP	118	144	5
NMSTR	118	192	2
NMSI_	118	192	2	96	48	6
NMTAP	118	240	2
BRTAP	118	288	2
BRTAP	118	288	5
NMSTR	118	336	4
NMSI_	118	336	4	96	48	1
NMTAP	119	0	4
BRTAP	119	48	2
BRTAP	119	48	4
NMSTR	119	96	3
NMSI_	119	96	3	96	48	7
NMTAP	119	144	3
BRTAP	119	192	3
BRTAP	119	192	6
NMTAP	119	240	5
BRTAP	119	288	2
BRSTR	119	288	5
NMSI_	119	288	5	96	48	0
BRTAP	120	0	1
BRTAP	120	0	5
NMSTR	120	48	2
NMSI_	120	48	2	96	48	6
NMTAP	120	96	2
BRTAP	120	144	2
BRTAP	120	144	5
NMSTR	120	192	4
NMSI_	120	192	4	96	48	1
NMTAP	120	240	4
BRTAP	120	288	2
BRTAP	120	288	4
NMSTR	120	336	3
NMSI_	120	336	3	96	48	7
NMTAP	121	0	3
BRTAP	121	48	3
BRTAP	121	48	6
NMSTR	121	96	5
NMSI_	121	96	5	96	48	1
NMTAP	121	144	5
BRTAP	121	192	0
BRTAP	121	192	5
NMTAP	121	240	0
BRSTR	121	288	0
NMSI_	121	288	0	96	48	5
BRTAP	121	288	7
BRTAP	122	0	0
BRTAP	122	0	7
NMSTR	122	48	7
NMSI_	122	48	7	96	48	2
NMTAP	122	96	7
BRTAP	122	144	0
BRTAP	122	144	7
NMSTR	122	192	1
NMSI_	122	192	1	96	24	4
NMTAP	122	240	1
BRTAP	122	288	1
BRTAP	122	288	6
NMSTR	122	336	6
NMSI_	122	336	6	96	48	3
NMTAP	123	0	6
BRTAP	123	48	0
BRTAP	123	48	6
NMSTR	123	96	0
NMSI_	123	96	0	96	48	5
NMTAP	123	144	0
BRTAP	123	192	0
BRTAP	123	192	7
NMTAP	123	240	7
BRTAP	123	288	4
BRSTR	123	288	7
NMSI_	123	288	7	96	48	2
BRTAP	123	312	3
BRTAP	123	336	2
BRTAP	123	360	1
BRTAP	124	0	0
BRTAP	124	0	7
NMSTR	124	48	0
NMSI_	124	48	0	96	48	5
NMTAP	124	96	0
BRTAP	124	144	0
BRTAP	124	144	6
NMSTR	124	192	6
NMSI_	124	192	6	96	48	3
NMTAP	124	240	6
BRTAP	124	288	0
BRTAP	124	288	6
NMSTR	124	336	0
NMSI_	124	336	0	96	48	4
NMTAP	125	0	0
BRTAP	125	48	0
BRTAP	125	48	7
NMSTR	125	96	7
NMSI_	125	96	7	96	48	2
NMTAP	125	144	7
BRTAP	125	192	1
BRTAP	125	192	7
NMTAP	125	240	1
BRTAP	125	288	1
BRTAP	125	288	3
BRTAP	125	312	4
BRTAP	125	336	5
BRTAP	125	360	6
BRTAP	126	0	0
BRTAP	126	0	7
BRTAP	126	48	1
BRTAP	126	96	2
BRTAP	126	144	3
BRTAP	126	144	7
BRTAP	126	192	4
BRTAP	126	240	5
BRTAP	126	288	2
BRTAP	126	288	6
BRTAP	126	336	7
BRTAP	127	0	0
BRTAP	127	24	1
BRTAP	127	48	2
BRTAP	127	48	6
BRTAP	127	72	3
BRTAP	127	96	4
BRTAP	127	120	5
BRTAP	127	144	6
BRTAP	127	168	7
BRTAP	127	192	0
BRTAP	127	192	4
BRTAP	127	204	1
BRTAP	127	216	2
BRTAP	127	228	3
BRTAP	127	240	4
BRTAP	127	252	5
BRTAP	127	264	6
BRTAP	127	276	7
BRTAP	127	288	0
BRTAP	127	288	4
BRTAP	127	300	1
BRTAP	127	312	2
BRTAP	127	324	3
BRTAP	127	336	0
BRTAP	127	336	4
NMTAP	128	48	3
NMTAP	128	48	7
NMTAP	128	96	2
NMTAP	128	96	6
NMTAP	128	144	1
NMTAP	128	144	5
NMTAP	128	192	0
NMTAP	128	192	4
NMTAP	128	240	3
NMTAP	128	240	7
NMTAP	128	288	2
NMTAP	128	288	6
NMTAP	128	336	1
NMTAP	128	336	5
NMSTR	129	0	0
NMSCR	129	0	0	96	240	0
NMTAP	129	0	4
BRTAP	130	0	4

T_REC_TAP	619
T_REC_BRK	301
T_REC_XTP	0
T_REC_BXX	0
T_REC_HLD	44
T_REC_XHO	0
T_REC_BHO	0
T_REC_BXH	0
T_REC_STR	80
T_REC_BST	40
T_REC_XST	0
T_REC_XBS	0
T_REC_TTP	0
T_REC_THO	0
T_REC_SLD	120
T_REC_BSL	0
T_REC_ALL	1204
T_NUM_TAP	699
T_NUM_BRK	341
T_NUM_HLD	44
T_NUM_SLD	120
T_NUM_ALL	1204
T_JUDGE_TAP	1040
T_JUDGE_HLD	45
T_JUDGE_SLD	120
T_JUDGE_ALL	1205
TTM_EACHPAIRS	305
TTM_SCR_TAP	349500
TTM_SCR_BRK	886600
TTM_SCR_HLD	44000
TTM_SCR_SLD	180000
TTM_SCR_ALL	1460100
TTM_SCR_S	1383250
TTM_SCR_SS	1426000
TTM_RAT_ACV	10239

