VERSION	0.00.00	1.04.00
FES_MODE	1
BPM_DEF	160.000	160.000	160.000	160.000
MET_DEF	4	4
RESOLUTION	384
CLK_DEF	384
COMPATIBLE_CODE	MA2

BPM	0	0	160.000
MET	0	0	4	4

NMTTP	1	0	1	E	0	M1
NMTTP	1	96	2	E	0	M1
NMTTP	1	192	3	E	0	M1
NMTTP	1	288	1	B	1	M1
NMSTR	2	0	0
NMSCR	2	0	0	96	96	4
NMTAP	2	192	0
NMTAP	2	288	0
NMSTR	3	0	0
NMSCR	3	0	0	96	96	4
NMTAP	3	192	0
NMSTR	3	288	0
NMSXL	3	288	0	96	288	3
NMSTR	5	0	0
NMSCR	5	0	0	96	96	4
NMTAP	5	192	0
NMTAP	5	288	0
NMSTR	6	0	0
NMSCR	6	0	0	96	96	4
NMTAP	6	192	0
NMTAP	6	288	0
NMSTR	7	0	0
NMSCR	7	0	0	96	96	4
NMTAP	7	192	0
NMSTR	7	288	0
NMSXL	7	288	0	96	288	4
NMTAP	9	0	7
NMTAP	9	96	0
NMTAP	9	192	0
NMTAP	9	288	0
NMTAP	9	288	7
NMHLD	10	0	1	48
NMTAP	10	0	7
NMTAP	10	48	6
NMTAP	10	72	4
NMHLD	10	96	5	48
NMTAP	10	144	2
NMTAP	10	168	3
NMHLD	10	192	1	48
NMTAP	10	240	4
NMTAP	10	264	3
NMHLD	10	288	6	48
NMTAP	10	336	4
NMTAP	10	360	5
NMHLD	11	0	0	48
NMTAP	11	48	3
NMTAP	11	72	2
NMHLD	11	96	6	48
NMTAP	11	144	3
NMTAP	11	168	5
NMSTR	11	192	4
NMSI_	11	192	4	96	48	7
NMTAP	11	240	3
NMTAP	11	288	2
NMTAP	11	288	4
NMTAP	12	0	1
NMSTR	12	0	7
NMSI_	12	0	7	96	48	2
NMTAP	12	48	0
NMSTR	12	48	6
BRSI_	12	48	6	96	32	4
NMTAP	12	96	7
NMTAP	12	144	6
CNSCL	12	176	4	0	16	3
NMSTR	12	192	1
NMSI_	12	192	1	96	48	6
NMSTR	12	240	5
NMSI_	12	240	5	96	48	2
BXTAP	12	288	1
BXTAP	12	336	5
EXHLD	13	0	0	0
EXHLD	13	48	1	0
EXHLD	13	48	7	0
NMTTP	13	96	6	D	0	M1
NMTTP	13	120	2	D	0	M1
NMTTP	13	144	5	D	0	M1
NMTTP	13	168	3	D	0	M1
NMSTR	13	192	7
NMSF_	13	192	7	96	48	3
NMTAP	13	240	0
NMTAP	13	240	6
NMSTR	14	0	6
NMSI_	14	0	6	96	48	4
NMSTR	14	48	7
NMSI_	14	48	7	96	48	3
NMSTR	14	96	6
BRSCR	14	96	6	96	96	4
NMTAP	14	144	7
NMTAP	14	192	6
EXTAP	14	288	0
BXSTR	14	336	0
NMSI_	14	336	0	96	48	4
NMTAP	15	48	0
NMSTR	15	48	6
NMSI_	15	48	6	96	48	2
NMTAP	15	96	7
NMSTR	15	144	0
NMSLR	15	144	0	96	48	4
NMTAP	15	144	6
NMTAP	15	192	7
NMTAP	15	240	0
NMTAP	15	240	6
NMTAP	15	288	6
NMTAP	16	0	2
NMHLD	16	0	7	384
NMTAP	16	48	2
NMTAP	16	96	2
NMTAP	16	144	2
NMTAP	16	192	2
NMTAP	16	240	2
NMTAP	16	288	2
NMTAP	16	336	2
NMTAP	17	0	3
NMTAP	17	12	4
NMTAP	17	24	5
NMTAP	17	36	6
NMTAP	17	48	7
NMTAP	17	60	0
NMTAP	17	72	1
NMTAP	17	84	2
NMTAP	17	96	3
NMTAP	17	108	4
NMTAP	17	120	5
NMTAP	17	132	6
NMTAP	17	144	7
NMTAP	17	156	0
NMTAP	17	168	1
NMTAP	17	180	2
NMSTR	17	192	3
BRSI_	17	192	3	96	48	7
NMSTR	17	192	4
BRSI_	17	192	4	96	48	0
NMTTP	17	288	3	A	0	M1
NMTTP	17	288	4	A	0	M1
NMTTP	17	288	4	D	1	M1
NMSTR	18	0	0
NMSI_	18	0	0	96	48	4
NMSTR	18	0	1
NMSI_	18	0	1	96	48	5
NMTAP	18	48	2
NMTAP	18	48	7
NMSTR	18	192	6
NMSI_	18	192	6	96	48	2
NMSTR	18	192	7
NMSI_	18	192	7	96	48	3
NMTAP	18	240	0
NMTAP	18	240	5
NMTAP	19	0	0
NMSTR	19	0	1
NMSV_	19	0	1	96	48	7
NMTAP	19	48	2
NMSTR	19	48	7
NMSLL	19	48	7	96	48	3
CNSI_	19	192	3	0	48	0
EXTAP	19	240	6
EXTAP	19	288	6
NMSTR	20	0	1
NMSI_	20	0	1	96	48	4
NMSTR	20	0	7
NMSI_	20	0	7	96	48	3
NMTAP	20	48	2
NMTAP	20	48	6
NMSTR	20	96	1
NMSI_	20	96	1	96	48	6
NMTAP	20	192	1
NMSTR	20	192	5
NMSI_	20	192	5	96	48	2
NMSTR	20	288	0
NMSI_	20	288	0	96	48	4
NMTAP	20	288	5
NMTAP	21	0	0
NMSTR	21	0	5
NMSI_	21	0	5	96	48	0
NMSTR	21	96	1
NMSCR	21	96	1	96	96	0
NMTAP	21	96	5
NMTTP	21	192	0	C	1	M1
NMSTR	22	0	0
NMSI_	22	0	0	96	48	5
NMSTR	22	48	0
NMSI_	22	48	0	96	48	3
NMSTR	22	96	0
BRSI_	22	96	0	96	48	4
CNSCR	22	240	4	0	48	7
NMSTR	22	288	1
NMSI_	22	288	1	96	48	3
NMTAP	22	336	1
CNSI_	23	48	3	0	48	0
NMTAP	23	48	4
CNSI_	23	96	0	0	48	4
NMTAP	23	96	5
NMTAP	23	144	6
NMSTR	23	192	7
NMSF_	23	192	7	96	48	3
BRTAP	23	288	7
NMTAP	24	0	4
NMTAP	24	48	4
NMTAP	24	72	3
NMTAP	24	96	2
NMHLD	24	192	1	48
NMHLD	24	192	3	48
NMHLD	24	288	1	48
NMHLD	24	288	3	48
NMTAP	25	0	4
NMTAP	25	48	4
NMTAP	25	72	3
NMTAP	25	96	2
NMHLD	25	192	1	48
NMHLD	25	192	3	48
NMHLD	25	288	1	48
NMHLD	25	288	3	48
NMTAP	26	0	4
NMTAP	26	48	4
NMTAP	26	72	3
NMTAP	26	96	2
NMHLD	26	192	1	48
NMHLD	26	192	3	48
NMHLD	26	288	1	48
NMHLD	26	288	3	48
NMTAP	27	0	4
NMTAP	27	48	4
NMTAP	27	72	3
NMTAP	27	96	2
NMHLD	27	192	2	48
NMHLD	27	192	3	48
NMHLD	27	288	2	48
NMHLD	27	288	3	48
NMTAP	28	0	4
NMTAP	28	48	4
NMTAP	28	72	3
NMTAP	28	96	2
NMHLD	28	192	1	48
NMHLD	28	192	3	48
NMHLD	28	288	1	48
NMHLD	28	288	3	48
NMTAP	29	0	4
NMTAP	29	48	4
NMTAP	29	72	3
NMTAP	29	96	2
NMHLD	29	192	1	48
NMHLD	29	192	3	48
NMHLD	29	288	1	48
NMHLD	29	288	3	48
NMTAP	30	0	4
NMTAP	30	48	4
NMTAP	30	72	3
NMTAP	30	96	2
NMHLD	30	192	1	48
NMHLD	30	192	3	48
NMHLD	30	288	1	48
NMHLD	30	288	3	48
NMSTR	31	0	2
NMSCR	31	0	2	96	48	5
NMTAP	31	192	6
NMTAP	31	288	0
NMTAP	31	288	7
NMTAP	32	0	6
NMTAP	32	24	3
NMTAP	32	48	6
NMTAP	32	72	3
NMTAP	32	96	5
NMTAP	32	120	4
NMTAP	32	144	5
NMTAP	32	168	4
NMTAP	32	192	7
NMTAP	32	216	2
NMTAP	32	240	0
NMTAP	32	264	1
NMTAP	32	288	7
NMTAP	32	312	2
NMTAP	32	336	0
NMTAP	32	360	1
NMTAP	33	0	7
NMTAP	33	24	6
NMTAP	33	48	5
NMTAP	33	72	4
NMTAP	33	96	0
NMTAP	33	120	1
NMTAP	33	144	2
NMTAP	33	168	3
BRTAP	33	192	6
BRTAP	33	224	6
BRTAP	33	256	6
BRTAP	33	288	3
BRTAP	33	320	3
BRTAP	33	352	3
NMHLD	34	0	5	32
NMHLD	34	64	5	32
NMHLD	34	128	5	32
NMTAP	34	192	4
NMHLD	34	192	5	32
NMHLD	34	256	5	32
NMTAP	34	288	4
NMHLD	34	320	5	32
NMHLD	35	0	3	32
NMTAP	35	0	4
NMTAP	35	48	4
NMHLD	35	64	3	32
NMHLD	35	128	3	32
NMTAP	35	144	4
NMHLD	35	192	4	32
NMHLD	35	256	4	32
NMHLD	35	320	4	32
NMTAP	35	336	3
EXSTR	36	0	7
NMSI_	36	0	7	96	48	3
NMSTR	36	96	7
NMSI_	36	96	7	96	48	4
NMTAP	36	144	4
NMTAP	36	168	4
NMSTR	36	192	7
NMSI_	36	192	7	96	48	2
NMTAP	36	240	2
NMTAP	36	264	2
NMSTR	36	288	7
NMSI_	36	288	7	96	48	5
NMTAP	36	336	4
NMTAP	36	360	4
NMSTR	37	0	7
NMSI_	37	0	7	96	48	3
NMTAP	37	48	2
NMTAP	37	72	2
NMTAP	37	96	7
NMTAP	37	144	1
NMTAP	37	168	1
NMTAP	37	192	4
NMTAP	37	216	2
NMTAP	37	240	5
NMTAP	37	264	3
NMSTR	37	288	6
NMSCR	37	288	6	96	48	1
BRTAP	38	0	1
NMTAP	38	0	6
NMSTR	38	96	2
NMSCL	38	96	2	96	48	6
NMTAP	38	192	2
BRTAP	38	192	6
NMSTR	38	288	4
NMSCR	38	288	4	96	48	1
BRTAP	39	0	1
NMTAP	39	0	4
NMSTR	39	96	2
NMSCL	39	96	2	96	84	4
NMTTP	39	192	0	C	1	M1
BRTAP	39	192	2
NMTTP	39	204	2	E	0	M1
NMTTP	39	216	1	E	0	M1
NMTTP	39	228	0	E	0	M1
NMTTP	39	240	7	E	0	M1
NMTTP	39	252	6	E	0	M1
NMTTP	39	264	5	E	0	M1
NMSTR	40	0	2
NMSI_	40	0	2	96	32	6
NMTAP	40	48	3
NMTAP	40	72	3
NMTAP	40	96	2
NMTAP	40	144	3
NMSTR	40	192	3
NMSI_	40	192	3	96	32	7
NMTAP	40	240	4
NMTAP	40	264	4
NMTAP	40	288	3
NMTAP	40	336	4
NMSTR	41	0	4
NMSI_	41	0	4	96	32	0
NMTAP	41	48	5
NMTAP	41	72	5
NMTAP	41	96	4
NMTAP	41	144	5
NMTAP	41	192	0
NMTAP	41	208	4
NMTAP	41	224	0
NMTAP	41	240	4
NMTAP	41	256	0
NMTAP	41	272	4
NMTAP	41	288	0
NMTAP	41	300	1
NMTAP	41	312	2
NMTAP	41	324	3
NMTAP	41	336	4
NMTAP	41	348	5
NMTAP	41	360	6
NMTAP	41	372	7
NMSTR	42	0	0
NMSI_	42	0	0	96	64	4
NMHLD	42	0	4	64
NMTAP	42	96	0
NMTAP	42	96	4
NMTAP	42	128	5
NMTAP	42	160	6
NMHLD	42	192	3	64
NMSTR	42	192	7
NMSI_	42	192	7	96	64	3
NMTAP	42	288	3
NMTAP	42	288	7
NMTAP	42	320	2
NMTAP	42	352	1
NMSTR	43	0	0
NMSI_	43	0	0	96	32	3
NMSTR	43	48	4
NMSI_	43	48	4	96	32	7
NMTAP	43	96	0
NMTAP	43	144	4
NMSTR	43	192	2
NMSCR	43	192	2	96	48	5
NMSUR	43	192	2	96	48	6
NMTAP	43	240	1
NMTAP	43	288	2
NMTTP	44	0	0	A	0	M1
NMTTP	44	0	1	E	1	M1
NMTTP	44	0	1	D	0	M1
NMTTP	44	48	4	B	0	M1
NMTTP	44	48	4	A	0	M1
NMTTP	44	48	5	E	1	M1
NMTTP	44	96	3	B	0	M1
NMTTP	44	96	3	E	1	M1
NMTTP	44	96	3	A	0	M1
NMTTP	44	144	7	E	1	M1
NMTTP	44	144	7	A	0	M1
NMTTP	44	144	7	D	0	M1
NMTTP	44	192	2	E	1	M1
NMTTP	44	192	2	A	0	M1
NMTTP	44	192	2	D	0	M1
NMTTP	44	240	5	A	0	M1
NMTTP	44	240	6	E	1	M1
NMTTP	44	240	6	D	0	M1
NMTTP	44	288	3	B	0	M1
NMTTP	44	288	4	B	0	M1
NMTTP	44	288	4	E	1	M1
NMTHO	44	336	0	336	C	1	M1
NMSTR	45	192	0
NMSI_	45	192	0	96	48	4
BRTAP	45	288	0
NMSTR	46	0	7
NMSCL	46	0	7	96	48	5
NMSTR	46	96	1
NMSCR	46	96	1	96	48	3
NMSTR	46	192	6
NMSCL	46	192	6	96	48	4
NMSTR	46	288	7
NMSCR	46	288	7	96	48	1
NMSTR	47	0	3
NMSCR	47	0	3	96	48	5
NMSTR	47	96	7
NMSSR	47	96	7	96	96	3
NMSTR	48	0	1
NMSCR	48	0	1	96	96	4
NMSTR	48	96	4
NMSUR	48	96	4	96	96	6
NMSTR	48	192	6
NMSCR	48	192	6	96	96	1
NMSTR	49	0	6
NMSCL	49	0	6	96	96	3
NMSTR	49	96	3
NMSUL	49	96	3	96	96	1
NMSTR	49	192	1
NMSCL	49	192	1	96	96	6
NMTAP	50	48	2
NMTAP	50	96	2
NMTAP	50	144	3
NMHLD	50	192	1	96
NMTAP	50	288	3
NMTAP	50	336	4
NMHLD	51	0	2	48
NMHLD	51	0	4	48
NMHLD	51	96	1	48
NMHLD	51	96	3	48
NMHLD	51	192	0	48
NMHLD	51	192	2	48
NMSTR	51	288	7
NMSCR	51	288	7	96	288	4
NMHLD	51	336	7	432
NMTAP	53	192	0
NMTAP	53	192	1
NMTAP	53	288	1
NMTAP	53	288	3
NMTAP	53	336	1
NMTAP	53	336	3
NMTAP	54	48	2
NMTAP	54	96	2
NMTAP	54	144	3
NMHLD	54	192	1	96
NMTAP	54	288	3
NMTAP	54	336	4
NMHLD	55	0	2	48
NMHLD	55	0	4	48
NMHLD	55	96	1	48
NMHLD	55	96	3	48
NMHLD	55	192	0	48
NMHLD	55	192	2	48
NMSTR	55	288	7
NMSI_	55	288	7	96	96	4
NMHLD	55	336	7	432
CNSI_	56	96	4	0	96	0
CNSI_	56	192	0	0	96	3
CNSI_	56	288	3	0	96	1
NMTAP	57	192	5
NMTAP	57	240	4
NMTAP	57	288	2
NMTAP	57	336	1
NMTAP	58	0	5
NMTAP	58	48	0
NMTAP	58	60	1
NMTAP	58	72	2
NMTAP	58	84	3
BRTAP	58	96	7
NMTAP	58	144	0
NMTAP	58	156	1
NMTAP	58	168	2
NMTAP	58	180	3
BRTAP	58	192	6
NMTAP	58	240	0
NMTAP	58	252	1
NMTAP	58	264	2
NMTAP	58	276	3
BRTAP	58	288	5
NMTAP	58	336	0
NMTAP	58	348	1
NMTAP	58	360	2
NMTAP	58	372	3
BRTAP	59	0	4
NMTAP	59	12	5
NMTAP	59	24	6
NMTAP	59	36	7
NMTAP	59	48	0
NMTAP	59	60	1
NMTAP	59	72	2
NMTAP	59	84	3
BRTAP	59	96	4
NMTAP	59	108	5
NMTAP	59	120	6
NMTAP	59	132	7
NMTAP	59	144	0
NMTAP	59	156	1
NMTAP	59	168	2
NMTAP	59	180	3
BRSTR	59	192	4
NMSI_	59	192	4	96	48	0
BRTAP	59	288	7
NMTAP	60	0	0
NMTAP	60	0	4
NMTAP	60	48	2
NMTAP	60	72	3
NMSTR	60	96	1
NMSCR	60	96	1	192	48	4
NMSTR	60	144	7
NMSI_	60	144	7	192	48	3
NMTAP	60	168	0
NMTAP	60	192	7
NMTAP	60	240	3
NMTAP	60	240	5
NMTAP	60	288	1
NMTAP	60	336	7
NMTAP	61	0	0
NMTAP	61	48	2
NMTAP	61	72	3
NMSTR	61	96	1
NMSI_	61	96	1	192	48	7
NMSTR	61	144	6
NMSI_	61	144	6	192	48	2
NMTAP	61	168	7
NMTAP	61	192	5
NMTAP	61	240	2
NMTAP	61	240	4
NMTAP	61	288	1
NMTAP	61	336	6
NMSTR	62	0	1
NMSI_	62	0	1	96	48	5
NMTAP	62	48	3
NMSTR	62	48	5
NMSLR	62	48	5	96	48	1
NMTAP	62	96	6
NMTAP	62	144	4
NMSTR	62	192	3
NMSI_	62	192	3	96	48	7
NMTAP	62	240	4
NMSTR	62	240	7
NMSCL	62	240	7	96	48	3
NMTAP	62	288	2
NMTAP	62	336	0
NMSTR	63	0	2
NMSI_	63	0	2	96	48	5
NMTAP	63	48	1
NMSTR	63	48	5
NMSLL	63	48	5	96	48	1
NMTAP	63	96	6
NMTAP	63	144	7
NMSTR	63	192	6
NMSI_	63	192	6	96	48	3
NMSTR	63	240	0
NMSI_	63	240	0	96	48	2
NMTAP	63	240	4
NMTAP	63	288	3
NMTAP	63	288	6
NMTAP	63	336	0
NMHLD	64	0	4	384
NMTAP	64	96	5
NMTAP	64	144	5
NMTAP	64	192	5
NMTAP	64	240	5
NMTAP	64	288	5
NMTAP	64	336	5
NMTAP	65	0	5
NMTAP	65	16	6
NMTAP	65	32	7
NMTAP	65	48	0
NMTAP	65	64	1
NMTAP	65	80	2
NMTAP	65	96	5
NMTAP	65	112	6
NMTAP	65	128	7
NMTAP	65	144	0
NMTAP	65	160	1
NMTAP	65	176	2
NMSTR	65	192	5
NMSI_	65	192	5	96	48	1
NMTAP	65	208	6
NMTAP	65	224	7
NMTAP	65	240	0
NMTAP	65	256	1
NMTAP	65	272	2
BRTAP	65	288	3
BRTAP	65	288	5
BRSTR	66	0	0
NMSI_	66	0	0	96	48	5
BRTAP	66	0	7
NMSTR	66	96	0
NMSI_	66	96	0	96	48	4
NMTAP	66	144	4
NMTAP	66	192	0
NMTAP	66	240	7
NMSTR	66	288	0
NMSI_	66	288	0	96	48	5
NMTAP	66	304	1
NMTAP	66	320	2
NMTAP	66	336	3
NMTAP	66	336	5
BRSTR	67	0	0
NMSCR	67	0	0	96	48	3
NMTAP	67	48	4
NMSTR	67	96	0
NMSI_	67	96	0	96	48	4
NMTAP	67	144	4
NMTAP	67	192	0
NMTAP	67	240	7
NMTAP	67	288	0
NMTAP	67	304	1
NMTAP	67	320	2
NMTAP	67	336	3
NMTAP	67	336	5
BRTAP	68	0	0
BRSTR	68	0	7
NMSI_	68	0	7	96	48	2
NMSTR	68	96	7
NMSI_	68	96	7	96	48	3
NMTAP	68	144	3
NMTAP	68	192	7
NMTAP	68	240	0
NMSTR	68	288	7
NMSI_	68	288	7	96	48	2
NMTAP	68	304	6
NMTAP	68	320	5
NMTAP	68	336	2
NMTAP	68	336	4
BRSTR	69	0	7
NMSCL	69	0	7	96	48	4
NMTAP	69	48	3
NMSTR	69	96	7
NMSI_	69	96	7	96	48	3
NMTAP	69	144	3
NMTAP	69	192	7
NMTAP	69	240	0
NMTAP	69	288	7
NMTAP	69	304	6
NMTAP	69	320	5
NMTAP	69	336	2
NMTAP	69	336	4
BRSTR	70	0	2
NMSCL	70	0	2	96	36	7
NMTAP	70	96	6
NMTAP	70	108	5
NMTAP	70	120	4
NMTAP	70	132	3
NMTAP	70	144	6
NMTAP	70	156	5
NMTAP	70	168	4
NMTAP	70	180	3
BRSTR	70	192	2
NMSCL	70	192	2	96	36	7
NMTAP	70	288	6
NMTAP	70	300	5
NMTAP	70	312	4
NMTAP	70	324	3
NMTAP	70	336	6
NMTAP	70	348	5
NMTAP	70	360	4
NMTAP	70	372	3
BRSTR	71	0	2
NMSCL	71	0	2	96	36	7
NMTAP	71	96	6
NMTAP	71	108	5
NMTAP	71	120	4
NMTAP	71	132	3
NMTAP	71	144	6
NMTAP	71	156	5
NMTAP	71	168	4
NMTAP	71	180	3
BRTAP	71	192	2
NMSTR	71	288	5
NMSI_	71	288	5	96	48	0
NMSTR	71	336	3
NMSI_	71	336	3	96	48	7
NMSTR	72	0	5
NMSI_	72	0	5	96	48	3
NMTAP	72	48	3
NMTAP	72	96	5
NMSTR	72	144	0
NMSI_	72	144	0	96	48	5
NMSTR	72	192	1
NMSI_	72	192	1	96	48	4
NMTAP	72	240	0
NMTAP	72	288	1
NMSTR	72	336	6
NMSI_	72	336	6	96	48	3
NMSTR	73	0	0
NMSI_	73	0	0	96	48	4
NMSTR	73	48	6
NMSI_	73	48	6	96	48	0
NMTAP	73	96	0
NMTAP	73	144	6
NMSTR	73	192	1
NMSF_	73	192	1	96	48	5
NMTAP	74	0	6
NMTAP	74	24	6
NMTAP	74	48	4
NMTAP	74	72	4
NMTAP	74	96	5
NMTAP	74	120	5
NMTAP	74	144	2
NMTAP	74	168	2
NMTAP	74	192	3
NMTAP	74	216	3
NMTAP	74	240	1
NMTAP	74	264	1
NMTAP	74	288	6
NMTAP	74	312	6
NMTAP	74	336	0
NMTAP	74	360	0
BRSTR	75	0	7
NMSF_	75	0	7	96	48	3
BRTAP	75	96	7
BRSTR	75	192	1
NMSI_	75	192	1	96	48	4
BRSTR	75	192	5
NMSI_	75	192	5	96	48	2
BRTAP	75	288	1
BRTAP	75	288	5
NMSTR	76	0	0
NMSI_	76	0	0	96	48	4
NMSTR	76	48	7
NMSI_	76	48	7	96	48	3
BRSTR	76	96	0
NMSCR	76	96	0	96	48	3
BRSTR	76	144	7
NMSCL	76	144	7	96	48	4
BRTAP	76	192	0
BRTAP	76	240	7
BRTAP	76	288	0
EXTAP	76	300	1
EXTAP	76	312	2
EXTAP	76	324	3
BRTAP	76	336	7
EXTAP	76	348	6
EXTAP	76	360	5
EXTAP	76	372	4
NMSTR	77	0	1
NMSI_	77	0	1	96	48	5
NMSTR	77	48	0
NMSI_	77	48	0	96	48	4
BRSTR	77	96	1
NMSCR	77	96	1	96	48	4
BRSTR	77	144	0
NMSCL	77	144	0	96	48	5
BRTAP	77	192	1
BRTAP	77	240	0
BRTAP	77	288	1
EXTAP	77	300	2
EXTAP	77	312	3
EXTAP	77	324	4
BRTAP	77	336	0
EXTAP	77	348	7
EXTAP	77	360	6
EXTAP	77	372	5
BRTAP	78	0	2
NMTAP	78	24	6
NMTAP	78	48	2
NMTAP	78	72	6
BRTAP	78	96	1
NMTAP	78	120	5
NMTAP	78	144	1
NMTAP	78	168	5
BRTAP	78	192	0
NMTAP	78	216	4
BRTAP	78	240	0
NMTAP	78	264	4
BRTAP	78	288	7
NMTAP	78	312	3
BRTAP	78	336	7
NMTAP	78	360	3
EXTAP	79	0	0
BRTAP	79	0	4
EXTAP	79	12	1
EXTAP	79	12	5
EXTAP	79	24	2
EXTAP	79	24	6
EXTAP	79	36	3
EXTAP	79	36	7
BRTAP	79	48	0
EXTAP	79	60	1
EXTAP	79	72	2
EXTAP	79	84	3
EXTAP	79	96	0
BRTAP	79	96	4
EXTAP	79	108	1
EXTAP	79	108	5
EXTAP	79	120	2
EXTAP	79	120	6
EXTAP	79	132	3
EXTAP	79	132	7
BRTAP	79	144	0
EXTAP	79	156	1
EXTAP	79	168	2
EXTAP	79	180	3
BRSTR	79	192	0
BRSF_	79	192	0	96	48	4
NMTTP	79	288	0	B	0	M1
NMTTP	79	288	0	C	1	M1
NMTTP	79	288	0	E	0	M1
NMTTP	79	288	0	A	0	M1
NMTTP	79	288	0	D	0	M1
NMTTP	79	288	1	B	0	M1
NMTTP	79	288	1	E	0	M1
NMTTP	79	288	1	A	0	M1
NMTTP	79	288	1	D	0	M1
NMTTP	79	288	2	B	0	M1
NMTTP	79	288	2	E	0	M1
NMTTP	79	288	2	A	0	M1
NMTTP	79	288	2	D	0	M1
NMTTP	79	288	3	B	0	M1
NMTTP	79	288	3	E	0	M1
NMTTP	79	288	3	A	0	M1
NMTTP	79	288	3	D	0	M1
NMTTP	79	288	4	B	0	M1
NMTTP	79	288	4	E	0	M1
NMTTP	79	288	4	A	0	M1
NMTTP	79	288	4	D	0	M1
NMTTP	79	288	5	B	0	M1
NMTTP	79	288	5	E	0	M1
NMTTP	79	288	5	A	0	M1
NMTTP	79	288	5	D	0	M1
NMTTP	79	288	6	B	0	M1
NMTTP	79	288	6	E	0	M1
NMTTP	79	288	6	A	0	M1
NMTTP	79	288	6	D	0	M1
NMTTP	79	288	7	B	0	M1
NMTTP	79	288	7	E	0	M1
NMTTP	79	288	7	A	0	M1
NMTTP	79	288	7	D	0	M1

T_REC_TAP	395
T_REC_BRK	44
T_REC_XTP	35
T_REC_BXX	2
T_REC_HLD	66
T_REC_XHO	3
T_REC_BHO	0
T_REC_BXH	0
T_REC_STR	102
T_REC_BST	16
T_REC_XST	1
T_REC_XBS	1
T_REC_TTP	73
T_REC_THO	1
T_REC_SLD	115
T_REC_BSL	6
T_REC_ALL	860
T_NUM_TAP	606
T_NUM_BRK	69
T_NUM_HLD	70
T_NUM_SLD	115
T_NUM_ALL	860
T_JUDGE_TAP	669
T_JUDGE_HLD	110
T_JUDGE_SLD	121
T_JUDGE_ALL	900
TTM_EACHPAIRS	82
TTM_SCR_TAP	303000
TTM_SCR_BRK	179400
TTM_SCR_HLD	70000
TTM_SCR_SLD	172500
TTM_SCR_ALL	724900
TTM_SCR_S	696500
TTM_SCR_SS	718000
TTM_RAT_ACV	10096

