VERSION	0.00.00	1.04.00
FES_MODE	0
BPM_DEF	256.000	256.000	256.000	256.000
MET_DEF	4	4
RESOLUTION	384
CLK_DEF	384
COMPATIBLE_CODE	MA2

BPM	0	0	256.000
MET	0	0	4	4

NMSTR	2	0	3
NMSI_	2	0	3	96	144	0
NMTAP	2	192	7
NMTAP	2	240	6
NMTAP	2	336	5
NMTAP	3	192	0
NMTAP	3	240	1
NMTAP	3	288	2
NMTAP	3	336	3
NMSTR	4	0	4
NMSI_	4	0	4	96	144	7
NMTAP	4	192	0
NMTAP	4	240	1
NMTAP	4	336	2
NMTAP	5	192	1
NMTAP	5	192	4
NMTAP	5	240	2
NMTAP	5	288	3
NMTAP	5	288	6
NMTAP	5	336	5
NMTAP	6	0	1
NMSTR	6	0	4
NMSI_	6	0	4	96	144	7
NMTAP	6	192	0
NMTAP	6	240	1
NMTAP	6	336	2
NMTAP	7	192	7
NMTAP	7	240	6
NMTAP	7	288	5
NMTAP	7	336	4
NMSTR	8	0	3
NMSI_	8	0	3	96	144	0
NMTAP	8	192	7
NMTAP	8	240	6
NMTAP	8	336	5
NMTAP	9	192	3
NMSTR	9	192	6
NMSI_	9	192	6	96	48	4
NMSTR	9	288	1
NMSLR	9	288	1	96	576	7
NMTAP	9	288	6
BRTAP	10	0	6
NMTAP	10	96	6
NMTAP	10	192	0
NMTAP	10	288	0
NMTAP	11	0	5
NMTAP	11	96	5
NMTAP	11	192	1
NMSTR	11	288	6
NMSLL	11	288	6	96	576	0
BRTAP	12	0	0
NMTAP	12	96	0
NMTAP	12	192	7
NMTAP	12	288	7
NMTAP	13	0	1
NMTAP	13	96	1
NMTAP	13	192	6
NMSTR	13	288	1
NMSLR	13	288	1	96	288	7
BRTAP	14	0	6
NMTAP	14	96	0
NMTAP	14	192	5
NMSTR	14	288	6
NMSLL	14	288	6	96	288	0
BRTAP	15	0	1
NMTAP	15	96	7
NMTAP	15	192	2
NMSTR	15	288	2
NMSV_	15	288	2	96	72	7
BRTAP	16	0	0
NMSTR	16	96	5
NMSV_	16	96	5	96	72	0
BRTAP	16	192	7
NMTAP	16	288	2
BRTAP	17	0	4
BRTAP	17	0	6
BRTAP	17	96	1
BRTAP	17	96	3
BRSTR	17	192	3
NMSI_	17	192	3	96	48	1
BRSTR	17	192	4
NMSI_	17	192	4	96	48	6
BRTAP	17	288	3
BRTAP	17	288	4
NMSTR	18	0	0
NMSI_	18	0	0	96	48	2
NMSTR	18	96	0
NMSI_	18	96	0	96	48	3
NMTAP	18	192	0
NMHLD	18	288	0	96
NMSTR	19	0	7
NMSI_	19	0	7	96	48	5
NMSTR	19	96	7
NMSI_	19	96	7	96	48	4
NMTAP	19	192	7
NMTAP	19	288	6
NMTAP	19	336	6
NMSTR	20	0	0
NMSI_	20	0	0	96	48	2
NMSTR	20	96	0
NMSI_	20	96	0	96	48	3
NMTAP	20	192	0
NMHLD	20	288	0	96
BRTAP	21	0	7
BRTAP	21	16	6
BRTAP	21	32	5
BRTAP	21	48	4
BRTAP	21	64	3
BRTAP	21	80	2
BRSTR	21	96	1
NMSI_	21	96	1	96	48	4
BRTAP	21	192	1
BRTAP	21	288	0
BRTAP	21	288	7
NMSTR	22	0	6
NMSI_	22	0	6	96	48	4
NMSTR	22	96	6
NMSI_	22	96	6	96	48	3
NMSTR	22	192	6
NMSI_	22	192	6	96	48	2
NMTAP	22	288	6
NMSTR	23	0	1
NMSI_	23	0	1	96	48	3
NMSTR	23	96	1
NMSI_	23	96	1	96	48	4
NMSTR	23	192	1
NMSI_	23	192	1	96	48	5
NMTAP	23	288	1
NMTAP	24	0	7
NMTAP	24	48	6
NMTAP	24	96	0
NMTAP	24	144	1
NMTAP	24	192	6
NMTAP	24	240	5
NMTAP	24	288	1
NMTAP	24	336	2
NMTAP	25	0	5
NMTAP	25	48	4
NMTAP	25	96	2
NMTAP	25	144	3
NMTAP	25	192	5
NMTAP	25	240	4
NMTAP	25	288	2
NMTAP	25	336	3
NMSTR	26	0	4
NMSCR	26	0	4	96	144	2
NMTAP	26	144	3
NMSTR	26	192	3
NMSI_	26	192	3	96	48	7
NMTAP	26	288	3
NMTAP	27	0	0
NMHLD	27	96	1	192
NMHLD	27	144	6	144
NMSTR	28	0	7
NMSI_	28	0	7	96	48	5
NMSTR	28	96	7
NMSI_	28	96	7	96	48	4
NMTAP	28	144	0
NMTAP	28	192	7
NMHLD	28	288	7	96
BRTAP	29	0	0
BRTAP	29	16	1
BRTAP	29	32	2
BRTAP	29	48	3
BRTAP	29	64	4
BRTAP	29	80	5
BRSTR	29	96	6
NMSI_	29	96	6	96	48	3
BRTAP	29	192	6
BRTAP	29	288	0
BRTAP	29	288	7
NMSTR	30	0	1
NMSI_	30	0	1	96	96	4
NMTAP	30	0	4
NMSTR	30	96	4
NMSI_	30	96	4	96	96	0
NMTAP	30	192	0
NMTAP	30	288	4
NMTAP	31	0	3
NMSTR	31	0	6
NMSI_	31	0	6	96	96	3
NMSTR	31	96	3
NMSI_	31	96	3	96	96	7
BRTAP	31	192	7
BRTAP	31	288	3
NMSTR	32	0	3
NMSI_	32	0	3	96	48	6
NMTAP	32	48	3
NMSTR	32	96	4
NMSI_	32	96	4	96	48	1
NMTAP	32	144	4
NMSTR	32	192	2
NMSI_	32	192	2	96	48	7
NMTAP	32	240	2
NMSTR	32	288	5
NMSI_	32	288	5	96	48	0
NMTAP	32	336	5
NMTAP	33	0	1
NMTAP	33	48	2
NMTAP	33	96	3
NMTAP	33	144	0
NMTAP	33	192	6
NMTAP	33	240	5
NMTAP	33	288	4
NMTAP	33	336	7
NMSTR	34	0	2
NMSI_	34	0	2	96	48	0
NMTAP	34	0	4
NMTAP	34	96	2
NMTAP	34	96	7
NMSTR	34	192	2
NMSI_	34	192	2	96	48	7
NMTAP	34	192	5
NMTAP	34	288	2
NMTAP	34	288	6
NMTAP	35	0	6
NMTAP	35	48	3
NMTAP	35	96	6
NMTAP	35	144	2
NMTAP	35	192	6
NMTAP	35	240	1
NMTAP	35	288	6
NMTAP	35	336	0
NMTAP	36	0	3
NMSTR	36	0	5
NMSI_	36	0	5	96	48	7
NMTAP	36	96	0
NMTAP	36	96	5
NMTAP	36	192	2
NMSTR	36	192	5
NMSI_	36	192	5	96	48	0
NMTAP	36	288	1
NMTAP	36	288	5
NMTAP	37	0	1
NMTAP	37	48	4
NMTAP	37	96	1
NMTAP	37	144	5
NMTAP	37	192	1
NMTAP	37	240	6
NMTAP	37	288	1
NMTAP	37	336	7
NMSTR	38	0	1
NMSCR	38	0	1	96	48	4
NMTAP	38	0	7
NMTAP	38	96	1
NMTAP	38	96	5
NMTAP	38	192	0
NMSTR	38	192	6
NMSCL	38	192	6	96	48	3
NMTAP	38	288	2
NMTAP	38	288	6
NMTAP	39	0	0
NMTAP	39	0	2
NMTAP	39	48	2
NMTAP	39	96	3
NMTAP	39	96	4
NMTAP	39	144	4
NMTAP	39	192	5
NMTAP	39	192	7
NMTAP	39	240	5
NMTAP	39	288	3
NMTAP	39	288	4
NMTAP	39	336	3
NMTAP	40	0	5
NMTAP	40	24	4
NMTAP	40	48	5
NMTAP	40	96	0
NMTAP	40	144	7
NMTAP	40	192	2
NMTAP	40	216	3
NMTAP	40	240	2
NMTAP	40	288	7
NMTAP	40	336	0
NMTAP	41	0	6
NMTAP	41	48	4
NMTAP	41	96	2
NMTAP	41	144	0
NMTAP	41	192	6
NMTAP	41	192	7
NMTAP	41	240	4
NMTAP	41	240	5
NMTAP	41	288	2
NMTAP	41	288	3
NMTAP	41	336	0
NMTAP	41	336	1
NMSTR	42	0	6
NMSI_	42	0	6	96	48	3
NMTAP	42	48	3
NMTAP	42	96	6
NMSTR	42	192	1
NMSI_	42	192	1	96	48	4
NMTAP	42	240	4
NMTAP	42	288	1
NMTAP	43	0	5
NMTAP	43	48	4
NMTAP	43	48	5
NMTAP	43	96	2
NMTAP	43	144	2
NMTAP	43	144	3
NMTAP	43	192	6
NMTAP	43	240	5
NMTAP	43	240	7
NMTAP	43	288	1
NMTAP	43	336	0
NMTAP	43	336	2
NMSTR	44	0	7
NMSI_	44	0	7	96	48	2
NMTAP	44	48	2
NMTAP	44	96	7
NMSTR	44	192	0
NMSI_	44	192	0	96	48	5
NMTAP	44	240	5
NMTAP	44	288	0
NMTAP	45	0	6
NMTAP	45	48	6
NMTAP	45	48	7
NMTAP	45	96	1
NMTAP	45	144	0
NMTAP	45	144	1
NMTAP	45	192	5
NMTAP	45	240	4
NMTAP	45	240	6
NMTAP	45	288	2
NMTAP	45	336	1
NMTAP	45	336	3
NMSTR	46	0	6
NMSCL	46	0	6	96	48	4
NMTAP	46	48	3
NMTAP	46	96	6
NMSTR	46	192	1
NMSCR	46	192	1	96	48	3
NMTAP	46	240	5
NMTAP	46	288	1
BRTAP	47	0	4
NMSTR	47	0	7
NMSCL	47	0	7	96	32	4
BRTAP	47	32	3
BRTAP	47	64	2
BRTAP	47	96	1
NMSTR	47	192	0
NMSCR	47	192	0	96	32	3
BRTAP	47	192	3
BRTAP	47	224	4
BRTAP	47	256	5
BRTAP	47	288	6
NMTAP	48	0	4
NMHLD	48	0	6	144
NMHLD	48	144	1	96
NMHLD	48	240	3	240
NMHLD	48	336	4	144
NMTAP	49	192	1
NMTAP	49	192	3
NMTAP	49	288	4
NMTAP	49	288	6
BRTAP	50	0	2
BRTAP	50	0	3
NMTAP	50	48	2
NMTAP	50	48	3
NMTAP	50	144	4
NMTAP	50	144	5
NMTAP	50	192	4
NMTAP	50	192	5
NMTAP	50	288	1
NMTAP	50	288	6
NMTAP	50	336	1
NMTAP	50	336	6
NMTAP	51	48	5
BRTAP	51	96	6
NMTAP	51	144	7
NMTAP	51	192	0
NMTAP	51	240	1
BRTAP	51	288	2
NMSTR	52	0	3
NMSI_	52	0	3	96	72	0
NMSTR	52	48	4
NMSI_	52	48	4	96	72	7
NMTAP	52	96	3
NMTAP	52	144	4
NMTAP	52	288	1
NMTAP	52	336	6
NMTAP	53	0	2
NMTAP	53	48	5
NMTAP	53	96	3
NMTAP	53	144	4
NMTAP	53	192	1
NMTAP	53	192	3
NMTAP	53	288	4
NMTAP	53	288	6
BRTAP	54	0	2
BRTAP	54	0	5
NMHLD	54	96	1	96
BRTAP	54	96	2
BRTAP	54	128	3
BRTAP	54	160	4
BRTAP	54	192	5
BRTAP	54	288	5
NMHLD	54	288	6	96
BRTAP	54	320	4
BRTAP	54	352	3
BRTAP	55	0	2
NMHLD	55	96	0	96
BRTAP	55	96	2
BRTAP	55	128	3
BRTAP	55	160	4
BRTAP	55	192	5
BRTAP	55	288	5
NMHLD	55	288	7	96
BRTAP	55	320	4
BRTAP	55	352	3
BRTAP	56	0	2
BRTAP	56	96	0
BRTAP	56	96	7
BRTAP	56	128	1
BRTAP	56	128	6
BRTAP	56	160	2
BRTAP	56	160	5
BRTAP	56	192	3
BRTAP	56	192	4
NMHLD	56	240	2	96
NMHLD	56	240	5	96
NMTAP	57	48	3
NMTAP	57	96	4
NMTAP	57	144	3
NMTAP	57	192	4
NMTAP	57	240	3
NMTAP	57	240	5
NMTAP	57	288	3
NMTAP	57	336	2
BRTAP	57	336	4
BRSTR	58	0	5
NMSCL	58	0	5	96	144	2
NMSTR	58	144	2
NMSCL	58	144	2	96	144	0
BRSTR	58	288	7
NMSI_	58	288	7	96	72	4
NMSCL	58	288	7	96	72	4
BRSTR	59	0	7
NMSI_	59	0	7	96	120	2
NMSCR	59	0	7	96	120	2
BRSTR	59	144	7
NMSI_	59	144	7	96	96	3
NMTAP	59	288	7
BRSTR	60	0	7
NMSCR	60	0	7	96	96	2
NMSTR	60	96	2
NMSCR	60	96	2	96	96	5
NMSTR	60	192	5
NMSCR	60	192	5	96	96	7
NMSTR	60	288	0
NMSI_	60	288	0	96	72	3
NMSCR	60	288	0	96	72	3
BRSTR	61	0	0
NMSI_	61	0	0	96	120	5
NMSCL	61	0	0	96	120	5
BRSTR	61	144	0
NMSI_	61	144	0	96	96	4
NMTAP	61	288	0
NMSTR	62	0	7
NMSI_	62	0	7	96	96	3
NMSTR	62	96	3
NMSI_	62	96	3	96	96	7
NMSTR	62	192	7
NMSCL	62	192	7	96	48	4
BRTAP	62	288	3
BRTAP	62	320	2
BRTAP	62	352	1
BRSTR	63	0	0
NMSI_	63	0	0	96	96	4
NMSTR	63	96	4
NMSI_	63	96	4	96	96	0
NMSTR	63	192	0
NMSCR	63	192	0	96	48	3
BRTAP	63	288	4
BRTAP	63	320	5
BRTAP	63	352	6
NMHLD	64	0	7	96
BRTAP	64	96	0
BRTAP	64	192	1
BRTAP	64	240	5
BRTAP	64	288	2
BRTAP	64	288	4
NMSTR	65	0	3
NMSXL	65	0	3	96	96	3
NMSXR	65	0	3	96	96	3
NMSTR	65	96	3
NMSCL	65	96	3	96	96	0
NMSCR	65	96	3	96	96	6
BRTAP	66	0	7
NMTAP	66	96	7
BRTAP	66	144	7
NMTAP	66	192	7
BRTAP	66	288	5
NMTAP	66	288	7
NMTAP	67	0	7
BRTAP	67	48	7
NMTAP	67	96	7
BRTAP	67	192	1
NMTAP	67	192	7
BRTAP	67	288	5
NMTAP	67	288	7
NMTAP	67	336	7
BRTAP	68	0	1
NMTAP	68	0	7
NMTAP	68	96	7
BRTAP	68	144	7
NMTAP	68	192	7
BRTAP	68	288	5
NMTAP	68	288	7
NMTAP	69	0	7
BRTAP	69	48	7
NMTAP	69	72	0
BRTAP	69	96	7
NMTAP	69	144	0
NMTAP	69	192	0
BRTAP	69	192	6
NMTAP	69	288	0
BRTAP	69	288	2
NMTAP	70	0	0
BRTAP	70	0	6
NMTAP	70	96	0
BRTAP	70	144	0
NMTAP	70	192	0
NMTAP	70	288	0
BRTAP	70	288	2
NMTAP	71	0	0
BRTAP	71	48	0
NMTAP	71	72	7
BRTAP	71	96	0
NMTAP	71	144	7
BRTAP	71	192	1
NMTAP	71	192	7
BRTAP	71	288	0
NMTAP	71	288	7
NMTAP	71	312	6
NMTAP	71	336	5
NMTAP	71	360	4
BRTAP	72	0	2
NMTAP	72	0	3
NMTAP	72	96	3
BRTAP	72	144	3
NMTAP	72	192	3
BRTAP	72	288	3
BRTAP	72	288	4
NMHLD	73	0	2	288
NMHLD	73	0	5	288
BRTAP	74	0	1
BRTAP	74	0	4
BRTAP	74	96	3
NMTAP	74	144	3
BRTAP	74	192	3
NMTAP	74	288	1
BRTAP	74	288	3
BRTAP	75	0	3
NMTAP	75	48	3
BRTAP	75	96	3
BRTAP	75	192	3
NMTAP	75	192	5
NMTAP	75	288	1
BRTAP	75	288	3
BRTAP	75	336	3
BRTAP	76	0	3
NMTAP	76	0	5
BRTAP	76	96	3
NMTAP	76	144	3
BRTAP	76	192	3
NMTAP	76	288	1
BRTAP	76	288	3
BRTAP	77	0	3
NMTAP	77	48	3
BRTAP	77	72	4
NMTAP	77	96	3
BRTAP	77	144	4
BRTAP	77	192	4
NMTAP	77	192	6
NMTAP	77	288	2
BRTAP	77	288	4
BRTAP	78	0	4
NMTAP	78	0	6
BRTAP	78	96	4
NMTAP	78	144	4
BRTAP	78	192	4
BRTAP	78	288	4
NMTAP	78	288	6
BRTAP	79	0	4
NMTAP	79	48	4
BRTAP	79	72	3
NMTAP	79	96	4
BRTAP	79	144	3
NMTAP	79	192	4
NMTAP	79	240	3
NMTAP	79	288	5
NMTAP	79	336	2
BRSTR	80	0	1
NMSI_	80	0	1	96	48	4
BRTAP	80	0	6
NMTAP	80	48	1
NMTAP	80	48	6
NMSTR	80	192	6
NMSI_	80	192	6	96	48	3
NMSTR	80	288	4
NMSI_	80	288	4	96	48	1
BRTAP	81	192	5
BRTAP	81	192	7
BRTAP	81	288	0
BRTAP	81	288	2
NMSTR	82	0	1
NMSI_	82	0	1	96	96	5
NMTAP	82	192	6
NMSTR	82	240	6
NMSI_	82	240	6	96	192	2
BRSTR	82	336	7
NMSI_	82	336	7	96	96	2
NMTAP	83	192	1
NMTAP	83	240	2
NMTAP	83	288	3
NMTAP	83	336	4
NMSTR	84	0	5
NMSI_	84	0	5	96	96	1
NMTAP	84	192	2
NMSTR	84	240	2
NMSI_	84	240	2	96	192	6
BRSTR	84	336	3
NMSI_	84	336	3	96	96	6
NMTAP	85	192	7
BRTAP	85	288	1
BRTAP	85	288	6
NMSTR	86	0	6
NMSI_	86	0	6	96	96	2
NMTAP	86	192	1
NMSTR	86	240	1
NMSI_	86	240	1	96	192	5
BRSTR	86	336	0
NMSI_	86	336	0	96	96	5
NMTAP	87	192	6
NMTAP	87	240	5
NMTAP	87	288	4
NMTAP	87	336	3
NMSTR	88	0	2
NMSI_	88	0	2	96	96	6
NMTAP	88	192	5
NMSTR	88	240	5
NMSI_	88	240	5	96	192	1
BRSTR	88	336	4
NMSI_	88	336	4	96	96	1
NMTAP	89	192	0
BRTAP	89	288	2
BRTAP	89	288	5
NMTAP	90	0	1
NMHLD	90	0	6	576
NMTAP	90	96	1
NMTAP	90	192	1
NMTAP	90	240	2
NMTAP	90	288	1
NMTAP	90	336	2
NMTAP	91	0	3
NMTAP	91	96	2
NMTAP	91	144	1
NMTAP	91	192	0
NMTAP	91	288	2
NMTAP	91	288	5
NMHLD	92	0	1	576
NMTAP	92	0	6
NMTAP	92	96	6
NMTAP	92	144	5
NMTAP	92	192	6
NMTAP	92	240	5
NMTAP	92	288	6
NMTAP	92	336	5
NMTAP	93	0	4
NMTAP	93	96	5
NMTAP	93	144	6
NMTAP	93	192	7
NMTAP	93	240	0
NMTAP	93	240	7
NMTAP	93	336	2
NMHLD	94	0	2	384
NMTAP	94	96	5
NMTAP	94	192	5
NMTAP	94	240	6
NMTAP	94	288	5
NMTAP	94	336	6
NMHLD	95	0	5	288
NMTAP	95	96	2
NMTAP	95	144	1
NMTAP	95	192	2
NMTAP	95	288	2
NMTAP	95	336	3
NMTAP	95	336	4
NMTAP	96	48	2
NMTAP	96	96	5
NMTAP	96	144	1
BRTAP	96	192	0
BRTAP	96	216	1
BRTAP	96	240	2
BRTAP	96	264	3
BRTAP	96	288	4
BRTAP	96	312	5
BRTAP	96	336	6
BRTAP	96	360	7
BRTAP	97	0	0
BRSTR	97	0	4
NMSI_	97	0	4	96	48	6
BRSTR	97	96	2
NMSXL	97	96	2	96	144	6
NMTAP	98	0	2
NMSTR	98	0	7
NMSI_	98	0	7	96	48	4
NMTAP	98	96	2
NMTAP	98	96	7
NMTAP	98	192	0
NMSTR	98	192	7
NMSI_	98	192	7	96	48	5
NMTAP	98	240	1
NMTAP	98	288	0
NMTAP	98	288	7
NMTAP	98	336	1
NMTAP	99	0	2
NMSTR	99	0	7
NMSI_	99	0	7	96	48	4
NMTAP	99	96	0
NMTAP	99	96	7
NMTAP	99	144	1
NMHLD	99	192	2	96
NMSTR	99	192	7
NMSI_	99	192	7	96	48	3
BRTAP	99	288	7
NMSTR	100	0	0
NMSI_	100	0	0	96	48	3
NMTAP	100	0	5
NMTAP	100	96	0
NMTAP	100	96	5
NMTAP	100	144	6
NMSTR	100	192	0
NMSI_	100	192	0	96	48	2
NMTAP	100	192	5
NMTAP	100	240	6
NMTAP	100	288	0
NMTAP	100	288	5
NMTAP	100	336	6
NMSTR	101	0	0
NMSI_	101	0	0	96	48	3
NMTAP	101	0	7
NMTAP	101	96	0
NMTAP	101	96	7
NMTAP	101	144	6
NMSTR	101	192	0
NMSI_	101	192	0	96	48	4
NMHLD	101	192	5	96
BRTAP	101	288	0
NMTAP	102	0	2
NMSTR	102	0	7
NMSI_	102	0	7	96	48	4
NMTAP	102	96	2
NMTAP	102	96	7
NMTAP	102	192	0
NMSTR	102	192	7
NMSI_	102	192	7	96	48	5
NMTAP	102	240	1
NMTAP	102	288	0
NMTAP	102	288	7
NMTAP	102	336	1
NMTAP	103	0	2
NMSTR	103	0	7
NMSI_	103	0	7	96	48	4
NMTAP	103	96	0
NMTAP	103	96	7
NMTAP	103	144	1
NMTAP	103	192	2
NMTAP	103	192	7
BRTAP	103	288	0
BRTAP	103	288	7
NMHLD	103	336	0	4
NMHLD	103	336	7	4
NMTAP	104	48	1
NMTAP	104	48	6
NMTAP	104	96	2
NMTAP	104	96	5
NMTAP	104	144	3
NMTAP	104	144	4
NMTAP	104	192	2
NMTAP	104	192	5
NMTAP	104	240	3
NMTAP	104	240	4
NMTAP	104	288	2
NMTAP	104	288	5
NMTAP	104	336	3
NMTAP	104	336	4
NMTAP	105	0	2
NMTAP	105	32	3
NMTAP	105	64	4
BRTAP	105	96	1
NMTAP	105	96	5
NMTAP	105	192	5
NMTAP	105	224	4
NMTAP	105	256	3
NMTAP	105	288	2
BRTAP	105	288	6
NMSTR	106	0	3
NMSI_	106	0	3	96	48	1
NMSTR	106	0	7
NMSI_	106	0	7	96	48	4
NMTAP	106	96	3
NMTAP	106	96	7
NMTAP	106	192	0
NMSTR	106	192	7
NMSI_	106	192	7	96	48	5
NMTAP	106	240	1
NMTAP	106	288	0
NMTAP	106	288	7
NMTAP	106	336	1
NMTAP	107	0	2
NMSTR	107	0	7
NMSI_	107	0	7	96	48	4
NMTAP	107	96	2
NMTAP	107	96	7
NMTAP	107	144	1
NMSTR	107	192	0
NMSI_	107	192	0	96	48	2
NMSTR	107	192	7
NMSI_	107	192	7	96	48	3
NMTAP	107	288	0
BRTAP	107	288	7
NMSTR	108	0	0
NMSI_	108	0	0	96	48	3
NMTAP	108	0	4
NMTAP	108	96	0
NMTAP	108	96	6
NMTAP	108	144	7
NMSTR	108	192	0
NMSI_	108	192	0	96	48	2
NMTAP	108	192	6
NMTAP	108	240	7
NMTAP	108	288	0
NMTAP	108	288	6
NMTAP	108	336	7
NMSTR	109	0	0
NMSI_	109	0	0	96	48	3
NMSTR	109	0	6
NMSI_	109	0	6	96	48	4
NMTAP	109	96	0
NMTAP	109	96	6
NMTAP	109	192	2
NMTAP	109	192	5
BRTAP	109	240	2
BRTAP	109	240	5
BRTAP	109	336	1
BRTAP	109	336	6
NMSTR	110	0	3
NMSI_	110	0	3	96	48	1
NMSTR	110	0	7
NMSI_	110	0	7	96	48	4
NMTAP	110	96	3
NMTAP	110	96	7
NMTAP	110	192	0
NMSTR	110	192	7
NMSI_	110	192	7	96	48	5
NMTAP	110	240	1
NMTAP	110	288	0
NMTAP	110	288	7
NMTAP	110	336	1
NMSTR	111	0	2
NMSI_	111	0	2	96	48	0
NMSTR	111	0	7
NMSI_	111	0	7	96	48	4
NMTAP	111	96	2
NMTAP	111	96	7
NMTAP	111	192	2
NMTAP	111	192	7
BRTAP	111	288	1
BRTAP	111	288	6
BRTAP	111	336	1
BRTAP	111	336	6
NMTAP	112	48	0
NMTAP	112	48	7
NMTAP	112	96	1
NMTAP	112	96	6
NMTAP	112	144	2
NMTAP	112	144	5
NMTAP	112	192	3
NMTAP	112	192	4
NMTAP	112	240	2
NMTAP	112	240	5
NMTAP	112	288	3
NMTAP	112	288	4
NMTAP	112	336	2
NMTAP	112	336	5
BRTAP	113	0	6
BRTAP	113	24	5
BRTAP	113	48	4
BRTAP	113	72	3
BRTAP	113	96	2
BRTAP	113	120	1
BRTAP	113	144	0
BRTAP	113	168	7
NMHLD	113	192	1	96
NMHLD	113	192	6	96
NMTAP	114	0	0
BRTAP	114	0	7
NMTAP	114	48	0
NMTAP	114	96	0
NMTAP	114	144	0
BRTAP	114	144	6
NMTAP	114	192	0
NMTAP	114	240	0
NMTAP	114	288	0
BRTAP	114	288	5
NMTAP	114	336	0
NMTAP	115	0	0
NMTAP	115	48	0
BRTAP	115	48	4
NMTAP	115	96	0
NMTAP	115	144	0
NMTAP	115	192	0
BRTAP	115	192	3
NMTAP	115	240	0
NMTAP	115	288	0
BRTAP	115	288	2
BRTAP	116	0	0
NMTAP	116	0	7
NMTAP	116	48	7
NMTAP	116	96	7
BRTAP	116	144	1
NMTAP	116	144	7
NMTAP	116	192	7
NMTAP	116	240	7
BRTAP	116	288	2
NMTAP	116	288	7
NMTAP	116	336	7
NMTAP	117	0	7
BRTAP	117	48	3
NMTAP	117	48	7
NMTAP	117	96	7
NMTAP	117	144	7
BRTAP	117	192	4
NMTAP	117	192	7
NMTAP	117	240	7
BRTAP	117	288	5
NMTAP	117	288	7
BRTAP	118	0	0
BRTAP	118	0	1
NMTAP	118	48	2
NMTAP	118	96	3
BRTAP	118	144	4
BRTAP	118	144	5
NMTAP	118	192	6
NMTAP	118	240	7
BRTAP	118	288	0
BRTAP	118	288	1
NMTAP	118	336	2
NMTAP	119	0	3
BRTAP	119	48	4
BRTAP	119	48	5
NMTAP	119	96	6
NMTAP	119	144	7
BRTAP	119	192	0
BRTAP	119	192	1
NMTAP	119	240	2
BRTAP	119	288	3
BRTAP	119	288	4
BRTAP	120	0	6
BRTAP	120	0	7
NMTAP	120	48	5
NMTAP	120	96	4
BRTAP	120	144	2
BRTAP	120	144	3
NMTAP	120	192	1
NMTAP	120	240	0
BRTAP	120	288	6
BRTAP	120	288	7
NMTAP	120	336	5
NMTAP	121	0	4
BRTAP	121	48	2
BRTAP	121	48	3
NMTAP	121	96	1
NMTAP	121	144	0
BRTAP	121	192	6
BRTAP	121	192	7
NMTAP	121	240	5
BRTAP	121	288	3
BRTAP	121	288	4
BRTAP	122	0	3
BRTAP	122	0	4
NMTAP	122	48	2
NMTAP	122	96	2
BRTAP	122	144	0
BRTAP	122	144	1
NMTAP	122	192	7
NMTAP	122	240	7
BRTAP	122	288	5
BRTAP	122	288	6
NMTAP	122	336	4
NMTAP	123	0	4
BRTAP	123	48	2
BRTAP	123	48	3
NMTAP	123	96	1
NMTAP	123	144	1
BRTAP	123	192	0
BRTAP	123	192	7
NMTAP	123	240	6
BRTAP	123	288	4
BRTAP	123	288	5
BRTAP	124	0	3
BRTAP	124	0	4
NMTAP	124	48	5
NMTAP	124	96	5
BRTAP	124	144	6
BRTAP	124	144	7
NMTAP	124	192	0
NMTAP	124	240	0
BRTAP	124	288	1
BRTAP	124	288	2
NMTAP	124	336	3
NMTAP	125	0	3
BRTAP	125	48	4
BRTAP	125	48	5
NMTAP	125	96	6
NMTAP	125	144	6
BRTAP	125	192	0
BRTAP	125	192	7
NMTAP	125	240	1
BRTAP	125	288	2
BRTAP	125	288	3
NMHLD	126	0	4	96
NMTAP	126	48	5
NMTAP	126	96	6
NMHLD	126	144	3	96
NMTAP	126	192	2
NMTAP	126	240	1
NMHLD	126	288	4	48
NMTAP	126	336	5
NMTAP	127	0	4
NMTAP	127	0	6
NMTAP	127	24	5
NMTAP	127	24	7
NMTAP	127	48	0
NMTAP	127	48	6
NMTAP	127	72	1
NMTAP	127	72	7
NMTAP	127	96	0
NMTAP	127	96	2
NMTAP	127	120	1
NMTAP	127	120	3
NMTAP	127	144	0
NMTAP	127	144	2
NMTAP	127	168	1
NMTAP	127	168	7
NMTAP	127	192	0
NMTAP	127	192	6
NMTAP	127	216	5
NMTAP	127	216	7
NMTAP	127	240	4
NMTAP	127	240	6
NMTAP	127	264	7
NMTAP	127	288	0
NMTAP	127	312	1
NMTAP	127	336	2
NMTAP	128	48	6
NMTAP	128	96	5
NMTAP	128	144	4
NMTAP	128	192	0
NMTAP	128	240	1
NMTAP	128	288	2
NMTAP	128	336	3
NMSTR	129	0	4
NMSI_	129	0	4	96	96	7
NMSTR	129	96	7
NMSI_	129	96	7	96	96	3
NMSTR	129	192	3
NMSI_	129	192	3	96	96	7
BRTAP	130	0	0

T_REC_TAP	559
T_REC_BRK	234
T_REC_XTP	0
T_REC_BXX	0
T_REC_HLD	31
T_REC_XHO	0
T_REC_BHO	0
T_REC_BXH	0
T_REC_STR	101
T_REC_BST	19
T_REC_XST	0
T_REC_XBS	0
T_REC_TTP	0
T_REC_THO	0
T_REC_SLD	126
T_REC_BSL	0
T_REC_ALL	1070
T_NUM_TAP	660
T_NUM_BRK	253
T_NUM_HLD	31
T_NUM_SLD	126
T_NUM_ALL	1070
T_JUDGE_TAP	913
T_JUDGE_HLD	56
T_JUDGE_SLD	126
T_JUDGE_ALL	1095
TTM_EACHPAIRS	216
TTM_SCR_TAP	330000
TTM_SCR_BRK	657800
TTM_SCR_HLD	31000
TTM_SCR_SLD	189000
TTM_SCR_ALL	1207800
TTM_SCR_S	1147050
TTM_SCR_SS	1182500
TTM_RAT_ACV	10213

