VERSION	0.00.00	1.04.00
FES_MODE	1
BPM_DEF	160.000	160.000	160.000	160.000
MET_DEF	4	4
RESOLUTION	384
CLK_DEF	384
COMPATIBLE_CODE	MA2

BPM	0	0	160.000
MET	0	0	4	4

NMTTP	1	0	1	E	0	M1
NMTTP	1	96	2	E	0	M1
NMTTP	1	192	3	E	0	M1
NMTTP	1	288	1	B	1	M1
NMSTR	2	0	0
NMSCR	2	0	0	96	96	4
NMTAP	2	192	0
NMTAP	2	288	0
NMSTR	3	0	0
NMSCR	3	0	0	96	96	4
NMTAP	3	192	0
NMSTR	3	288	0
NMSXL	3	288	0	96	288	3
NMSTR	5	0	0
NMSCR	5	0	0	96	96	4
NMTAP	5	192	0
NMTAP	5	288	0
NMSTR	6	0	0
NMSCR	6	0	0	96	96	4
NMTAP	6	192	0
NMTAP	6	288	0
NMSTR	7	0	0
NMSCR	7	0	0	96	96	4
NMTAP	7	192	0
NMSTR	7	288	0
NMSXL	7	288	0	96	288	4
NMTAP	9	0	7
NMTAP	9	96	0
NMTAP	9	192	0
NMTAP	9	240	1
NMTAP	9	288	2
NMTAP	9	336	2
NMTAP	10	0	1
NMSTR	10	0	3
NMSI_	10	0	3	96	48	5
NMTAP	10	48	2
NMSTR	10	96	1
NMSI_	10	96	1	96	48	3
NMTAP	10	192	6
NMTAP	10	240	6
NMTAP	10	288	5
NMTAP	10	336	5
NMSTR	11	0	4
NMSI_	11	0	4	96	48	2
NMTAP	11	0	6
NMTAP	11	48	5
NMSTR	11	96	6
NMSI_	11	96	6	96	48	4
NMTAP	11	192	1
NMTAP	11	240	1
NMTAP	11	288	2
NMTAP	11	336	2
NMTAP	12	0	0
NMSTR	12	0	1
NMSCR	12	0	1	96	48	4
NMSTR	12	192	4
NMSCL	12	192	4	96	48	1
NMTAP	12	192	5
NMSTR	13	0	6
NMSCL	13	0	6	96	48	3
NMTAP	13	48	2
NMSTR	13	96	1
NMSCL	13	96	1	96	48	6
NMSTR	13	192	5
NMSCR	13	192	5	96	48	0
BRTAP	13	288	1
NMSTR	14	0	0
NMSCL	14	0	0	96	48	5
NMTAP	14	0	3
NMTAP	14	48	1
NMTAP	14	96	2
NMSTR	14	144	3
NMSCL	14	144	3	96	48	0
NMTAP	14	192	4
NMTAP	14	240	5
NMSTR	14	288	6
NMSCL	14	288	6	96	48	3
NMTAP	14	336	7
NMTAP	15	0	0
NMSTR	15	48	1
NMSCL	15	48	1	96	48	6
NMTAP	15	96	2
NMTAP	15	144	3
NMSTR	15	192	4
NMSI_	15	192	4	96	48	0
NMTAP	15	288	6
NMTAP	16	0	7
NMTAP	16	48	6
NMTAP	16	96	5
NMHLD	16	144	4	96
NMHLD	16	240	1	96
NMTAP	16	336	6
NMSTR	17	0	3
NMSI_	17	0	3	96	48	7
NMSTR	17	0	4
NMSI_	17	0	4	96	48	0
NMSTR	17	96	3
NMSV_	17	96	3	96	48	1
NMSTR	17	96	4
NMSV_	17	96	4	96	48	6
NMSTR	17	192	3
NMSI_	17	192	3	96	48	7
NMSTR	17	192	4
NMSI_	17	192	4	96	48	0
BRTAP	18	0	0
NMTAP	18	96	3
NMTAP	18	96	4
NMTAP	18	144	5
NMTAP	18	192	6
NMSTR	18	192	7
NMSI_	18	192	7	96	48	2
NMTAP	19	0	0
NMTAP	19	48	7
NMTAP	19	96	6
NMTAP	19	144	5
NMTAP	19	192	3
NMSTR	19	192	4
NMSI_	19	192	4	96	48	7
NMTAP	20	0	0
NMTAP	20	0	2
NMTAP	20	48	3
NMTAP	20	96	4
NMTAP	20	144	5
NMTAP	20	144	7
NMTAP	20	192	4
NMTAP	20	240	3
NMHLD	20	288	0	96
NMTAP	20	288	2
NMTAP	21	0	1
NMTAP	21	48	0
NMTAP	21	96	3
NMTAP	21	96	7
NMTAP	21	144	2
NMTAP	21	144	6
NMSTR	21	192	1
NMSI_	21	192	1	96	48	6
NMHLD	21	192	5	96
NMTAP	22	0	4
NMSTR	22	0	7
NMSI_	22	0	7	96	48	3
NMTAP	22	96	5
NMTAP	22	144	6
NMSTR	22	192	2
NMSI_	22	192	2	96	48	0
NMSTR	22	192	7
NMSI_	22	192	7	96	48	3
NMTAP	23	0	4
NMSTR	23	0	7
NMSI_	23	0	7	96	48	3
NMTAP	23	96	5
NMTAP	23	144	6
NMSTR	23	192	2
NMSI_	23	192	2	96	48	0
NMSTR	23	192	7
NMSI_	23	192	7	96	48	3
NMTTP	23	288	2	A	1	M1
NMTAP	24	0	4
NMTAP	24	48	4
NMTAP	24	72	3
NMTAP	24	96	2
NMHLD	24	192	1	48
NMHLD	24	192	3	48
NMHLD	24	288	1	48
NMHLD	24	288	3	48
NMTAP	25	0	4
NMTAP	25	48	4
NMTAP	25	72	3
NMTAP	25	96	2
NMHLD	25	192	1	48
NMHLD	25	192	3	48
NMHLD	25	288	1	48
NMHLD	25	288	3	48
NMTAP	26	0	4
NMTAP	26	48	4
NMTAP	26	72	3
NMTAP	26	96	2
NMHLD	26	192	1	48
NMHLD	26	192	3	48
NMHLD	26	288	1	48
NMHLD	26	288	3	48
NMTAP	27	0	4
NMTAP	27	48	4
NMTAP	27	72	3
NMTAP	27	96	2
NMHLD	27	192	2	48
NMHLD	27	192	3	48
NMHLD	27	288	2	48
NMHLD	27	288	3	48
NMTAP	28	0	4
NMTAP	28	48	4
NMTAP	28	72	3
NMTAP	28	96	2
NMHLD	28	192	1	48
NMHLD	28	192	3	48
NMHLD	28	288	1	48
NMHLD	28	288	3	48
NMTAP	29	0	4
NMTAP	29	48	4
NMTAP	29	72	3
NMTAP	29	96	2
NMHLD	29	192	1	48
NMHLD	29	192	3	48
NMHLD	29	288	1	48
NMHLD	29	288	3	48
NMTAP	30	0	4
NMTAP	30	48	4
NMTAP	30	72	3
NMTAP	30	96	2
NMHLD	30	192	1	48
NMHLD	30	192	3	48
NMHLD	30	288	1	48
NMHLD	30	288	3	48
NMSTR	31	0	3
NMSI_	31	0	3	96	48	7
NMSTR	31	0	4
NMSI_	31	0	4	96	48	0
NMSTR	31	96	3
NMSCL	31	96	3	96	100	6
NMSCL	31	96	3	96	120	5
NMSCL	31	96	3	96	140	4
NMSTR	31	96	4
NMSCR	31	96	4	96	100	1
NMSCR	31	96	4	96	120	2
NMSCR	31	96	4	96	140	3
NMSTR	32	0	7
NMSI_	32	0	7	96	48	3
NMSTR	32	48	3
NMSI_	32	48	3	96	48	7
NMTAP	32	96	7
NMTAP	32	144	0
NMSTR	32	192	1
NMSI_	32	192	1	96	48	5
NMSTR	32	240	5
NMSI_	32	240	5	96	48	1
NMTAP	32	288	1
NMTAP	32	336	7
NMTAP	33	0	6
NMSTR	33	48	1
NMSV_	33	48	1	96	48	3
NMSTR	33	48	5
NMSV_	33	48	5	96	48	7
NMTAP	33	96	0
NMTAP	33	96	4
NMTAP	33	240	1
NMTAP	33	240	5
NMTAP	33	288	2
NMSTR	33	288	6
NMSLL	33	288	6	96	96	0
NMSTR	34	0	0
NMSLL	34	0	0	96	96	2
NMSTR	34	96	2
NMSLL	34	96	2	96	96	4
NMSTR	34	192	4
NMSLL	34	192	4	96	96	6
NMSTR	34	288	6
NMSLL	34	288	6	96	96	0
NMSTR	35	0	0
NMSLL	35	0	0	96	96	2
NMTAP	35	96	2
NMTAP	35	192	4
NMTAP	35	288	3
NMTAP	35	288	5
NMSTR	36	0	2
NMSI_	36	0	2	96	48	4
NMTAP	36	0	6
NMTAP	36	48	0
NMTAP	36	48	4
NMTAP	36	96	2
NMTAP	36	96	6
NMTAP	36	144	0
NMTAP	36	192	2
NMSTR	36	192	6
NMSI_	36	192	6	96	48	0
NMTAP	36	240	0
NMTAP	36	240	4
NMTAP	36	288	2
NMTAP	36	288	6
NMTAP	36	336	4
NMSTR	37	0	2
NMSI_	37	0	2	96	48	4
NMTAP	37	0	6
NMTAP	37	48	0
NMTAP	37	48	4
NMTAP	37	96	2
NMTAP	37	96	6
NMTAP	37	144	0
NMTAP	37	192	2
NMTAP	37	192	6
NMTAP	37	240	0
NMTAP	37	240	4
NMTAP	37	288	2
NMTAP	37	288	6
NMTAP	37	336	4
NMTAP	38	0	3
NMSTR	38	0	7
NMSI_	38	0	7	96	48	3
NMTAP	38	24	2
NMTAP	38	48	1
NMTAP	38	144	7
NMTAP	38	168	6
NMTAP	38	192	5
NMTAP	38	240	6
NMTAP	38	288	0
NMTAP	38	336	7
NMTAP	38	360	6
NMSTR	39	0	5
NMSI_	39	0	5	96	48	0
NMSTR	39	48	0
NMSI_	39	48	0	96	48	3
NMSTR	39	192	7
NMSCL	39	192	7	96	48	4
NMTAP	39	240	1
NMTAP	39	264	2
NMSTR	39	288	3
NMSCR	39	288	3	96	48	6
BRSTR	40	0	1
NMSI_	40	0	1	96	48	4
NMTAP	40	48	0
NMTAP	40	72	7
NMTAP	40	96	1
NMTAP	40	144	5
NMSTR	40	192	6
NMSI_	40	192	6	96	48	3
NMTAP	40	240	7
NMTAP	40	264	0
NMTAP	40	288	6
NMTAP	40	336	2
NMSTR	41	0	1
NMSI_	41	0	1	96	48	4
NMTAP	41	48	0
NMTAP	41	72	7
NMTAP	41	96	1
NMTAP	41	144	5
NMTAP	41	192	6
NMTAP	41	240	6
NMTAP	41	256	5
NMTAP	41	272	4
NMTAP	41	288	3
NMTAP	41	336	1
NMTAP	41	336	2
NMSTR	42	0	2
NMSI_	42	0	2	96	48	7
NMTAP	42	48	3
NMTAP	42	72	4
NMTAP	42	96	2
NMTAP	42	144	6
NMSTR	42	192	5
NMSI_	42	192	5	96	48	0
NMTAP	42	240	4
NMTAP	42	264	3
NMTAP	42	288	5
NMTAP	42	336	1
NMSTR	43	0	2
NMSI_	43	0	2	96	48	7
NMTAP	43	48	3
NMTAP	43	72	4
NMTAP	43	96	2
NMTAP	43	144	6
NMTAP	43	192	5
NMTAP	43	240	5
NMTAP	43	256	4
NMTAP	43	272	3
NMTAP	43	288	2
NMTAP	43	336	1
NMTAP	43	336	7
NMTAP	44	0	2
NMTAP	44	0	6
NMTAP	44	48	5
NMTAP	44	72	4
NMTAP	44	96	5
NMTAP	44	144	1
NMTAP	44	192	2
NMSTR	44	192	3
NMSUL	44	192	3	96	96	2
NMSTR	44	288	2
NMSCL	44	288	2	96	96	5
NMTAP	44	288	3
NMSTR	45	96	3
NMSCR	45	96	3	96	96	1
BRTAP	45	288	3
NMSTR	46	0	4
NMSI_	46	0	4	96	48	0
NMSTR	46	96	2
NMSI_	46	96	2	96	192	5
NMSTR	46	144	3
NMSI_	46	144	3	96	48	7
NMSTR	47	0	3
NMSI_	47	0	3	96	48	7
NMSTR	47	96	5
NMSI_	47	96	5	96	192	2
NMSTR	47	144	4
NMSI_	47	144	4	96	48	0
NMSTR	48	0	0
NMSI_	48	0	0	96	48	3
NMSTR	48	48	1
NMSI_	48	48	1	96	240	6
NMTAP	48	96	2
NMTAP	48	288	3
NMSTR	49	0	7
NMSI_	49	0	7	96	48	4
NMSTR	49	48	6
NMSI_	49	48	6	96	240	2
NMTAP	49	96	5
BRHLD	49	288	5	144
NMTAP	50	48	2
NMTAP	50	96	2
NMTAP	50	144	3
NMHLD	50	192	1	96
NMTAP	50	288	3
NMTAP	50	336	4
NMHLD	51	0	2	48
NMHLD	51	0	4	48
NMHLD	51	96	1	48
NMHLD	51	96	3	48
NMHLD	51	192	0	48
NMHLD	51	192	2	48
NMSTR	51	288	7
NMSCR	51	288	7	96	288	4
NMHLD	51	336	7	432
NMTAP	53	192	0
NMTAP	53	192	1
NMTAP	53	288	1
NMTAP	53	288	3
NMTAP	53	336	1
NMTAP	53	336	3
NMTAP	54	48	2
NMTAP	54	96	2
NMTAP	54	144	3
NMHLD	54	192	1	96
NMTAP	54	288	3
NMTAP	54	336	4
NMHLD	55	0	2	48
NMHLD	55	0	4	48
NMHLD	55	96	1	48
NMHLD	55	96	3	48
NMHLD	55	192	0	48
NMHLD	55	192	2	48
NMSTR	55	288	7
NMSI_	55	288	7	96	96	4
NMHLD	55	336	7	432
CNSI_	56	96	4	0	96	0
CNSI_	56	192	0	0	96	3
CNSI_	56	288	3	0	96	1
BRTAP	57	192	1
BRTAP	57	192	6
NMTAP	58	0	2
NMTAP	58	24	3
NMTAP	58	48	2
NMTAP	58	72	1
NMTAP	58	96	2
NMTAP	58	144	4
NMTAP	58	168	3
NMTAP	58	192	4
NMTAP	58	216	3
NMTAP	58	240	4
NMTAP	58	288	1
NMTAP	58	312	0
NMTAP	58	336	1
NMTAP	59	0	5
NMTAP	59	24	4
NMTAP	59	48	5
NMTAP	59	72	6
NMTAP	59	96	5
NMTAP	59	144	3
NMTAP	59	168	4
NMTAP	59	192	3
NMTAP	59	216	4
NMTAP	59	240	3
NMTAP	59	288	6
NMTAP	59	312	7
NMTAP	59	336	6
NMTAP	60	0	0
NMTAP	60	0	7
NMTAP	60	24	1
NMTAP	60	48	2
NMTAP	60	72	3
NMTAP	60	96	4
NMTAP	60	120	5
NMTAP	60	144	6
NMTAP	60	168	7
NMTAP	60	192	0
NMTAP	60	192	4
NMTAP	60	216	3
NMTAP	60	240	2
NMTAP	60	264	1
NMTAP	60	288	0
NMTAP	60	312	7
NMTAP	60	336	6
NMTAP	60	360	5
NMTAP	61	0	0
NMTAP	61	0	4
NMTAP	61	24	1
NMTAP	61	48	2
NMTAP	61	72	3
NMTAP	61	96	4
NMTAP	61	96	7
NMTAP	61	120	6
NMTAP	61	144	5
NMTAP	61	168	4
NMTAP	61	192	1
NMTAP	61	192	3
NMTAP	61	204	2
NMTAP	61	216	3
NMTAP	61	228	4
NMTAP	61	240	5
NMTAP	61	252	6
NMTAP	61	264	7
NMTAP	61	276	0
NMTAP	61	288	1
NMTAP	61	300	2
NMTAP	61	312	3
NMTAP	61	324	4
NMTAP	61	336	5
NMTAP	61	348	6
NMTAP	61	360	7
NMTAP	61	372	0
BRTAP	62	0	1
BRTAP	62	0	5
NMTAP	62	48	5
NMTAP	62	72	4
NMSTR	62	96	6
NMSCL	62	96	6	96	48	3
NMTAP	62	144	7
NMTAP	62	168	0
NMTAP	62	192	6
NMTAP	62	240	2
NMTAP	62	288	0
NMTAP	62	288	1
NMTAP	62	336	2
NMTAP	63	0	3
NMTAP	63	0	4
NMTAP	63	48	5
NMTAP	63	72	4
NMSTR	63	96	6
NMSI_	63	96	6	96	48	2
NMSTR	63	144	7
NMSI_	63	144	7	96	48	3
NMTAP	63	168	0
NMTAP	63	192	6
NMTAP	63	240	7
NMTAP	63	288	4
NMTAP	63	336	2
NMSTR	64	0	0
BRSI_	64	0	0	96	48	5
NMTAP	64	0	6
NMTAP	64	48	7
NMSTR	64	96	0
BRSI_	64	96	0	96	48	3
NMTAP	64	96	2
NMTAP	64	144	1
NMTAP	64	192	0
NMSTR	64	192	4
BRSI_	64	192	4	96	48	0
NMTAP	64	240	5
NMTAP	64	288	4
NMTAP	64	288	6
NMTAP	64	336	7
BRTAP	65	0	0
BRTAP	65	0	7
BRTAP	65	12	1
BRTAP	65	12	6
BRTAP	65	24	2
BRTAP	65	24	5
BRTAP	65	36	3
BRTAP	65	36	4
BRTAP	65	96	0
BRTAP	65	96	7
BRTAP	65	108	1
BRTAP	65	108	6
BRTAP	65	120	2
BRTAP	65	120	5
BRTAP	65	132	3
BRTAP	65	132	4
BRSTR	65	192	0
NMSI_	65	192	0	96	48	4
BRSTR	65	192	7
NMSI_	65	192	7	96	48	3
BRTAP	65	204	1
BRTAP	65	204	6
BRTAP	65	216	2
BRTAP	65	216	5
BRTAP	65	228	3
BRTAP	65	228	4
BRSTR	65	288	0
NMSCR	65	288	0	96	48	2
BRTAP	65	288	7
BRSTR	66	0	0
NMSI_	66	0	0	96	48	3
BRTAP	66	0	7
NMSTR	66	96	0
NMSI_	66	96	0	96	48	4
NMTAP	66	96	5
NMTAP	66	144	6
NMSTR	66	192	0
NMSCR	66	192	0	96	48	2
NMSTR	66	192	7
NMSCL	66	192	7	96	48	5
NMSTR	66	288	0
NMSI_	66	288	0	96	48	3
NMTAP	66	288	7
NMSTR	67	0	0
NMSI_	67	0	0	96	48	4
NMTAP	67	0	5
NMSTR	67	96	0
NMSCR	67	96	0	96	48	2
NMTAP	67	96	7
NMTAP	67	144	6
NMSTR	67	192	0
NMSI_	67	192	0	96	48	3
NMSTR	67	192	5
NMSI_	67	192	5	96	48	7
NMTAP	67	288	0
NMTAP	67	288	5
EXTAP	68	0	0
EXSTR	68	0	7
NMSI_	68	0	7	96	48	5
NMTAP	68	48	0
NMTAP	68	72	1
NMTAP	68	96	2
NMSTR	68	96	7
NMSI_	68	96	7	96	48	3
NMTAP	68	144	2
NMTAP	68	192	2
NMSTR	68	192	7
NMSI_	68	192	7	96	48	5
NMTAP	68	216	1
NMTAP	68	240	0
NMSTR	68	288	0
NMSI_	68	288	0	96	48	4
NMTAP	68	288	7
NMTAP	68	312	1
NMTAP	68	336	2
EXSTR	69	0	0
NMSI_	69	0	0	96	48	2
NMTAP	69	0	7
NMTAP	69	48	7
NMTAP	69	72	6
NMSTR	69	96	0
NMSI_	69	96	0	96	48	4
NMTAP	69	96	5
NMTAP	69	144	5
NMSTR	69	192	0
NMSI_	69	192	0	96	48	2
NMTAP	69	192	5
NMTAP	69	216	6
NMTAP	69	240	7
NMTAP	69	288	0
NMTAP	69	288	7
NMTAP	69	312	6
NMTAP	69	336	5
NMSTR	70	0	3
NMSI_	70	0	3	96	48	6
NMSTR	70	0	4
NMSI_	70	0	4	96	48	6
NMSTR	70	96	3
NMSI_	70	96	3	96	48	1
NMSTR	70	96	4
NMSI_	70	96	4	96	48	1
NMSTR	70	192	3
NMSI_	70	192	3	96	48	6
NMSTR	70	192	4
NMSCR	70	192	4	96	48	6
NMSTR	70	288	3
NMSCL	70	288	3	96	48	1
NMSTR	70	288	4
NMSI_	70	288	4	96	48	1
NMSTR	71	0	3
NMSUR	71	0	3	96	96	4
NMSTR	71	0	4
NMSCR	71	0	4	96	96	3
NMTAP	71	96	3
NMTAP	71	96	4
NMTTP	71	108	4	B	0	M1
NMTTP	71	120	5	B	0	M1
NMTTP	71	132	6	B	0	M1
NMTTP	71	144	7	B	0	M1
NMTTP	71	156	0	B	0	M1
NMTTP	71	168	1	B	0	M1
NMTTP	71	180	2	B	0	M1
NMTTP	71	192	3	B	0	M1
BRTAP	71	288	0
BRTAP	71	288	7
BXTAP	72	0	2
NMTAP	72	24	3
EXTAP	72	48	1
EXTAP	72	96	0
NMTAP	72	96	4
NMTAP	72	144	5
NMTAP	72	168	4
EXTAP	72	192	6
EXTAP	72	240	3
EXTAP	72	240	7
EXTAP	72	288	6
NMTAP	72	312	7
EXTAP	72	336	5
NMTAP	72	360	0
EXTAP	73	0	4
NMTAP	73	24	1
NMTAP	73	48	0
NMTAP	73	72	2
NMTAP	73	96	7
NMTAP	73	120	3
NMTAP	73	144	6
NMHLD	73	168	6	48
NMTAP	73	216	4
NMHLD	73	240	4	48
NMTAP	73	288	3
NMHLD	73	312	3	48
NMTAP	73	360	1
EXTAP	74	0	1
EXTAP	74	48	0
NMTAP	74	48	1
EXTAP	74	96	2
NMTAP	74	120	7
EXTAP	74	144	1
NMTAP	74	168	3
EXTAP	74	192	1
NMTAP	74	216	3
EXTAP	74	240	1
NMTAP	74	264	3
EXTAP	74	288	5
NMTAP	74	312	3
EXTAP	74	336	5
NMTAP	74	360	3
EXTAP	75	0	5
NMTAP	75	24	3
NMTAP	75	48	0
NMTAP	75	72	6
EXTAP	75	96	1
NMTAP	75	120	5
NMTAP	75	144	2
NMTAP	75	168	3
EXTAP	75	192	1
NMTAP	75	216	4
NMTAP	75	240	2
NMTAP	75	264	5
NMTAP	75	288	1
NMTAP	75	312	0
NMTAP	75	336	2
NMTAP	75	360	6
BXTAP	76	0	4
NMTAP	76	24	6
NMTAP	76	48	4
NMTAP	76	72	3
BXTAP	76	96	4
NMTAP	76	120	3
NMTAP	76	144	4
NMTAP	76	168	6
BXTAP	76	192	0
NMTAP	76	216	2
NMTAP	76	240	0
NMTAP	76	264	2
BXTAP	76	288	0
NMTAP	76	312	7
BXTAP	76	336	0
NMTAP	76	360	6
NMTAP	77	0	4
NMTAP	77	24	5
NMTAP	77	48	2
NMTAP	77	72	4
NMTAP	77	96	3
NMTAP	77	120	7
NMTAP	77	144	4
NMTAP	77	168	7
NMTAP	77	192	0
NMTAP	77	216	3
NMTAP	77	240	0
NMTAP	77	264	2
NMTAP	77	288	1
NMTAP	77	312	5
NMTAP	77	336	0
NMTAP	77	360	7
BRTAP	78	0	1
NMTAP	78	24	6
NMTAP	78	48	2
NMTAP	78	72	5
BRTAP	78	96	0
NMTAP	78	120	7
NMTAP	78	144	0
NMTAP	78	168	7
BRTAP	78	192	1
NMTAP	78	208	2
NMTAP	78	224	3
NMTAP	78	240	7
NMTAP	78	256	6
NMTAP	78	272	5
BRTAP	78	288	0
NMTAP	78	304	1
NMTAP	78	320	2
BRTAP	78	336	6
NMTAP	78	352	5
NMTAP	78	368	4
EXTAP	79	0	1
NMTAP	79	12	2
NMTAP	79	24	3
NMTAP	79	36	4
NMTAP	79	48	5
NMTAP	79	60	6
NMTAP	79	72	7
NMTAP	79	84	0
EXTAP	79	96	1
EXTAP	79	96	6
NMTAP	79	108	5
NMTAP	79	120	4
NMTAP	79	132	3
NMTAP	79	144	2
NMTAP	79	156	1
NMTAP	79	168	0
NMTAP	79	180	7
EXSTR	79	192	2
NMSI_	79	192	2	96	48	7
EXSTR	79	192	6
NMSI_	79	192	6	96	48	3
NMTTP	79	288	0	B	0	M1
NMTTP	79	288	0	C	1	M1
NMTTP	79	288	0	E	0	M1
NMTTP	79	288	1	B	0	M1
NMTTP	79	288	1	E	0	M1
BRTAP	79	288	2
NMTTP	79	288	2	B	0	M1
NMTTP	79	288	2	E	0	M1
NMTTP	79	288	2	D	0	M1
NMTTP	79	288	3	B	0	M1
NMTTP	79	288	3	E	0	M1
NMTTP	79	288	4	B	0	M1
NMTTP	79	288	4	E	0	M1
NMTTP	79	288	5	B	0	M1
NMTTP	79	288	5	E	0	M1
BRTAP	79	288	6
NMTTP	79	288	6	B	0	M1
NMTTP	79	288	6	E	0	M1
NMTTP	79	288	6	D	0	M1
NMTTP	79	288	7	B	0	M1
NMTTP	79	288	7	E	0	M1

T_REC_TAP	438
T_REC_BRK	40
T_REC_XTP	23
T_REC_BXX	6
T_REC_HLD	51
T_REC_XHO	0
T_REC_BHO	1
T_REC_BXH	0
T_REC_STR	109
T_REC_BST	5
T_REC_XST	4
T_REC_XBS	0
T_REC_TTP	32
T_REC_THO	0
T_REC_SLD	119
T_REC_BSL	3
T_REC_ALL	831
T_NUM_TAP	606
T_NUM_BRK	55
T_NUM_HLD	51
T_NUM_SLD	119
T_NUM_ALL	831
T_JUDGE_TAP	657
T_JUDGE_HLD	76
T_JUDGE_SLD	122
T_JUDGE_ALL	855
TTM_EACHPAIRS	124
TTM_SCR_TAP	303000
TTM_SCR_BRK	143000
TTM_SCR_HLD	51000
TTM_SCR_SLD	178500
TTM_SCR_ALL	675500
TTM_SCR_S	649900
TTM_SCR_SS	670000
TTM_RAT_ACV	10082

