VERSION	0.00.00	1.04.00
FES_MODE	0
BPM_DEF	256.000	256.000	256.000	256.000
MET_DEF	4	4
RESOLUTION	384
CLK_DEF	384
COMPATIBLE_CODE	MA2

BPM	0	0	256.000
MET	0	0	4	4

NMSTR	2	0	2
NMSCL	2	0	2	96	48	7
NMTAP	2	192	6
NMSTR	2	240	5
NMSI_	2	240	5	96	48	0
NMTAP	2	336	5
NMTAP	3	192	2
NMTAP	3	240	3
NMTAP	3	288	4
NMTAP	3	336	5
NMSTR	4	0	6
NMSCL	4	0	6	96	48	3
NMTAP	4	192	2
NMSTR	4	240	1
NMSI_	4	240	1	96	48	4
NMTAP	4	336	1
NMTAP	5	192	5
NMTAP	5	240	4
NMTAP	5	240	6
NMTAP	5	288	2
NMTAP	5	336	1
NMTAP	5	336	3
NMSTR	6	0	5
NMSCR	6	0	5	96	48	0
NMTAP	6	192	1
NMSTR	6	240	2
NMSI_	6	240	2	96	48	7
NMTAP	6	336	2
NMTAP	7	192	5
NMTAP	7	240	4
NMTAP	7	288	3
NMTAP	7	336	2
NMSTR	8	0	1
NMSCR	8	0	1	96	48	4
NMTAP	8	192	5
NMSTR	8	240	6
NMSI_	8	240	6	96	48	3
NMTAP	8	336	6
NMTAP	9	192	1
NMTAP	9	192	3
NMTAP	9	288	4
NMTAP	9	288	6
NMSTR	10	0	0
NMSI_	10	0	0	96	48	4
NMTAP	10	96	0
NMSTR	10	192	7
NMSI_	10	192	7	96	48	3
NMTAP	10	288	7
NMSTR	11	0	6
NMSSL	11	0	6	96	96	2
NMTAP	11	96	6
NMTAP	11	192	3
NMTAP	11	288	0
NMTAP	11	288	4
NMSTR	12	0	7
NMSI_	12	0	7	96	48	3
NMTAP	12	96	7
NMSTR	12	192	0
NMSI_	12	192	0	96	48	4
NMTAP	12	288	0
NMSTR	13	0	1
NMSSR	13	0	1	96	96	5
NMTAP	13	96	1
NMTAP	13	192	4
NMTAP	13	288	3
NMTAP	13	288	7
NMSTR	14	0	0
NMSI_	14	0	0	96	48	4
NMTAP	14	96	0
NMSTR	14	192	7
NMSI_	14	192	7	96	48	3
NMTAP	14	288	7
NMSTR	15	0	2
NMSI_	15	0	2	96	48	6
NMTAP	15	96	2
NMSTR	15	192	5
NMSI_	15	192	5	96	48	1
NMTAP	15	288	5
NMSTR	16	0	4
NMSI_	16	0	4	96	48	0
NMTAP	16	96	4
NMSTR	16	192	3
NMSI_	16	192	3	96	48	7
NMTAP	16	288	3
NMTAP	17	0	4
NMTAP	17	0	6
NMTAP	17	96	1
NMTAP	17	96	3
NMTAP	17	192	0
NMTAP	17	192	7
NMSTR	18	0	1
NMSI_	18	0	1	96	48	5
NMTAP	18	0	3
NMTAP	18	96	1
NMTAP	18	96	4
NMTAP	18	192	4
NMSTR	18	192	6
NMSI_	18	192	6	96	48	2
NMTAP	18	288	3
NMTAP	18	288	6
NMTAP	19	0	1
NMSTR	19	0	3
NMSI_	19	0	3	96	48	7
NMTAP	19	96	3
NMTAP	19	96	5
NMTAP	19	192	4
NMTAP	19	192	6
NMSTR	19	288	4
NMSI_	19	288	4	96	48	0
NMTAP	19	336	3
NMSTR	20	0	2
NMSI_	20	0	2	96	48	6
NMTAP	20	96	2
NMSTR	20	192	5
NMSI_	20	192	5	96	48	0
NMTAP	20	288	1
NMTAP	20	288	5
NMTAP	21	0	2
NMTAP	21	0	7
NMTAP	21	48	5
NMTAP	21	72	4
NMTAP	21	96	5
NMTAP	21	144	3
NMTAP	21	144	6
NMSTR	21	192	7
NMSI_	21	192	7	96	48	4
NMTAP	21	288	7
NMTAP	22	0	3
NMSTR	22	0	5
NMSI_	22	0	5	96	48	1
NMTAP	22	96	0
NMTAP	22	96	5
NMSTR	22	192	2
NMSI_	22	192	2	96	48	7
NMTAP	22	192	4
NMTAP	22	288	2
NMTAP	22	288	6
NMTAP	23	0	0
NMTAP	23	0	5
NMTAP	23	48	2
NMTAP	23	72	3
NMTAP	23	96	2
NMTAP	23	144	1
NMTAP	23	144	4
NMSTR	23	192	0
NMSI_	23	192	0	96	48	3
NMTAP	23	288	0
NMTAP	24	0	4
NMTAP	24	48	5
NMTAP	24	96	6
NMTAP	24	144	7
NMTAP	24	192	3
NMTAP	24	240	2
NMTAP	24	288	1
NMTAP	24	336	0
NMSTR	25	0	6
NMSI_	25	0	6	96	48	2
NMTAP	25	0	7
NMTAP	25	96	6
NMTAP	25	192	0
NMSTR	25	192	1
NMSI_	25	192	1	96	48	5
NMTAP	25	288	1
NMHLD	26	0	3	96
NMHLD	26	0	4	96
NMTAP	26	144	1
NMTAP	26	192	0
NMTAP	26	288	2
NMTAP	26	288	7
NMTAP	27	0	3
NMTAP	27	0	4
NMTAP	27	96	6
NMTAP	27	144	7
NMTAP	27	288	0
NMTAP	27	288	5
NMHLD	28	0	2	192
NMTAP	28	0	4
NMTAP	28	96	1
NMTAP	28	144	1
NMTAP	28	192	1
NMTAP	28	288	1
NMTAP	28	288	7
NMTAP	29	0	0
NMTAP	29	0	6
NMTAP	29	48	5
NMTAP	29	72	4
NMTAP	29	96	5
NMTAP	29	144	3
NMTAP	29	144	6
NMSTR	29	192	7
NMSI_	29	192	7	96	48	4
NMTAP	29	288	7
NMTAP	30	0	3
NMHLD	30	0	5	192
NMTAP	30	96	6
NMTAP	30	144	6
NMTAP	30	192	6
NMTAP	30	288	0
NMTAP	30	288	6
NMTAP	31	0	1
NMTAP	31	0	7
NMTAP	31	48	2
NMTAP	31	72	3
NMTAP	31	96	2
NMTAP	31	144	1
NMTAP	31	144	4
NMSTR	31	192	0
NMSI_	31	192	0	96	48	3
NMTAP	31	288	0
NMTAP	32	0	4
NMTAP	32	0	5
NMTAP	32	48	4
NMTAP	32	48	5
NMTAP	32	96	4
NMTAP	32	96	5
NMTAP	32	144	4
NMTAP	32	144	5
NMTAP	32	192	2
NMTAP	32	192	3
NMTAP	32	240	2
NMTAP	32	240	3
NMTAP	32	288	2
NMTAP	32	288	3
NMTAP	32	336	2
NMTAP	32	336	3
NMTAP	33	0	4
NMTAP	33	48	5
NMTAP	33	96	6
NMTAP	33	144	7
NMTAP	33	192	3
NMTAP	33	240	2
NMTAP	33	288	1
NMTAP	33	336	0
NMSTR	34	0	4
NMSI_	34	0	4	96	48	7
NMTAP	34	0	7
NMSTR	34	96	2
NMSI_	34	96	2	96	48	6
NMSTR	34	192	5
NMSI_	34	192	5	96	48	0
NMTAP	34	288	3
NMTAP	34	288	5
NMTAP	35	0	1
NMTAP	35	0	4
NMTAP	35	96	6
NMTAP	35	120	7
NMTAP	35	144	6
NMTAP	35	192	0
NMTAP	35	192	5
NMTAP	35	288	1
NMTAP	35	336	0
NMSTR	36	0	4
NMSI_	36	0	4	96	48	7
NMTAP	36	0	7
NMSTR	36	96	2
NMSI_	36	96	2	96	48	6
NMSTR	36	192	5
NMSI_	36	192	5	96	48	0
NMTAP	36	288	3
NMTAP	36	288	5
NMTAP	37	0	1
NMSTR	37	0	7
NMSI_	37	0	7	96	48	3
NMSTR	37	96	0
NMSI_	37	96	0	96	48	5
NMTAP	37	96	7
NMTAP	37	192	0
NMTAP	37	192	4
NMTAP	37	288	6
NMTAP	37	336	6
NMSTR	38	0	4
NMSI_	38	0	4	96	48	7
NMTAP	38	0	7
NMSTR	38	96	2
NMSI_	38	96	2	96	48	6
NMSTR	38	192	5
NMSI_	38	192	5	96	48	0
NMTAP	38	288	3
NMTAP	38	288	5
NMTAP	39	0	1
NMTAP	39	0	3
NMSTR	39	96	3
NMSI_	39	96	3	96	48	7
NMTAP	39	144	4
NMSTR	39	192	5
NMSI_	39	192	5	96	48	1
NMTAP	39	288	0
NMTAP	39	288	5
NMTAP	40	0	6
NMTAP	40	0	7
NMTAP	40	48	0
NMTAP	40	48	5
NMTAP	40	96	1
NMTAP	40	96	4
NMTAP	40	144	2
NMTAP	40	144	3
NMTAP	40	192	0
NMTAP	40	192	1
NMTAP	40	240	2
NMTAP	40	240	7
NMTAP	40	288	3
NMTAP	40	288	6
NMTAP	40	336	4
NMTAP	40	336	5
NMTAP	41	0	3
NMTAP	41	48	2
NMTAP	41	96	1
NMTAP	41	144	0
NMTAP	41	192	4
NMTAP	41	240	5
NMTAP	41	288	6
NMTAP	41	336	7
NMTAP	42	0	0
NMSTR	42	0	3
NMSI_	42	0	3	96	48	0
NMSTR	42	96	5
NMSI_	42	96	5	96	48	1
NMSTR	42	192	2
NMSI_	42	192	2	96	48	7
NMTAP	42	288	2
NMTAP	42	288	4
NMTAP	43	0	3
NMTAP	43	0	6
NMTAP	43	96	1
NMTAP	43	120	0
NMTAP	43	144	1
NMTAP	43	192	2
NMTAP	43	192	7
NMTAP	43	288	6
NMTAP	43	336	7
NMTAP	44	0	0
NMSTR	44	0	3
NMSI_	44	0	3	96	48	0
NMSTR	44	96	5
NMSI_	44	96	5	96	48	1
NMSTR	44	192	2
NMSI_	44	192	2	96	48	7
NMTAP	44	288	2
NMTAP	44	288	4
NMSTR	45	0	0
NMSI_	45	0	0	96	48	4
NMTAP	45	0	6
NMTAP	45	96	0
NMSTR	45	96	7
NMSI_	45	96	7	96	48	2
NMTAP	45	192	3
NMTAP	45	192	7
NMTAP	45	288	1
NMTAP	45	336	1
NMSTR	46	0	3
NMSI_	46	0	3	96	48	0
NMSI_	46	0	3	96	48	6
NMSTR	46	192	4
NMSI_	46	192	4	96	48	1
NMSI_	46	192	4	96	48	7
NMSTR	47	0	3
NMSF_	47	0	3	96	48	7
NMSTR	47	192	4
NMSF_	47	192	4	96	48	0
NMTAP	48	0	3
NMTAP	48	0	4
NMTAP	48	144	5
NMTAP	48	144	7
NMTAP	48	240	0
NMTAP	48	240	2
NMSTR	48	336	1
NMSCR	48	336	1	96	240	7
NMSTR	48	336	6
NMSCL	48	336	6	96	240	0
NMHLD	50	0	0	144
NMHLD	50	144	2	144
NMHLD	50	288	4	480
NMTAP	51	96	5
NMTAP	51	192	0
NMTAP	51	288	3
NMHLD	52	0	7	144
NMHLD	52	144	5	144
NMHLD	52	288	3	480
NMTAP	53	96	2
NMTAP	53	192	7
NMTAP	53	288	4
NMHLD	54	0	0	96
NMTAP	54	96	3
NMTAP	54	120	4
NMTAP	54	144	5
NMTAP	54	168	6
NMHLD	54	192	7	96
NMTAP	54	288	4
NMTAP	54	312	3
NMTAP	54	336	2
NMTAP	54	360	1
NMHLD	55	0	0	96
NMTAP	55	96	2
NMTAP	55	120	3
NMTAP	55	144	4
NMTAP	55	168	5
NMHLD	55	192	6	96
NMTAP	55	288	5
NMTAP	55	312	4
NMTAP	55	336	3
NMTAP	55	360	2
NMHLD	56	0	1	240
NMTAP	56	96	0
NMTAP	56	144	7
NMTAP	56	192	6
NMHLD	56	240	5	96
NMSTR	56	336	2
NMSCL	56	336	2	96	144	5
BRTAP	58	0	0
BRTAP	58	0	7
NMHLD	59	0	1	96
NMHLD	59	0	7	96
NMHLD	59	144	4	96
NMHLD	59	144	6	96
NMTAP	59	288	2
NMTAP	59	288	3
BRTAP	60	0	0
BRTAP	60	0	7
NMHLD	61	0	0	96
NMHLD	61	0	6	96
NMHLD	61	144	1	96
NMHLD	61	144	3	96
NMTAP	61	288	4
NMTAP	61	288	5
NMHLD	62	0	0	96
NMHLD	62	0	2	96
NMTAP	62	192	6
NMTAP	62	192	7
NMTAP	62	288	3
NMTAP	62	312	4
NMTAP	62	336	3
NMHLD	63	0	5	96
NMHLD	63	0	7	96
NMTAP	63	192	0
NMTAP	63	192	1
NMTAP	63	288	4
NMTAP	63	312	3
NMTAP	63	336	4
NMTAP	64	0	6
NMTAP	64	0	7
NMTAP	64	96	3
NMTAP	64	120	4
NMTAP	64	144	3
NMTAP	64	192	0
NMTAP	64	192	1
NMTAP	64	288	4
NMTAP	64	312	3
NMTAP	64	336	4
NMTAP	65	0	5
NMTAP	65	0	7
NMTAP	65	96	0
NMTAP	65	96	2
NMTAP	65	192	3
NMTAP	65	192	4
NMSTR	66	0	0
NMSI_	66	0	0	96	48	5
NMSTR	66	96	7
NMSI_	66	96	7	96	48	2
NMSTR	66	192	1
NMSI_	66	192	1	96	48	4
NMSTR	66	288	6
NMSI_	66	288	6	96	48	3
NMSTR	67	0	2
NMSI_	67	0	2	96	48	7
NMSTR	67	96	5
NMSI_	67	96	5	96	48	0
NMTAP	67	192	1
NMTAP	67	288	6
NMTAP	67	336	6
NMSTR	68	0	6
NMSI_	68	0	6	96	48	3
NMSTR	68	96	1
NMSI_	68	96	1	96	48	4
NMSTR	68	192	5
NMSI_	68	192	5	96	48	0
NMTAP	68	288	1
NMTAP	69	0	3
NMTAP	69	0	6
NMTAP	69	48	5
NMTAP	69	72	4
NMTAP	69	96	5
NMTAP	69	144	3
NMTAP	69	144	6
NMSTR	69	192	7
NMSI_	69	192	7	96	48	3
NMTAP	69	288	7
NMSTR	70	0	2
NMSI_	70	0	2	96	48	7
NMSTR	70	96	5
NMSI_	70	96	5	96	48	0
NMSTR	70	192	3
NMSI_	70	192	3	96	48	6
NMTAP	70	288	7
NMTAP	71	0	1
NMTAP	71	0	4
NMTAP	71	48	2
NMTAP	71	72	3
NMTAP	71	96	2
NMTAP	71	144	1
NMTAP	71	144	4
NMTAP	71	192	3
NMTAP	71	192	6
NMTAP	71	288	1
NMTAP	71	312	0
NMTAP	71	336	1
NMTAP	72	0	2
NMSTR	72	0	7
NMSI_	72	0	7	96	48	3
NMTAP	72	96	7
NMSTR	72	192	0
NMSI_	72	192	0	96	48	4
NMTAP	72	192	5
NMTAP	72	288	0
BRTAP	73	0	0
BRTAP	73	0	7
NMSTR	74	0	7
NMSI_	74	0	7	96	48	2
NMSTR	74	96	0
NMSI_	74	96	0	96	48	5
NMSTR	74	192	6
NMSI_	74	192	6	96	48	3
NMSTR	74	288	1
NMSI_	74	288	1	96	48	4
NMSTR	75	0	5
NMSI_	75	0	5	96	48	0
NMSTR	75	96	2
NMSI_	75	96	2	96	48	7
NMTAP	75	192	6
NMTAP	75	288	1
NMTAP	75	336	1
NMSTR	76	0	1
NMSI_	76	0	1	96	48	4
NMSTR	76	96	6
NMSI_	76	96	6	96	48	3
NMSTR	76	192	2
NMSI_	76	192	2	96	48	7
NMTAP	76	288	6
NMTAP	77	0	1
NMTAP	77	0	4
NMTAP	77	48	2
NMTAP	77	72	3
NMTAP	77	96	2
NMTAP	77	144	1
NMTAP	77	144	4
NMSTR	77	192	0
NMSI_	77	192	0	96	48	3
NMTAP	77	288	0
NMSTR	78	0	5
NMSI_	78	0	5	96	48	0
NMSTR	78	96	2
NMSI_	78	96	2	96	48	7
NMSTR	78	192	4
NMSI_	78	192	4	96	48	1
NMTAP	78	288	0
NMTAP	79	0	3
NMTAP	79	0	6
NMTAP	79	48	5
NMTAP	79	72	4
NMTAP	79	96	5
NMTAP	79	144	3
NMTAP	79	144	6
NMTAP	79	192	0
NMTAP	79	192	7
NMTAP	79	240	0
NMTAP	79	240	7
NMTAP	79	288	0
NMTAP	79	288	7
NMTAP	79	336	0
NMTAP	79	336	7
BRTAP	80	0	1
BRTAP	80	0	6
BRTAP	80	48	1
BRTAP	80	48	6
BRTAP	81	192	1
BRTAP	81	192	2
BRTAP	81	288	5
BRTAP	81	288	6
NMHLD	82	0	0	192
NMTAP	82	0	7
NMTAP	82	192	3
NMTAP	82	240	2
NMTAP	82	336	1
NMTAP	82	336	4
NMTAP	83	192	0
NMTAP	83	240	7
NMTAP	83	288	6
NMTAP	83	336	5
NMHLD	84	0	0	192
NMTAP	84	0	4
NMTAP	84	192	7
NMTAP	84	240	6
NMTAP	84	336	0
NMTAP	84	336	5
NMTAP	85	192	5
NMTAP	85	192	6
NMTAP	85	288	1
NMTAP	85	288	2
NMTAP	86	0	0
NMHLD	86	0	7	192
NMTAP	86	192	4
NMTAP	86	240	5
NMTAP	86	336	3
NMTAP	86	336	6
NMTAP	87	192	7
NMTAP	87	240	0
NMTAP	87	288	1
NMTAP	87	336	2
NMTAP	88	0	3
NMHLD	88	0	7	192
NMTAP	88	192	0
NMTAP	88	240	1
NMTAP	88	336	2
NMTAP	88	336	7
NMTAP	89	192	1
NMTAP	89	192	2
NMTAP	89	288	5
NMTAP	89	288	6
NMTAP	90	0	0
NMTAP	90	0	2
NMTAP	90	96	7
NMTAP	90	192	5
NMTAP	90	240	4
NMTAP	90	288	6
NMTAP	90	336	3
NMTAP	91	0	5
NMTAP	91	96	1
NMTAP	91	144	2
NMTAP	91	192	3
NMTAP	91	288	0
NMTAP	92	0	4
NMTAP	92	0	6
NMTAP	92	96	2
NMTAP	92	144	3
NMTAP	92	192	1
NMTAP	92	240	4
NMTAP	92	288	2
NMTAP	92	336	3
NMTAP	93	0	1
NMTAP	93	96	7
NMTAP	93	144	6
NMTAP	93	192	5
NMTAP	93	240	4
NMTAP	93	336	7
NMTAP	94	0	0
NMTAP	94	0	2
NMTAP	94	96	3
NMTAP	94	192	6
NMTAP	94	240	7
NMTAP	94	288	5
NMTAP	94	336	0
NMTAP	95	0	5
NMTAP	95	0	7
NMTAP	95	96	1
NMTAP	95	144	0
NMTAP	95	192	2
NMTAP	95	288	6
NMTAP	95	336	5
NMTAP	96	0	2
NMTAP	96	0	4
NMTAP	96	48	1
NMTAP	96	96	0
NMTAP	96	144	1
NMTAP	96	192	3
NMTAP	96	192	5
NMTAP	96	240	6
NMTAP	96	288	7
NMTAP	96	336	6
NMTAP	97	0	1
NMTAP	97	0	2
NMTAP	97	96	5
NMTAP	97	96	6
NMTAP	97	192	0
NMTAP	97	204	1
NMTAP	97	216	2
NMTAP	97	228	3
NMTAP	97	240	4
NMTAP	97	252	5
NMTAP	97	264	6
NMTAP	97	276	7
BRTAP	97	288	0
NMSTR	98	0	4
NMSI_	98	0	4	96	48	0
NMSTR	98	0	5
NMSI_	98	0	5	96	48	7
NMTAP	98	96	4
NMTAP	98	96	5
NMSTR	98	192	1
NMSI_	98	192	1	96	48	5
NMTAP	98	240	1
NMSTR	98	288	0
NMSI_	98	288	0	96	48	4
NMTAP	98	336	0
NMSTR	99	0	3
NMSI_	99	0	3	96	48	7
NMSTR	99	96	6
NMSI_	99	96	6	96	48	2
NMTAP	99	144	6
NMSTR	99	192	4
NMSI_	99	192	4	96	48	0
NMTAP	99	288	7
NMTAP	100	0	1
NMSTR	100	0	7
NMSCL	100	0	7	96	48	4
NMSTR	100	96	1
NMSI_	100	96	1	96	48	5
NMTAP	100	144	1
NMSTR	100	192	2
NMSI_	100	192	2	96	48	6
NMTAP	100	240	2
NMSTR	100	288	3
NMSI_	100	288	3	96	48	7
NMTAP	100	336	3
NMSTR	101	0	4
NMSI_	101	0	4	96	48	0
NMSTR	101	96	1
NMSCR	101	96	1	96	48	4
NMTAP	101	144	1
NMSTR	101	192	0
NMSI_	101	192	0	96	48	4
NMTAP	101	288	7
NMSTR	102	0	6
NMSI_	102	0	6	96	48	4
NMSTR	102	0	7
NMSI_	102	0	7	96	48	3
NMTAP	102	96	6
NMTAP	102	96	7
NMSTR	102	192	2
NMSI_	102	192	2	96	48	6
NMTAP	102	240	2
NMSTR	102	288	3
NMSI_	102	288	3	96	48	7
NMTAP	102	336	3
NMSTR	103	0	0
NMSI_	103	0	0	96	48	4
NMSTR	103	96	5
NMSI_	103	96	5	96	48	0
NMTAP	103	144	5
NMSTR	103	192	7
NMSI_	103	192	7	96	48	3
NMTAP	103	288	1
NMHLD	103	336	1	96
NMSTR	104	48	0
NMSCR	104	48	0	96	48	3
NMTAP	104	96	7
NMTAP	104	144	6
NMSTR	104	192	5
NMSCR	104	192	5	96	48	0
NMTAP	104	240	4
NMTAP	104	288	3
NMTAP	104	336	2
NMSTR	105	0	1
NMSI_	105	0	1	96	48	5
NMSTR	105	96	7
NMSI_	105	96	7	96	48	3
NMSTR	105	192	4
NMSI_	105	192	4	96	48	0
NMTAP	105	288	5
NMSTR	106	0	2
NMSI_	106	0	2	96	48	0
NMSTR	106	0	3
NMSI_	106	0	3	96	48	7
NMTAP	106	96	2
NMTAP	106	96	3
NMSTR	106	192	6
NMSI_	106	192	6	96	48	2
NMTAP	106	240	6
NMSTR	106	288	7
NMSI_	106	288	7	96	48	3
NMTAP	106	336	7
NMSTR	107	0	4
NMSI_	107	0	4	96	48	0
NMSTR	107	96	1
NMSI_	107	96	1	96	48	5
NMTAP	107	144	1
NMSTR	107	192	3
NMSI_	107	192	3	96	48	7
NMTAP	107	288	0
NMSTR	108	0	0
NMSCR	108	0	0	96	48	3
NMTAP	108	0	6
NMSTR	108	96	6
NMSI_	108	96	6	96	48	2
NMTAP	108	144	6
NMSTR	108	192	5
NMSI_	108	192	5	96	48	1
NMTAP	108	240	5
NMSTR	108	288	4
NMSI_	108	288	4	96	48	0
NMTAP	108	336	4
NMSTR	109	0	3
NMSI_	109	0	3	96	48	7
NMSTR	109	96	6
NMSCL	109	96	6	96	48	3
NMTAP	109	144	6
NMSTR	109	192	7
NMSI_	109	192	7	96	48	3
NMTAP	109	288	0
NMSTR	110	0	0
NMSI_	110	0	0	96	48	4
NMSTR	110	0	1
NMSI_	110	0	1	96	48	3
NMTAP	110	96	0
NMTAP	110	96	1
NMSTR	110	192	5
NMSI_	110	192	5	96	48	1
NMTAP	110	240	5
NMSTR	110	288	4
NMSI_	110	288	4	96	48	0
NMTAP	110	336	4
NMSTR	111	0	7
NMSI_	111	0	7	96	48	3
NMSTR	111	96	2
NMSI_	111	96	2	96	48	7
NMTAP	111	144	2
NMSTR	111	192	0
NMSI_	111	192	0	96	48	4
NMTAP	111	288	6
NMHLD	111	336	6	96
NMSTR	112	48	7
NMSCL	112	48	7	96	48	4
NMTAP	112	96	0
NMTAP	112	144	1
NMSTR	112	192	2
NMSCL	112	192	2	96	48	7
NMTAP	112	240	3
NMTAP	112	288	4
NMTAP	112	336	5
NMSTR	113	0	6
NMSI_	113	0	6	96	48	2
NMSTR	113	96	0
NMSI_	113	96	0	96	48	4
NMSTR	113	192	3
NMSI_	113	192	3	96	48	7
NMTAP	113	288	2
NMSTR	114	0	0
NMSI_	114	0	0	96	48	4
NMTAP	114	0	6
NMTAP	114	48	1
NMTAP	114	96	2
NMSTR	114	144	3
NMSI_	114	144	3	96	48	7
NMTAP	114	192	2
NMTAP	114	240	1
NMSTR	114	288	0
NMSI_	114	288	0	96	48	4
NMTAP	114	336	1
NMTAP	115	0	2
NMSTR	115	48	3
NMSI_	115	48	3	96	48	7
NMTAP	115	96	2
NMTAP	115	144	1
NMSTR	115	192	0
NMSI_	115	192	0	96	48	4
NMTAP	115	240	0
NMTAP	116	0	1
NMSTR	116	0	7
NMSI_	116	0	7	96	48	3
NMTAP	116	48	6
NMTAP	116	96	5
NMSTR	116	144	4
NMSI_	116	144	4	96	48	0
NMTAP	116	192	5
NMTAP	116	240	6
NMSTR	116	288	7
NMSI_	116	288	7	96	48	3
NMTAP	116	336	6
NMTAP	117	0	5
NMSTR	117	48	4
NMSI_	117	48	4	96	48	0
NMTAP	117	96	5
NMTAP	117	144	6
NMSTR	117	192	7
NMSI_	117	192	7	96	48	3
NMTAP	117	240	7
NMSTR	118	0	0
NMSI_	118	0	0	96	48	5
NMTAP	118	0	6
NMTAP	118	48	1
NMTAP	118	96	2
NMSTR	118	144	3
NMSI_	118	144	3	96	48	6
NMTAP	118	192	2
NMTAP	118	240	1
NMSTR	118	288	0
NMSI_	118	288	0	96	48	5
NMTAP	118	336	1
NMTAP	119	0	2
NMSTR	119	48	3
NMSI_	119	48	3	96	48	6
NMTAP	119	96	2
NMTAP	119	144	1
NMSTR	119	192	0
NMSI_	119	192	0	96	48	4
NMTAP	119	240	0
NMTAP	120	0	1
NMSTR	120	0	7
NMSI_	120	0	7	96	48	2
NMTAP	120	48	6
NMTAP	120	96	5
NMSTR	120	144	4
NMSI_	120	144	4	96	48	1
NMTAP	120	192	5
NMTAP	120	240	6
NMSTR	120	288	7
NMSI_	120	288	7	96	48	2
NMTAP	120	336	6
NMTAP	121	0	5
NMSTR	121	48	4
NMSI_	121	48	4	96	48	1
NMTAP	121	96	5
NMTAP	121	144	6
NMSTR	121	192	7
NMSI_	121	192	7	96	48	3
NMTAP	121	240	7
NMSTR	122	0	0
NMSI_	122	0	0	96	48	5
NMTAP	122	0	6
NMTAP	122	48	1
NMTAP	122	96	2
NMSTR	122	144	3
NMSI_	122	144	3	96	48	6
NMTAP	122	192	2
NMTAP	122	240	1
NMSTR	122	288	0
NMSCL	122	288	0	96	48	5
NMTAP	122	336	1
NMTAP	123	0	2
NMSTR	123	48	3
NMSCR	123	48	3	96	48	6
NMTAP	123	96	2
NMTAP	123	144	1
NMSTR	123	192	0
NMSI_	123	192	0	96	48	4
NMTAP	123	240	0
NMTAP	123	288	5
NMTAP	123	336	6
NMTAP	124	0	1
NMSTR	124	0	7
NMSI_	124	0	7	96	48	2
NMTAP	124	48	6
NMTAP	124	96	5
NMSTR	124	144	4
NMSI_	124	144	4	96	48	1
NMTAP	124	192	5
NMTAP	124	240	6
NMSTR	124	288	7
NMSCR	124	288	7	96	48	2
NMTAP	124	336	6
NMTAP	125	0	5
NMSTR	125	48	4
NMSCL	125	48	4	96	48	1
NMTAP	125	96	5
NMTAP	125	144	6
NMSTR	125	192	7
NMSI_	125	192	7	96	48	3
NMTAP	125	240	7
NMTAP	125	288	2
NMTAP	125	336	1
NMSTR	126	0	0
NMSI_	126	0	0	96	48	4
NMTAP	126	48	0
NMTAP	126	96	0
NMSTR	126	144	7
NMSI_	126	144	7	96	48	3
NMTAP	126	192	7
NMTAP	126	240	7
NMSTR	126	288	2
NMSI_	126	288	2	96	48	6
NMTAP	126	336	2
NMTAP	127	0	2
NMTAP	127	48	3
NMTAP	127	72	4
NMTAP	127	96	5
NMTAP	127	120	6
NMTAP	127	144	7
NMTAP	127	168	0
NMTAP	127	192	3
NMTAP	127	204	2
NMTAP	127	216	1
NMTAP	127	228	0
NMTAP	127	240	7
NMTAP	127	252	6
NMTAP	127	264	5
NMTAP	127	276	4
NMTAP	127	288	3
NMTAP	127	300	2
NMTAP	127	312	1
NMTAP	127	324	0
BRTAP	127	336	7
NMTAP	128	48	7
NMTAP	128	96	6
NMTAP	128	144	5
NMTAP	128	192	0
NMTAP	128	240	1
NMTAP	128	288	2
NMTAP	128	336	3
BRTAP	129	0	4
BRTAP	130	0	0
BRTAP	130	0	7

T_REC_TAP	594
T_REC_BRK	19
T_REC_XTP	0
T_REC_BXX	0
T_REC_HLD	34
T_REC_XHO	0
T_REC_BHO	0
T_REC_BXH	0
T_REC_STR	175
T_REC_BST	0
T_REC_XST	0
T_REC_XBS	0
T_REC_TTP	0
T_REC_THO	0
T_REC_SLD	177
T_REC_BSL	0
T_REC_ALL	999
T_NUM_TAP	769
T_NUM_BRK	19
T_NUM_HLD	34
T_NUM_SLD	177
T_NUM_ALL	999
T_JUDGE_TAP	788
T_JUDGE_HLD	54
T_JUDGE_SLD	177
T_JUDGE_ALL	1019
TTM_EACHPAIRS	155
TTM_SCR_TAP	384500
TTM_SCR_BRK	49400
TTM_SCR_HLD	34000
TTM_SCR_SLD	265500
TTM_SCR_ALL	733400
TTM_SCR_S	709600
TTM_SCR_SS	731500
TTM_RAT_ACV	10025

