VERSION	0.00.00	1.05.00
FES_MODE	0
BPM_DEF	180.000	180.000	180.000	180.000
MET_DEF	4	4
RESOLUTION	384
CLK_DEF	384
COMPATIBLE_CODE	MA2

BPM	0	0	180.000
MET	0	0	4	4

NMSTR	2	0	4
NMSCL	2	0	4	96	48	3
NMTAP	2	0	6
CNSI_	2	144	3	0	144	0
NMTAP	3	0	0
NMSTR	3	0	3
NMSLR	3	0	3	96	192	7
NMSTR	4	0	4
NMSCL	4	0	4	96	48	3
NMTAP	4	0	6
CNSI_	4	144	3	0	144	0
NMTAP	5	0	0
NMSTR	5	0	3
NMSI_	5	0	3	96	96	7
NMTAP	5	288	6
NMTAP	5	288	7
NMTAP	6	0	5
NMTAP	6	96	5
NMTAP	6	192	3
NMTAP	6	192	5
NMTAP	6	288	4
NMTAP	6	288	5
NMTAP	7	0	6
NMTAP	7	96	6
NMTAP	7	192	0
NMTAP	7	192	6
NMTAP	7	288	6
NMTAP	7	288	7
NMTAP	8	0	5
NMTAP	8	96	5
NMTAP	8	192	4
NMTAP	8	192	5
NMTAP	8	288	3
NMTAP	8	288	6
NMTAP	8	336	3
NMTAP	8	336	6
NMTAP	9	48	0
NMTAP	9	48	6
NMTAP	9	96	0
NMTAP	9	96	6
NMTAP	9	192	6
NMTAP	9	192	7
BRTAP	9	288	5
BRTAP	9	288	6
NMHLD	10	0	7	288
NMTAP	10	192	4
NMTAP	10	288	4
NMSTR	11	0	3
NMSI_	11	0	3	96	96	0
CNSCL	11	192	0	0	96	6
NMHLD	12	0	4	288
NMTAP	12	192	7
NMTAP	12	288	7
NMSTR	13	0	6
NMSI_	13	0	6	96	96	4
NMSTR	13	192	3
NMSI_	13	192	3	96	96	7
NMHLD	14	0	6	288
NMTAP	14	192	7
NMTAP	14	288	0
NMSTR	15	0	0
NMSI_	15	0	0	96	144	3
NMSCL	15	0	0	96	192	5
CNSCR	15	240	3	0	48	4
NMTAP	16	0	4
NMTAP	16	96	3
NMTAP	16	96	5
NMTAP	16	192	6
NMTAP	16	288	4
NMTAP	16	288	6
NMSTR	17	0	3
NMSI_	17	0	3	96	144	0
NMSCR	17	0	3	96	192	6
CNSCL	17	240	0	0	48	7
NMTAP	18	0	6
NMTAP	18	96	4
NMTAP	18	96	6
NMTAP	18	192	3
NMTAP	18	288	3
NMTAP	18	288	5
NMTAP	19	0	6
NMTAP	19	48	6
NMTAP	19	96	7
NMTAP	19	192	0
NMTAP	19	240	0
NMTAP	19	288	7
NMHLD	20	0	6	96
NMTAP	20	96	4
NMHLD	20	192	3	96
NMTAP	20	288	5
NMTAP	21	0	6
NMTAP	21	0	7
NMTAP	21	96	0
NMTAP	21	96	5
NMTAP	21	192	0
NMTAP	21	192	7
NMTAP	21	288	0
NMTAP	21	288	6
NMTAP	22	0	6
NMTAP	22	96	4
NMTAP	22	96	6
NMTAP	22	192	3
NMTAP	22	240	3
NMTAP	22	288	3
NMTAP	22	288	5
NMTAP	23	0	7
NMTAP	23	96	0
NMTAP	23	96	6
NMTAP	23	192	0
NMTAP	23	240	0
NMTAP	23	288	0
NMTAP	23	288	7
NMTAP	24	0	6
NMTAP	24	0	7
NMTAP	24	96	4
NMTAP	24	96	5
NMTAP	24	192	3
NMTAP	24	192	4
NMTAP	24	288	0
NMTAP	24	288	7
NMTAP	25	0	6
NMTAP	25	0	7
NMTAP	25	96	4
NMTAP	25	96	5
BRTAP	25	192	3
BRTAP	25	192	6
NMSTR	26	0	0
NMSV_	26	0	0	96	192	3
NMSTR	27	0	0
NMSV_	27	0	0	96	192	3
NMSV_	27	0	0	96	192	5
NMSTR	28	0	7
NMSCL	28	0	7	96	192	3
CNSI_	28	288	3	0	192	0
NMTAP	29	192	0
NMTAP	29	192	7
NMSTR	30	0	0
NMSI_	30	0	0	96	192	3
NMSTR	31	0	7
NMSI_	31	0	7	96	192	4
NMTTP	32	0	3	B	0	M1
NMTTP	32	0	4	E	0	M1
NMTTP	32	192	0	B	0	M1
NMTTP	32	192	0	E	0	M1
NMTTP	33	0	6	B	0	M1
NMTTP	33	0	7	E	0	M1
NMTTP	33	192	4	B	0	M1
NMTTP	33	192	5	E	0	M1
EXHLD	34	0	3	384
NMTAP	34	192	4
NMTAP	34	288	4
NMHLD	35	0	5	192
NMTAP	35	192	4
NMTAP	35	288	3
NMTAP	35	288	4
NMHLD	36	0	3	192
NMHLD	36	192	0	192
NMHLD	37	0	7	192
NMHLD	37	192	4	288
NMTAP	38	0	7
NMTAP	38	96	7
NMHLD	38	192	0	96
NMHLD	38	192	5	96
NMHLD	39	0	4	96
NMHLD	39	0	6	96
NMHLD	39	192	6	96
NMHLD	39	192	7	96
NMTAP	40	0	0
NMTAP	40	0	7
NMTAP	40	96	3
NMTAP	40	96	4
NMTAP	40	192	4
NMTAP	40	192	5
NMTAP	40	288	6
NMHLD	40	336	6	144
NMTAP	41	48	7
NMTAP	41	96	7
BRTAP	41	288	5
BRTAP	41	288	6
NMTAP	42	0	3
NMTAP	42	0	4
NMTAP	42	96	0
NMTAP	42	96	7
NMTAP	42	192	6
NMTAP	42	192	7
NMTAP	42	288	4
NMTAP	42	288	5
NMTAP	42	336	4
NMTAP	42	336	5
NMTAP	43	48	3
NMTAP	43	48	4
NMSTR	43	96	3
NMSI_	43	96	3	96	96	6
NMSTR	43	96	4
NMSI_	43	96	4	96	96	7
NMTAP	44	0	4
NMTAP	44	0	5
NMTAP	44	96	6
NMTAP	44	96	7
NMTAP	44	192	0
NMTAP	44	192	7
NMTAP	44	288	3
NMTAP	44	288	4
NMTAP	44	336	3
NMTAP	44	336	4
NMTAP	45	48	4
NMTAP	45	48	5
NMSTR	45	96	4
NMSI_	45	96	4	96	96	6
NMSI_	45	96	4	96	96	7
NMTAP	45	96	5
NMTAP	46	0	6
NMTAP	46	0	7
NMTAP	46	96	4
NMTAP	46	96	5
NMTAP	46	192	3
NMTAP	46	192	4
NMTAP	46	288	0
NMHLD	46	336	0	144
NMTAP	47	48	6
NMTAP	47	96	6
NMTAP	47	192	5
NMTAP	47	192	7
NMHLD	47	288	6	96
NMHLD	48	0	4	96
NMHLD	48	96	3	96
NMSTR	48	192	0
NMSI_	48	192	0	96	96	3
CNSCR	49	0	3	0	96	6
NMTAP	49	192	6
NMTAP	49	192	7
BRTAP	49	288	5
BRTAP	49	288	6
NMTAP	50	0	3
NMTAP	50	0	4
NMTAP	50	96	4
NMTAP	50	96	5
NMTAP	50	192	5
NMTAP	50	192	6
NMTAP	50	288	6
NMTAP	50	288	7
NMTAP	50	336	6
NMTAP	50	336	7
NMTAP	51	48	0
NMTAP	51	48	7
NMSTR	51	96	0
NMSI_	51	96	0	96	96	4
NMSTR	51	96	7
NMSV_	51	96	7	96	96	4
NMTAP	52	0	4
NMTAP	52	0	5
NMTAP	52	96	3
NMTAP	52	96	4
NMTAP	52	192	0
NMTAP	52	192	7
NMTAP	52	288	6
NMTAP	52	288	7
NMTAP	52	336	6
NMTAP	52	336	7
NMTAP	53	48	4
NMTAP	53	48	5
NMTAP	53	96	4
NMSTR	53	96	5
NMSV_	53	96	5	96	96	0
NMSV_	53	96	5	96	96	3
NMTAP	54	0	0
NMTAP	54	0	3
NMTAP	54	96	3
NMTAP	54	96	4
NMTAP	54	192	4
NMTAP	54	192	7
NMTAP	54	288	0
NMTAP	54	288	7
NMTAP	54	336	0
NMSTR	54	336	7
NMSXL	54	336	7	96	240	7
NMSXR	54	336	7	96	240	7
EXTAP	56	0	0
EXTAP	56	0	6
NMTAP	56	96	3
NMTAP	56	96	4
NMTAP	56	144	3
NMTAP	56	144	4
NMTAP	56	240	6
NMTAP	56	288	6
NMTAP	56	336	4
NMTAP	57	48	5
NMTAP	57	96	4
NMTAP	57	144	3
NMTAP	57	192	4
NMTTP	57	288	3	B	0	M1
NMTTP	57	288	4	B	0	M1
NMTTP	57	288	4	E	1	M1
NMTAP	58	0	6
NMTAP	58	96	6
NMTAP	58	96	7
NMTAP	58	192	0
NMTAP	58	288	0
NMTAP	58	288	7
NMTAP	59	0	6
NMTAP	59	48	6
NMTAP	59	96	7
NMTAP	59	192	0
NMTAP	59	240	0
NMTAP	59	288	7
NMHLD	60	0	6	96
NMTAP	60	96	4
NMHLD	60	192	3	96
NMTAP	60	288	5
NMSTR	61	0	4
NMSCR	61	0	4	96	96	7
NMSTR	61	192	0
NMSI_	61	192	0	96	96	3
NMTAP	62	0	6
NMTAP	62	96	6
NMTAP	62	96	7
NMTAP	62	192	5
NMTAP	62	240	5
NMTAP	62	288	4
NMTAP	63	0	3
NMTAP	63	96	3
NMTAP	63	96	4
NMTAP	63	192	0
NMTAP	63	240	0
NMTAP	63	288	7
NMTAP	64	0	3
NMTAP	64	48	3
NMTAP	64	96	5
NMTAP	64	144	5
NMTAP	64	192	4
NMTAP	64	240	4
NMSTR	64	288	6
NMSV_	64	288	6	96	96	3
BRTAP	65	192	0
BRTAP	65	192	3
NMHLD	66	0	5	576
NMTAP	66	144	4
NMTAP	66	192	4
NMTTP	66	336	5	E	0	M1
NMTTP	67	48	6	E	0	M1
EXTAP	67	144	6
EXTAP	67	192	6
NMHLD	68	0	4	576
NMTAP	68	144	5
NMTAP	68	192	5
NMTTP	68	336	5	E	0	M1
NMTTP	69	48	4	E	0	M1
EXTAP	69	144	3
EXTAP	69	192	3
NMHLD	70	0	6	576
NMTAP	70	144	4
NMTAP	70	192	4
NMTTP	70	336	5	B	0	M1
NMTTP	71	48	6	B	0	M1
EXTAP	71	144	7
EXTAP	71	192	7
NMHLD	72	0	5	192
NMHLD	72	192	4	192
NMHLD	73	0	7	192
NMHLD	73	192	6	192
EXHLD	74	0	4	576
NMTAP	74	144	5
NMTAP	74	192	5
NMTTP	74	336	5	E	0	M1
NMTTP	75	48	4	E	0	M1
NMTAP	75	144	3
NMTAP	75	192	3
NMHLD	76	0	5	576
NMTAP	76	0	6
NMTAP	76	144	6
NMTAP	76	192	6
NMTTP	76	336	6	E	0	M1
NMTTP	77	48	5	E	0	M1
NMTAP	77	144	4
NMTAP	77	192	4
NMTAP	77	288	3
NMTAP	77	288	6
NMTAP	78	0	6
NMTAP	78	96	4
NMTAP	78	96	6
NMTAP	78	192	3
NMTAP	78	288	3
NMTAP	78	288	5
NMTAP	79	0	6
NMTAP	79	96	5
NMTAP	79	96	7
NMTAP	79	192	4
NMTAP	79	288	3
NMTAP	79	288	5
NMTAP	80	0	3
NMTAP	80	0	4
NMTAP	80	96	0
NMTAP	80	96	7
NMTAP	80	192	6
NMTAP	80	192	7
NMTAP	80	288	0
NMTAP	80	288	5
NMTAP	80	336	0
NMTAP	80	336	5
NMTAP	81	48	3
NMTAP	81	48	6
NMTAP	81	96	3
NMTAP	81	96	6
BRTAP	81	288	5
BRTAP	81	288	6
NMSTR	82	0	6
NMSV_	82	0	6	96	192	4
NMSTR	82	0	7
NMSI_	82	0	7	96	192	4
NMSTR	83	0	5
NMSCR	83	0	5	96	96	7
CNSI_	83	192	7	0	96	4
NMSTR	84	0	4
NMSCR	84	0	4	96	192	7
NMSV_	84	0	4	96	192	7
NMSTR	85	0	6
NMSCL	85	0	6	96	192	4
NMSTR	85	0	7
NMSUR	85	0	7	96	192	4
NMHLD	86	0	5	192
NMHLD	86	192	7	192
NMHLD	87	0	4	192
NMTAP	87	192	6
NMHLD	88	0	4	96
NMHLD	88	0	7	96
NMHLD	88	192	4	96
NMHLD	88	192	7	96
NMTAP	89	0	4
NMTAP	89	0	5
NMTAP	89	48	4
NMTAP	89	48	5
NMTAP	89	144	5
NMTAP	89	144	6
BRTAP	89	240	4
BRTAP	89	240	7
NMTAP	90	0	5
NMTAP	90	0	6
NMTAP	90	96	4
NMTAP	90	96	5
NMTAP	90	192	6
NMTAP	90	192	7
NMTAP	90	288	5
NMTAP	90	288	6
NMTAP	90	336	5
NMTAP	90	336	6
NMTAP	91	48	4
NMTAP	91	48	5
NMSTR	91	96	4
NMSUL	91	96	4	96	96	7
NMSV_	91	96	4	96	96	6
NMTAP	91	96	5
NMTAP	92	0	6
NMTAP	92	0	7
NMTAP	92	96	4
NMTAP	92	96	5
NMTAP	92	192	5
NMTAP	92	192	6
NMTAP	92	288	6
NMTAP	92	288	7
NMTAP	92	336	6
NMTAP	92	336	7
NMTAP	93	48	4
NMTAP	93	48	5
NMSTR	93	96	4
NMSI_	93	96	4	96	96	7
NMSXL	93	96	4	96	96	6
NMTAP	93	96	5
NMTAP	94	0	6
NMTAP	94	0	7
NMTAP	94	96	5
NMTAP	94	96	6
NMTAP	94	192	4
NMTAP	94	192	5
EXTAP	94	288	5
EXTAP	94	288	6
EXTAP	94	336	5
EXTAP	94	336	6
NMTAP	95	48	7
NMHLD	95	96	7	96
NMTAP	95	192	4
BRTAP	95	288	5
BRTAP	95	288	6
NMTAP	96	0	7
NMTAP	96	96	5
NMTAP	96	96	6
NMTAP	96	144	5
NMTAP	96	144	6
NMSTR	96	240	4
NMSUL	96	240	4	96	96	7
NMTAP	96	240	5
CNSV_	97	48	7	0	96	5
CNSCR	97	144	5	0	48	6
BRTAP	97	288	5
BRTAP	97	288	6
NMTAP	98	0	6
NMTAP	98	0	7
NMTAP	98	96	4
NMTAP	98	96	5
NMTAP	98	192	6
NMTAP	98	192	7
NMSTR	98	288	4
NMSCR	98	288	4	96	240	7
NMSXL	98	288	4	96	240	7
NMTAP	98	288	5
NMTAP	100	0	6
NMTAP	100	0	7
NMTAP	100	96	4
NMTAP	100	96	5
NMTAP	100	192	6
NMTAP	100	192	7
NMTAP	100	288	4
NMTAP	100	288	5
NMTAP	100	336	4
NMTAP	100	336	5
NMTAP	101	48	6
NMTAP	101	48	7
NMSTR	101	96	6
NMSUL	101	96	6	96	96	7
NMSV_	101	96	6	96	96	4
NMTAP	101	96	7
NMHLD	102	0	6	96
NMHLD	102	96	4	96
NMHLD	102	192	7	96
NMTAP	102	288	5
NMTAP	102	336	5
NMTAP	103	48	4
NMTAP	103	48	6
NMTAP	103	96	4
NMTAP	103	96	6
NMSTR	103	192	7
NMSI_	103	192	7	96	96	5
NMSTR	104	0	4
NMSXR	104	0	4	96	240	6
NMTAP	105	48	7
NMTAP	105	96	6
NMTAP	105	144	5
NMTAP	105	192	4
BRTAP	105	288	5
BRTAP	105	288	6
BRTAP	105	336	5
BRTAP	105	336	6
BRTAP	106	48	4
BRTAP	106	96	5
BRTAP	106	144	6
BRSTR	106	192	7
BRSI_	106	192	7	96	48	4
BRSI_	106	192	7	96	48	5

T_REC_TAP	345
T_REC_BRK	25
T_REC_XTP	12
T_REC_BXX	0
T_REC_HLD	42
T_REC_XHO	2
T_REC_BHO	0
T_REC_BXH	0
T_REC_STR	38
T_REC_BST	1
T_REC_XST	0
T_REC_XBS	0
T_REC_TTP	21
T_REC_THO	0
T_REC_SLD	49
T_REC_BSL	2
T_REC_ALL	537
T_NUM_TAP	416
T_NUM_BRK	28
T_NUM_HLD	44
T_NUM_SLD	49
T_NUM_ALL	537
T_JUDGE_TAP	442
T_JUDGE_HLD	184
T_JUDGE_SLD	51
T_JUDGE_ALL	677
TTM_EACHPAIRS	152
TTM_SCR_TAP	208000
TTM_SCR_BRK	72800
TTM_SCR_HLD	44000
TTM_SCR_SLD	73500
TTM_SCR_ALL	398300
TTM_SCR_S	383650
TTM_SCR_SS	395500
TTM_RAT_ACV	10070

