VERSION	0.00.00	1.05.00
FES_MODE	0
BPM_DEF	180.000	180.000	180.000	180.000
MET_DEF	4	4
RESOLUTION	384
CLK_DEF	384
COMPATIBLE_CODE	MA2

BPM	0	0	180.000
MET	0	0	4	4

NMTAP	2	0	1
NMSTR	2	0	3
NMSCR	2	0	3	96	48	4
CNSI_	2	144	4	0	144	7
NMSTR	3	0	4
NMSLL	3	0	4	96	192	0
NMTAP	3	0	7
NMTAP	4	0	1
NMSTR	4	0	3
NMSCR	4	0	3	96	48	4
CNSI_	4	144	4	0	144	7
NMSTR	5	0	4
NMSI_	5	0	4	96	96	0
NMTAP	5	0	7
NMTAP	5	288	0
NMTAP	5	288	1
NMTAP	6	0	2
NMTAP	6	96	2
NMTAP	6	192	2
NMTAP	6	192	4
NMTAP	6	288	2
NMTAP	6	288	3
NMTAP	7	0	1
NMTAP	7	96	1
NMTAP	7	192	1
NMTAP	7	192	7
NMTAP	7	288	0
NMTAP	7	288	1
NMTAP	8	0	2
NMTAP	8	96	2
NMTAP	8	192	2
NMTAP	8	192	3
NMTAP	8	288	1
NMTAP	8	288	4
NMTAP	8	336	1
NMTAP	8	336	4
NMTAP	9	48	1
NMTAP	9	48	7
NMTAP	9	96	1
NMTAP	9	96	7
NMTAP	9	192	0
NMTAP	9	192	1
BRTAP	9	288	1
BRTAP	9	288	2
NMHLD	10	0	0	288
NMTAP	10	192	3
NMTAP	10	288	3
NMSTR	11	0	4
NMSI_	11	0	4	96	96	7
CNSCR	11	192	7	0	96	1
NMHLD	12	0	3	288
NMTAP	12	192	0
NMTAP	12	288	0
NMSTR	13	0	1
NMSI_	13	0	1	96	96	3
NMSTR	13	192	4
NMSI_	13	192	4	96	96	0
NMHLD	14	0	1	288
NMTAP	14	192	0
NMTAP	14	288	7
NMSTR	15	0	7
NMSI_	15	0	7	96	144	4
NMSCR	15	0	7	96	192	2
CNSCL	15	240	4	0	48	3
NMTAP	16	0	3
NMTAP	16	96	2
NMTAP	16	96	4
NMTAP	16	192	1
NMTAP	16	288	1
NMTAP	16	288	3
NMSTR	17	0	4
NMSI_	17	0	4	96	144	7
NMSCL	17	0	4	96	192	1
CNSCR	17	240	7	0	48	0
NMTAP	18	0	1
NMTAP	18	96	1
NMTAP	18	96	3
NMTAP	18	192	4
NMTAP	18	288	2
NMTAP	18	288	4
NMTAP	19	0	1
NMTAP	19	48	1
NMTAP	19	96	0
NMTAP	19	192	7
NMTAP	19	240	7
NMTAP	19	288	0
NMHLD	20	0	1	96
NMTAP	20	96	3
NMHLD	20	192	4	96
NMTAP	20	288	2
NMTAP	21	0	0
NMTAP	21	0	1
NMTAP	21	96	2
NMTAP	21	96	7
NMTAP	21	192	0
NMTAP	21	192	7
NMTAP	21	288	1
NMTAP	21	288	7
NMTAP	22	0	1
NMTAP	22	96	1
NMTAP	22	96	3
NMTAP	22	192	4
NMTAP	22	240	4
NMTAP	22	288	2
NMTAP	22	288	4
NMTAP	23	0	0
NMTAP	23	96	1
NMTAP	23	96	7
NMTAP	23	192	7
NMTAP	23	240	7
NMTAP	23	288	0
NMTAP	23	288	7
NMTAP	24	0	0
NMTAP	24	0	1
NMTAP	24	96	2
NMTAP	24	96	3
NMTAP	24	192	3
NMTAP	24	192	4
NMTAP	24	288	0
NMTAP	24	288	7
NMTAP	25	0	0
NMTAP	25	0	1
NMTAP	25	96	2
NMTAP	25	96	3
BRTAP	25	192	1
BRTAP	25	192	4
NMSTR	26	0	7
NMSV_	26	0	7	96	192	4
NMSTR	27	0	7
NMSV_	27	0	7	96	192	2
NMSV_	27	0	7	96	192	4
NMSTR	28	0	0
NMSCR	28	0	0	96	192	4
CNSI_	28	288	4	0	192	7
NMTAP	29	192	0
NMTAP	29	192	7
NMSTR	30	0	7
NMSI_	30	0	7	96	192	4
NMSTR	31	0	0
NMSI_	31	0	0	96	192	3
NMTTP	32	0	4	B	0	M1
NMTTP	32	0	4	E	0	M1
NMTTP	32	192	0	E	0	M1
NMTTP	32	192	7	B	0	M1
NMTTP	33	0	1	B	0	M1
NMTTP	33	0	1	E	0	M1
NMTTP	33	192	3	B	0	M1
NMTTP	33	192	3	E	0	M1
EXHLD	34	0	4	384
NMTAP	34	192	3
NMTAP	34	288	3
NMHLD	35	0	2	192
NMTAP	35	192	3
NMTAP	35	288	3
NMTAP	35	288	4
NMHLD	36	0	4	192
NMHLD	36	192	7	192
NMHLD	37	0	0	192
NMHLD	37	192	3	288
NMTAP	38	0	0
NMTAP	38	96	0
NMHLD	38	192	2	96
NMHLD	38	192	7	96
NMHLD	39	0	1	96
NMHLD	39	0	3	96
NMHLD	39	192	0	96
NMHLD	39	192	1	96
NMTAP	40	0	0
NMTAP	40	0	7
NMTAP	40	96	3
NMTAP	40	96	4
NMTAP	40	192	2
NMTAP	40	192	3
NMTAP	40	288	1
NMHLD	40	336	1	144
NMTAP	41	48	0
NMTAP	41	96	0
BRTAP	41	288	1
BRTAP	41	288	2
NMTAP	42	0	3
NMTAP	42	0	4
NMTAP	42	96	0
NMTAP	42	96	7
NMTAP	42	192	0
NMTAP	42	192	1
NMTAP	42	288	2
NMTAP	42	288	3
NMTAP	42	336	2
NMTAP	42	336	3
NMTAP	43	48	3
NMTAP	43	48	4
NMSTR	43	96	3
NMSI_	43	96	3	96	96	0
NMSTR	43	96	4
NMSI_	43	96	4	96	96	1
NMTAP	44	0	2
NMTAP	44	0	3
NMTAP	44	96	0
NMTAP	44	96	1
NMTAP	44	192	0
NMTAP	44	192	7
NMTAP	44	288	3
NMTAP	44	288	4
NMTAP	44	336	3
NMTAP	44	336	4
NMTAP	45	48	2
NMTAP	45	48	3
NMTAP	45	96	2
NMSTR	45	96	3
NMSI_	45	96	3	96	96	0
NMSI_	45	96	3	96	96	1
NMTAP	46	0	0
NMTAP	46	0	1
NMTAP	46	96	2
NMTAP	46	96	3
NMTAP	46	192	3
NMTAP	46	192	4
NMTAP	46	288	7
NMHLD	46	336	7	144
NMTAP	47	48	1
NMTAP	47	96	1
NMTAP	47	192	0
NMTAP	47	192	2
NMHLD	47	288	1	96
NMHLD	48	0	3	96
NMHLD	48	96	4	96
NMSTR	48	192	7
NMSI_	48	192	7	96	96	4
CNSCL	49	0	4	0	96	1
NMTAP	49	192	0
NMTAP	49	192	1
BRTAP	49	288	1
BRTAP	49	288	2
NMTAP	50	0	3
NMTAP	50	0	4
NMTAP	50	96	2
NMTAP	50	96	3
NMTAP	50	192	1
NMTAP	50	192	2
NMTAP	50	288	0
NMTAP	50	288	1
NMTAP	50	336	0
NMTAP	50	336	1
NMTAP	51	48	0
NMTAP	51	48	7
NMSTR	51	96	0
NMSV_	51	96	0	96	96	3
NMSTR	51	96	7
NMSI_	51	96	7	96	96	3
NMTAP	52	0	2
NMTAP	52	0	3
NMTAP	52	96	3
NMTAP	52	96	4
NMTAP	52	192	0
NMTAP	52	192	7
NMTAP	52	288	0
NMTAP	52	288	1
NMTAP	52	336	0
NMTAP	52	336	1
NMTAP	53	48	2
NMTAP	53	48	3
NMSTR	53	96	2
NMSV_	53	96	2	96	96	4
NMSV_	53	96	2	96	96	7
NMTAP	53	96	3
NMTAP	54	0	4
NMTAP	54	0	7
NMTAP	54	96	3
NMTAP	54	96	4
NMTAP	54	192	0
NMTAP	54	192	3
NMTAP	54	288	0
NMTAP	54	288	7
NMSTR	54	336	0
NMSXL	54	336	0	96	240	0
NMSXR	54	336	0	96	240	0
NMTAP	54	336	7
EXTAP	56	0	1
EXTAP	56	0	7
NMTAP	56	96	3
NMTAP	56	96	4
NMTAP	56	144	3
NMTAP	56	144	4
NMTAP	56	240	1
NMTAP	56	288	1
NMTAP	56	336	3
NMTAP	57	48	2
NMTAP	57	96	3
NMTAP	57	144	4
NMTAP	57	192	3
NMTTP	57	288	3	B	0	M1
NMTTP	57	288	4	B	0	M1
NMTTP	57	288	4	E	1	M1
NMTAP	58	0	1
NMTAP	58	96	0
NMTAP	58	96	1
NMTAP	58	192	7
NMTAP	58	288	0
NMTAP	58	288	7
NMTAP	59	0	1
NMTAP	59	48	1
NMTAP	59	96	0
NMTAP	59	192	7
NMTAP	59	240	7
NMTAP	59	288	0
NMHLD	60	0	1	96
NMTAP	60	96	3
NMHLD	60	192	4	96
NMTAP	60	288	2
NMSTR	61	0	3
NMSCL	61	0	3	96	96	0
NMSTR	61	192	7
NMSI_	61	192	7	96	96	4
NMTAP	62	0	1
NMTAP	62	96	0
NMTAP	62	96	1
NMTAP	62	192	2
NMTAP	62	240	2
NMTAP	62	288	3
NMTAP	63	0	4
NMTAP	63	96	3
NMTAP	63	96	4
NMTAP	63	192	7
NMTAP	63	240	7
NMTAP	63	288	0
NMTAP	64	0	4
NMTAP	64	48	4
NMTAP	64	96	2
NMTAP	64	144	2
NMTAP	64	192	3
NMTAP	64	240	3
NMSTR	64	288	1
NMSV_	64	288	1	96	96	4
BRTAP	65	192	4
BRTAP	65	192	7
NMHLD	66	0	2	576
NMTAP	66	144	3
NMTAP	66	192	3
NMTTP	66	336	3	E	0	M1
NMTTP	67	48	2	E	0	M1
EXTAP	67	144	1
EXTAP	67	192	1
NMHLD	68	0	3	576
NMTAP	68	144	2
NMTAP	68	192	2
NMTTP	68	336	3	E	0	M1
NMTTP	69	48	4	E	0	M1
EXTAP	69	144	4
EXTAP	69	192	4
NMHLD	70	0	1	576
NMTAP	70	144	3
NMTAP	70	192	3
NMTTP	70	336	2	B	0	M1
NMTTP	71	48	1	B	0	M1
EXTAP	71	144	0
EXTAP	71	192	0
NMHLD	72	0	2	192
NMHLD	72	192	3	192
NMHLD	73	0	0	192
NMHLD	73	192	1	192
EXHLD	74	0	3	576
NMTAP	74	144	2
NMTAP	74	192	2
NMTTP	74	336	3	E	0	M1
NMTTP	75	48	4	E	0	M1
NMTAP	75	144	4
NMTAP	75	192	4
NMTAP	76	0	1
NMHLD	76	0	2	576
NMTAP	76	144	1
NMTAP	76	192	1
NMTTP	76	336	2	E	0	M1
NMTTP	77	48	3	E	0	M1
NMTAP	77	144	3
NMTAP	77	192	3
NMTAP	77	288	1
NMTAP	77	288	4
NMTAP	78	0	1
NMTAP	78	96	1
NMTAP	78	96	3
NMTAP	78	192	4
NMTAP	78	288	2
NMTAP	78	288	4
NMTAP	79	0	1
NMTAP	79	96	0
NMTAP	79	96	2
NMTAP	79	192	3
NMTAP	79	288	2
NMTAP	79	288	4
NMTAP	80	0	3
NMTAP	80	0	4
NMTAP	80	96	0
NMTAP	80	96	7
NMTAP	80	192	0
NMTAP	80	192	1
NMTAP	80	288	2
NMTAP	80	288	7
NMTAP	80	336	2
NMTAP	80	336	7
NMTAP	81	48	1
NMTAP	81	48	4
NMTAP	81	96	1
NMTAP	81	96	4
BRTAP	81	288	1
BRTAP	81	288	2
NMSTR	82	0	0
NMSI_	82	0	0	96	192	3
NMSTR	82	0	1
NMSV_	82	0	1	96	192	3
NMSTR	83	0	2
NMSCL	83	0	2	96	96	0
CNSI_	83	192	0	0	96	3
NMSTR	84	0	3
NMSCL	84	0	3	96	192	0
NMSV_	84	0	3	96	192	0
NMSTR	85	0	0
NMSUL	85	0	0	96	192	3
NMSTR	85	0	1
NMSCR	85	0	1	96	192	3
NMHLD	86	0	2	192
NMHLD	86	192	0	192
NMHLD	87	0	3	192
NMTAP	87	192	1
NMHLD	88	0	0	96
NMHLD	88	0	3	96
NMHLD	88	192	0	96
NMHLD	88	192	3	96
NMTAP	89	0	2
NMTAP	89	0	3
NMTAP	89	48	2
NMTAP	89	48	3
NMTAP	89	144	1
NMTAP	89	144	2
BRTAP	89	240	0
BRTAP	89	240	3
NMTAP	90	0	1
NMTAP	90	0	2
NMTAP	90	96	2
NMTAP	90	96	3
NMTAP	90	192	0
NMTAP	90	192	1
NMTAP	90	288	1
NMTAP	90	288	2
NMTAP	90	336	1
NMTAP	90	336	2
NMTAP	91	48	2
NMTAP	91	48	3
NMTAP	91	96	2
NMSTR	91	96	3
NMSUR	91	96	3	96	96	0
NMSV_	91	96	3	96	96	1
NMTAP	92	0	0
NMTAP	92	0	1
NMTAP	92	96	2
NMTAP	92	96	3
NMTAP	92	192	1
NMTAP	92	192	2
NMTAP	92	288	0
NMTAP	92	288	1
NMTAP	92	336	0
NMTAP	92	336	1
NMTAP	93	48	2
NMTAP	93	48	3
NMTAP	93	96	2
NMSTR	93	96	3
NMSI_	93	96	3	96	96	0
NMSXR	93	96	3	96	96	1
NMTAP	94	0	0
NMTAP	94	0	1
NMTAP	94	96	1
NMTAP	94	96	2
NMTAP	94	192	2
NMTAP	94	192	3
EXTAP	94	288	1
EXTAP	94	288	2
EXTAP	94	336	1
EXTAP	94	336	2
NMTAP	95	48	0
NMHLD	95	96	0	96
NMTAP	95	192	3
BRTAP	95	288	1
BRTAP	95	288	2
NMTAP	96	0	0
NMTAP	96	96	1
NMTAP	96	96	2
NMTAP	96	144	1
NMTAP	96	144	2
NMTAP	96	240	2
NMSTR	96	240	3
NMSUR	96	240	3	96	96	0
CNSV_	97	48	0	0	96	2
CNSCL	97	144	2	0	48	1
BRTAP	97	288	1
BRTAP	97	288	2
NMTAP	98	0	0
NMTAP	98	0	1
NMTAP	98	96	2
NMTAP	98	96	3
NMTAP	98	192	0
NMTAP	98	192	1
NMTAP	98	288	2
NMSTR	98	288	3
NMSCL	98	288	3	96	240	0
NMSXR	98	288	3	96	240	0
NMTAP	100	0	0
NMTAP	100	0	1
NMTAP	100	96	2
NMTAP	100	96	3
NMTAP	100	192	0
NMTAP	100	192	1
NMTAP	100	288	2
NMTAP	100	288	3
NMTAP	100	336	2
NMTAP	100	336	3
NMTAP	101	48	0
NMTAP	101	48	1
NMTAP	101	96	0
NMSTR	101	96	1
NMSUR	101	96	1	96	96	0
NMSV_	101	96	1	96	96	3
NMHLD	102	0	1	96
NMHLD	102	96	3	96
NMHLD	102	192	0	96
NMTAP	102	288	2
NMTAP	102	336	2
NMTAP	103	48	1
NMTAP	103	48	3
NMTAP	103	96	1
NMTAP	103	96	3
NMSTR	103	192	0
NMSI_	103	192	0	96	96	2
NMSTR	104	0	3
NMSXL	104	0	3	96	240	1
NMTAP	105	48	0
NMTAP	105	96	1
NMTAP	105	144	2
NMTAP	105	192	3
BRTAP	105	288	1
BRTAP	105	288	2
BRTAP	105	336	1
BRTAP	105	336	2
BRTAP	106	48	3
BRTAP	106	96	2
BRTAP	106	144	1
BRSTR	106	192	0
BRSI_	106	192	0	96	48	2
BRSI_	106	192	0	96	48	3

T_REC_TAP	345
T_REC_BRK	25
T_REC_XTP	12
T_REC_BXX	0
T_REC_HLD	42
T_REC_XHO	2
T_REC_BHO	0
T_REC_BXH	0
T_REC_STR	38
T_REC_BST	1
T_REC_XST	0
T_REC_XBS	0
T_REC_TTP	21
T_REC_THO	0
T_REC_SLD	49
T_REC_BSL	2
T_REC_ALL	537
T_NUM_TAP	416
T_NUM_BRK	28
T_NUM_HLD	44
T_NUM_SLD	49
T_NUM_ALL	537
T_JUDGE_TAP	442
T_JUDGE_HLD	184
T_JUDGE_SLD	51
T_JUDGE_ALL	677
TTM_EACHPAIRS	152
TTM_SCR_TAP	208000
TTM_SCR_BRK	72800
TTM_SCR_HLD	44000
TTM_SCR_SLD	73500
TTM_SCR_ALL	398300
TTM_SCR_S	383650
TTM_SCR_SS	395500
TTM_RAT_ACV	10070

