VERSION	0.00.00	1.05.00
FES_MODE	1
BPM_DEF	170.000	170.000	170.000	170.000
MET_DEF	4	4
RESOLUTION	384
CLK_DEF	384
COMPATIBLE_CODE	MA2

BPM	0	0	170.000
MET	0	0	4	4

NMSTR	1	0	3
NMSUL	1	0	3	96	192	4
NMTAP	2	0	5
NMTAP	2	48	5
NMTAP	2	96	4
NMTAP	2	96	6
NMTAP	2	144	5
NMTAP	2	168	4
NMTAP	2	192	5
NMTAP	2	240	2
NMTAP	2	264	3
NMTAP	2	288	2
NMTAP	2	312	3
NMTAP	2	336	2
NMTAP	3	0	1
NMTAP	3	0	4
NMTAP	3	48	1
NMTAP	3	48	4
NMTAP	3	96	1
NMTAP	3	96	4
NMTAP	3	144	2
NMTAP	3	168	3
NMTAP	3	192	2
NMTAP	3	216	3
NMTAP	3	240	2
NMTAP	3	264	3
NMTAP	3	288	2
NMTAP	3	336	5
NMTAP	4	0	3
NMTAP	4	0	6
NMTAP	4	48	3
NMTAP	4	48	6
NMTAP	4	96	3
NMTAP	4	96	6
NMTAP	4	144	5
NMTAP	4	168	4
NMTAP	4	192	5
NMTAP	4	216	4
NMTAP	4	240	5
NMTAP	4	264	4
NMTAP	4	288	6
NMTAP	4	336	6
NMTAP	5	0	3
NMTAP	5	0	5
NMTAP	5	96	2
NMTAP	5	96	4
NMTAP	5	144	3
NMTAP	5	192	3
NMTAP	5	192	5
NMTAP	5	240	4
NMHLD	5	288	2	96
NMTAP	5	288	4
NMTAP	6	0	5
NMTAP	6	48	5
NMTAP	6	96	4
NMTAP	6	96	6
NMTAP	6	144	5
NMTAP	6	168	4
NMHLD	6	192	5	48
NMTAP	6	240	2
NMTAP	6	264	3
NMTAP	6	288	2
NMTAP	6	312	3
NMTAP	6	336	2
NMTAP	7	0	1
NMTAP	7	0	4
NMTAP	7	48	1
NMTAP	7	48	4
NMTAP	7	96	1
NMTAP	7	96	4
NMTAP	7	144	2
NMTAP	7	168	3
NMHLD	7	192	2	48
NMTAP	7	240	5
NMTAP	7	264	4
NMTAP	7	288	5
NMTAP	7	312	4
NMTAP	7	336	5
NMTAP	8	0	3
NMTAP	8	0	6
NMTAP	8	48	3
NMTAP	8	48	6
NMTAP	8	96	3
NMTAP	8	96	6
NMTAP	8	144	5
NMTAP	8	168	4
NMHLD	8	192	5	48
NMTAP	8	240	2
NMTAP	8	264	3
NMTAP	8	288	2
NMTAP	8	312	3
NMTAP	8	336	2
NMHLD	9	0	1	96
NMTAP	9	0	4
NMTAP	9	96	3
NMTAP	9	144	1
NMSTR	9	192	6
NMSCL	9	192	6	96	48	3
NMTAP	9	240	4
NMTAP	9	288	4
BRTAP	10	0	1
NMTAP	10	48	1
NMTAP	10	48	3
NMTAP	10	96	2
NMTAP	10	144	2
NMTAP	10	168	3
NMHLD	10	192	2	48
NMTAP	10	240	5
NMTAP	10	264	4
NMTAP	10	288	5
NMTAP	10	312	4
NMTAP	10	336	6
NMTAP	11	0	3
NMTAP	11	0	7
NMTAP	11	48	3
NMTAP	11	48	7
NMTAP	11	96	3
NMTAP	11	96	7
NMTAP	11	144	6
NMTAP	11	168	4
NMTAP	11	192	5
NMTAP	11	216	3
NMTAP	11	240	4
NMTAP	11	264	2
NMTAP	11	288	3
NMTAP	11	312	1
NMTAP	11	336	3
NMTAP	12	0	2
NMTAP	12	48	1
NMTAP	12	48	3
NMTAP	12	96	2
NMTAP	12	144	2
NMTAP	12	168	3
NMHLD	12	192	2	48
NMTAP	12	240	4
NMTAP	12	264	3
NMTAP	12	288	5
NMTAP	12	312	4
NMTAP	12	336	6
NMTAP	12	360	5
NMTAP	13	0	7
NMTTP	13	96	6	A	0	M1
NMTTP	13	144	4	A	0	M1
NMTTP	13	192	0	C	0	M1
NMTTP	13	240	3	A	0	M1
NMTTP	13	288	1	A	0	M1
NMTAP	14	0	0
NMTAP	14	0	4
NMTAP	14	48	0
NMTAP	14	48	4
NMTAP	14	96	0
NMTAP	14	96	4
NMTAP	14	144	1
NMTAP	14	168	3
NMTAP	14	192	2
NMTAP	14	240	5
NMTAP	14	264	4
NMTAP	14	288	6
NMTAP	14	312	4
NMTAP	14	336	5
NMTAP	15	0	4
NMTAP	15	0	6
NMTAP	15	48	4
NMTAP	15	48	6
NMTAP	15	96	5
NMTAP	15	144	5
NMTAP	15	168	4
NMTAP	15	192	6
NMTAP	15	240	2
NMTAP	15	264	3
NMTAP	15	288	1
NMTAP	15	312	3
NMTAP	15	336	2
NMTAP	16	0	1
NMTAP	16	0	3
NMTAP	16	48	1
NMTAP	16	48	3
NMTAP	16	96	2
NMTAP	16	144	2
NMTAP	16	168	3
NMHLD	16	192	1	48
NMTAP	16	240	3
NMTAP	16	264	4
NMTAP	16	288	5
NMTAP	16	312	6
NMTAP	16	336	7
NMTAP	17	0	2
NMTAP	17	0	6
NMTTP	17	48	1	E	0	M1
NMTTP	17	96	7	E	0	M1
NMTTP	17	144	2	E	0	M1
NMTTP	17	192	6	E	0	M1
NMTTP	17	240	3	E	0	M1
NMTTP	17	288	5	E	0	M1
NMTTP	17	336	4	E	0	M1
NMTAP	18	0	6
NMTAP	18	24	4
NMTAP	18	48	6
NMTAP	18	72	4
NMTAP	18	96	5
NMTAP	18	120	3
NMTAP	18	144	5
NMTAP	18	168	3
NMSTR	18	192	4
NMSI_	18	192	4	96	48	0
NMTAP	18	240	4
NMTAP	18	288	2
NMTAP	18	336	2
BRTAP	19	0	3
BRTAP	19	0	7
NMTAP	19	48	2
NMTAP	19	48	6
BRTAP	19	96	1
BRTAP	19	96	5
NMTAP	19	144	2
NMTAP	19	168	3
BRTAP	19	192	1
NMTAP	19	240	5
NMTAP	19	264	4
BRTAP	19	288	6
NMTAP	19	336	7
NMTAP	20	0	6
NMTAP	20	24	4
NMTAP	20	48	6
NMTAP	20	72	4
NMTAP	20	96	5
NMTAP	20	120	3
NMTAP	20	144	5
NMTAP	20	168	3
NMSTR	20	192	4
NMSI_	20	192	4	96	48	0
NMTAP	20	240	4
NMTAP	20	288	2
NMTAP	20	336	2
BRTAP	21	0	1
NMTAP	21	24	3
NMHLD	21	48	2	48
BRHLD	21	96	5	48
NMTAP	21	144	4
NMTAP	21	168	6
BRHLD	21	192	0	48
NMTAP	21	240	6
NMTAP	21	264	7
NMTAP	21	288	5
NMTAP	21	312	0
NMTAP	21	336	4
NMTAP	21	360	1
BRHLD	22	0	3	144
NMTAP	22	144	1
NMTAP	22	168	3
NMTAP	22	192	1
NMTAP	22	240	2
NMTAP	22	240	4
NMTAP	22	288	3
NMTAP	22	288	5
NMTAP	22	336	4
NMTAP	22	336	6
NMTAP	23	0	5
NMTAP	23	24	4
NMTAP	23	48	6
NMTAP	23	96	2
NMTAP	23	120	3
NMHLD	23	144	1	336
NMTAP	23	192	4
NMTAP	23	240	5
NMTAP	23	288	6
NMTAP	23	336	7
NMHLD	24	0	0	96
NMTAP	24	144	0
NMTAP	24	144	1
NMTAP	24	192	1
NMTAP	24	192	2
NMTAP	24	240	2
NMTAP	24	240	3
NMTAP	24	288	3
NMTAP	24	288	4
NMTAP	24	336	4
NMTAP	24	336	5
NMHLD	25	0	2	48
NMHLD	25	0	6	144
NMHLD	25	72	2	48
NMHLD	25	144	2	96
NMTAP	25	192	6
NMTAP	25	240	6
NMHLD	25	288	2	48
NMHLD	25	336	6	192
NMHLD	26	0	2	48
NMHLD	26	72	2	48
NMHLD	26	144	2	144
NMTAP	26	192	6
NMTAP	26	240	6
NMTAP	26	288	6
NMHLD	27	0	5	192
NMTAP	27	96	4
NMTAP	27	144	3
NMHLD	27	192	2	192
NMTAP	27	288	3
NMTAP	27	336	4
NMTAP	28	0	5
NMTAP	28	96	3
NMTAP	28	96	4
NMTAP	28	192	0
NMSTR	28	192	7
NMSI_	28	192	7	96	96	3
BRHLD	29	0	2	192
NMTAP	29	96	0
NMTAP	29	144	0
NMHLD	29	192	0	192
NMTAP	29	288	6
NMTAP	29	336	6
NMHLD	30	0	6	192
NMTAP	30	96	4
NMTAP	30	144	4
NMHLD	30	192	4	192
NMTAP	30	288	2
NMTAP	30	336	2
NMHLD	31	0	2	192
NMTAP	31	96	0
NMTAP	31	144	0
NMSTR	31	192	0
NMSCL	31	192	0	96	48	5
NMSTR	31	288	0
NMSCR	31	288	0	96	48	3
NMSTR	32	0	0
NMSI_	32	0	0	96	48	4
NMTAP	32	96	0
BRTAP	32	192	0
NMTAP	32	288	6
NMTAP	32	336	5
NMTAP	33	0	4
BRTAP	33	48	1
BRTAP	33	48	3
NMTAP	33	144	4
NMTAP	33	144	6
NMTAP	33	192	4
NMTAP	33	192	6
NMTAP	33	288	7
NMTAP	33	336	7
NMHLD	34	0	7	144
NMTAP	34	144	4
NMTAP	34	192	4
NMTAP	34	288	3
NMTAP	34	288	6
NMTAP	34	336	3
NMTAP	34	336	6
NMHLD	35	0	2	192
NMTAP	35	96	4
NMTAP	35	144	4
NMHLD	35	192	3	96
NMSTR	35	288	1
NMSI_	35	288	1	96	48	6
NMSTR	36	0	5
NMSI_	36	0	5	96	48	2
NMSTR	36	96	0
NMSI_	36	96	0	96	48	3
NMTAP	36	192	7
BRHLD	37	0	5	192
NMTAP	37	96	7
NMTAP	37	144	7
NMHLD	37	192	7	192
NMTAP	37	288	1
NMTAP	37	336	1
NMHLD	38	0	1	192
NMTAP	38	96	3
NMTAP	38	144	3
NMHLD	38	192	3	192
NMTAP	38	288	5
NMTAP	38	336	5
NMHLD	39	0	5	192
NMTAP	39	96	7
NMTAP	39	144	7
NMSTR	39	192	7
NMSCR	39	192	7	96	48	2
NMSTR	39	288	7
NMSCL	39	288	7	96	48	4
NMSTR	40	0	7
NMSI_	40	0	7	96	48	3
NMTAP	40	96	7
BRTAP	40	192	7
NMTAP	40	288	1
NMTAP	40	336	2
NMTAP	41	0	3
NMTAP	41	48	4
NMTAP	41	48	6
NMTAP	41	96	4
NMTAP	41	96	6
NMTAP	41	144	5
NMTAP	41	192	3
NMHLD	41	192	4	96
NMTAP	41	288	5
NMTAP	41	336	5
NMHLD	42	0	5	144
NMTAP	42	144	6
NMHLD	42	192	6	96
NMTAP	42	288	7
NMTAP	42	336	7
NMTAP	43	0	0
NMTAP	43	0	5
NMTAP	43	96	1
NMTAP	43	96	4
NMTAP	43	144	2
NMTAP	43	144	5
NMSTR	43	192	3
NMSI_	43	192	3	96	48	0
NMTAP	43	192	6
NMTAP	43	288	3
NMSTR	43	288	7
NMSI_	43	288	7	96	48	4
NMSTR	44	0	1
NMSI_	44	0	1	96	48	5
NMTAP	44	0	7
NMTAP	44	96	1
NMTAP	44	96	7
BRTAP	44	192	0
BRTAP	44	192	7
NMTAP	45	0	0
NMTAP	45	12	1
NMTAP	45	24	2
NMTAP	45	36	3
NMTAP	45	48	4
NMTAP	45	60	5
NMTAP	45	72	6
NMTAP	45	84	7
NMTAP	45	96	0
NMTAP	45	108	1
NMTAP	45	120	2
NMTAP	45	132	3
NMTAP	45	144	4
NMTAP	45	156	5
NMTAP	45	168	6
NMTAP	45	180	7
NMTAP	45	192	0
NMTAP	45	216	7
NMTAP	45	240	6
NMTAP	45	264	5
NMTAP	45	288	4
NMTAP	45	312	3
NMTAP	45	336	2
NMTAP	45	360	1
NMTAP	46	0	0
NMTAP	46	48	0
NMTAP	46	96	1
NMTAP	46	96	7
NMTAP	46	144	0
NMTAP	46	168	0
NMTAP	46	192	0
NMTAP	46	240	7
NMTAP	46	264	7
NMTAP	46	288	7
NMTAP	46	312	7
NMTAP	46	336	7
NMTAP	47	0	0
NMTAP	47	0	6
NMTAP	47	48	1
NMTAP	47	48	5
NMTAP	47	96	2
NMTAP	47	96	4
NMTAP	47	144	3
NMTAP	47	168	3
NMTAP	47	192	3
NMTAP	47	240	5
NMTAP	47	264	5
NMTAP	47	288	5
NMTAP	47	312	5
NMTAP	47	336	5
NMTAP	48	0	4
NMTAP	48	24	4
NMTAP	48	48	4
NMTAP	48	72	4
NMTAP	48	96	3
NMTAP	48	96	5
NMTAP	48	144	3
NMTAP	48	168	3
NMTAP	48	192	3
NMTAP	48	216	3
NMTAP	48	240	2
NMTAP	48	240	4
NMTAP	48	288	3
NMTAP	48	312	3
NMTAP	48	336	3
NMTAP	48	360	3
NMTAP	49	0	2
NMTAP	49	0	4
NMTTP	49	48	5	E	0	M1
NMTTP	49	96	6	E	0	M1
NMTTP	49	144	7	E	0	M1
NMTTP	49	192	0	E	0	M1
NMTTP	49	240	1	E	0	M1
NMTTP	49	288	2	E	0	M1
NMTTP	49	336	3	E	0	M1
BXTAP	50	0	4
BXTAP	50	0	6
NMTAP	50	48	4
NMTAP	50	48	6
NMTAP	50	96	4
NMTAP	50	96	6
NMTAP	50	144	5
NMTAP	50	168	5
NMTAP	50	192	5
NMTAP	50	240	3
NMTAP	50	264	3
NMTAP	50	288	3
NMTAP	50	336	2
NMTAP	50	336	4
NMTAP	51	0	2
NMTAP	51	0	4
NMTAP	51	48	1
NMTAP	51	48	3
NMTAP	51	96	1
NMTAP	51	96	3
NMTAP	51	144	2
NMTAP	51	168	2
NMTAP	51	192	2
NMTAP	51	240	4
NMTAP	51	264	4
NMTAP	51	288	4
NMTAP	51	312	4
NMTAP	51	336	4
NMTAP	52	0	2
NMTAP	52	24	2
NMTAP	52	48	2
NMTAP	52	72	2
NMTAP	52	96	1
NMTAP	52	96	3
NMTAP	52	144	4
NMTAP	52	168	4
NMTAP	52	192	4
NMTAP	52	216	4
NMTAP	52	240	3
NMTAP	52	240	5
NMTAP	52	288	4
NMTAP	52	312	4
NMTAP	52	336	4
NMTAP	52	360	4
NMTAP	53	0	3
NMTAP	53	0	5
NMTAP	53	96	1
NMTAP	53	96	7
NMTAP	53	192	0
NMTAP	53	192	6
BRTAP	53	288	2
NMTAP	54	0	1
NMTAP	54	24	3
NMTAP	54	48	2
NMTAP	54	96	4
NMTAP	54	96	5
NMTAP	54	144	4
NMTAP	54	144	5
NMTAP	54	192	3
NMTAP	54	192	6
NMTAP	54	240	5
NMTAP	54	264	4
NMTAP	54	288	5
NMTAP	54	336	2
NMTAP	54	336	7
BRTAP	55	0	1
NMTAP	55	24	0
BRTAP	55	48	1
BRTAP	55	96	0
BRTAP	55	96	7
NMTAP	55	144	6
NMTAP	55	168	7
BRTAP	55	192	6
NMTAP	55	240	1
NMTAP	55	264	0
BRTAP	55	288	1
NMTAP	55	336	3
NMTAP	55	336	6
NMTAP	56	0	5
NMTAP	56	24	4
NMTAP	56	48	5
NMTAP	56	96	2
NMTAP	56	120	3
NMTAP	56	144	2
NMTAP	56	192	1
NMTAP	56	192	4
NMTAP	56	240	1
NMTAP	56	240	4
NMTAP	56	288	0
NMTAP	56	288	5
NMTAP	56	336	0
NMTAP	56	336	5
BRTAP	57	0	0
BRTAP	57	0	5
NMTAP	57	48	6
NMTAP	57	72	7
BRTAP	57	96	6
NMTAP	57	144	6
NMTAP	57	168	7
BRTAP	57	192	6
NMTAP	57	240	6
NMTAP	57	264	7
NMTAP	57	288	6
NMTAP	57	336	6
NMTAP	57	360	7
NMHLD	58	0	6	144
NMTAP	58	144	4
NMTAP	58	168	5
NMTAP	58	192	4
NMTAP	58	216	5
NMTAP	58	240	4
NMTAP	58	288	3
NMTAP	58	288	6
NMTAP	58	336	2
NMTAP	58	336	5
NMTAP	59	0	1
NMTAP	59	0	4
NMTAP	59	48	2
NMTAP	59	72	3
NMTAP	59	96	1
NMTAP	59	144	0
NMTAP	59	144	4
NMTAP	59	192	5
NMTAP	59	192	7
NMTAP	59	240	6
NMTAP	59	288	0
NMTAP	59	288	2
NMTAP	59	336	1
NMHLD	60	0	0	96
NMHLD	60	0	7	96
NMTAP	60	144	6
NMTAP	60	192	4
NMTAP	60	192	5
NMTAP	60	240	1
NMTAP	60	288	2
NMTAP	60	288	3
NMTAP	60	336	4
NMTAP	60	336	5
NMHLD	61	0	2	144
NMHLD	61	0	6	48
NMHLD	61	72	6	48
NMHLD	61	144	6	96
NMTAP	61	192	2
NMHLD	61	240	2	48
NMHLD	61	288	6	48
NMHLD	61	336	2	192
NMHLD	62	0	6	48
NMHLD	62	72	6	48
NMHLD	62	144	6	48
NMHLD	62	192	2	48
NMHLD	62	240	6	48
NMTAP	62	288	2
NMTAP	63	0	3
NMHLD	63	0	7	96
NMTAP	63	96	2
NMTAP	63	144	3
NMHLD	63	192	4	192
NMTAP	63	288	7
NMTAP	63	336	6
NMHLD	64	0	5	96
NMTAP	64	96	4
NMTAP	64	192	3
NMSTR	64	192	5
NMSI_	64	192	5	96	96	7
NMTAP	65	0	0
NMTAP	65	96	2
NMTAP	65	96	3
NMTAP	65	144	3
NMTAP	65	144	4
NMTAP	65	192	4
NMTAP	65	192	5
NMTAP	65	288	6
NMTAP	65	288	7
NMTAP	65	336	0
NMTAP	65	336	7
NMTAP	66	0	0
NMTAP	66	0	1
NMTAP	66	96	2
NMTAP	66	96	3
NMTAP	66	144	3
NMTAP	66	144	4
NMTAP	66	192	4
NMTAP	66	192	5
NMTAP	66	288	6
NMTAP	66	288	7
NMTAP	66	336	0
NMTAP	66	336	7
NMTAP	67	0	0
NMTAP	67	0	1
NMTAP	67	96	1
NMTAP	67	96	3
NMTAP	67	144	3
NMTAP	67	144	4
NMTAP	67	192	4
NMSTR	67	192	6
NMSI_	67	192	6	96	48	0
NMSTR	67	288	2
NMSI_	67	288	2	96	48	4
NMTAP	67	288	6
NMTAP	68	0	2
NMSTR	68	0	6
NMSI_	68	0	6	96	48	2
NMTAP	68	96	6
BRTAP	68	192	0
NMTAP	68	288	4
NMTAP	68	336	4
NMTAP	69	48	3
NMTAP	69	48	5
NMTAP	69	96	3
NMTAP	69	96	5
NMTAP	69	144	2
NMTAP	69	144	6
NMHLD	69	192	7	96
NMTAP	69	288	3
NMTAP	69	336	4
NMHLD	70	0	5	192
NMTAP	70	144	3
NMHLD	70	192	3	192
NMTAP	70	288	1
NMTAP	70	336	1
NMTAP	71	0	1
NMTAP	71	96	0
NMTAP	71	96	4
NMTAP	71	144	0
NMTAP	71	144	4
NMTAP	71	192	0
NMTAP	71	192	4
NMSTR	71	288	7
NMSCR	71	288	7	96	48	2
NMSTR	72	0	7
NMSCL	72	0	7	96	48	4
NMSTR	72	96	7
NMSI_	72	96	7	96	48	3
NMTAP	72	192	7
NMTTP	73	0	3	E	1	M1
NMTAP	73	96	0
NMTAP	73	96	1
NMTAP	73	144	0
NMTAP	73	144	7
NMTAP	73	192	6
NMTAP	73	192	7
NMTAP	73	288	4
NMTAP	73	288	5
NMTAP	73	336	3
NMTAP	73	336	4
NMTAP	74	0	2
NMTAP	74	0	3
NMTAP	74	96	0
NMTAP	74	96	1
NMTAP	74	144	0
NMTAP	74	144	7
NMTAP	74	192	6
NMTAP	74	240	6
NMTAP	74	288	4
NMTAP	74	336	4
NMSTR	75	0	5
NMSI_	75	0	5	96	48	0
NMTAP	75	96	3
NMTAP	75	144	2
NMHLD	75	192	1	96
NMSTR	75	288	0
NMSCL	75	288	0	96	48	5
NMSTR	76	0	0
NMSCR	76	0	0	96	48	3
NMSTR	76	96	0
NMSI_	76	96	0	96	48	4
NMTAP	76	192	0
BRTAP	76	288	2
NMTAP	77	0	1
NMTAP	77	0	3
NMSTR	77	48	0
NMSCR	77	48	0	96	48	3
NMTAP	77	144	6
NMSTR	77	192	7
NMSCL	77	192	7	96	48	4
NMTAP	77	288	3
NMTAP	77	336	2
NMHLD	78	0	1	144
NMTAP	78	144	3
NMTAP	78	192	3
NMTAP	78	288	2
NMTAP	78	288	4
NMTAP	78	336	1
NMTAP	78	336	5
NMTAP	79	0	0
NMTAP	79	0	6
NMTAP	79	96	1
NMTAP	79	96	7
NMTAP	79	144	2
NMTAP	79	144	6
NMSTR	79	192	3
NMSI_	79	192	3	96	48	1
NMSTR	79	192	5
NMSI_	79	192	5	96	48	7
NMTAP	79	288	3
NMTAP	79	288	5
NMSTR	80	0	2
NMSI_	80	0	2	96	48	0
NMSTR	80	0	4
NMSI_	80	0	4	96	48	6
NMTAP	80	96	2
NMTAP	80	96	4
NMTTP	80	192	0	C	1	M1
BRTAP	81	0	2
NMHLD	81	0	6	192
NMTAP	81	96	7
NMTAP	81	144	0
NMHLD	81	192	1	192
NMTAP	81	288	2
NMTAP	81	336	3
NMHLD	82	0	4	192
NMTAP	82	96	5
NMTAP	82	144	6
NMHLD	82	192	7	192
NMTAP	82	288	6
NMTAP	82	336	5
NMTAP	83	0	4
NMTAP	83	96	0
NMTAP	83	96	3
NMTAP	83	144	0
NMTAP	83	144	3
NMTAP	83	192	0
NMTAP	83	192	3
NMTAP	83	288	1
NMTAP	83	288	2
BRTAP	84	0	1
BRTAP	84	0	2
BRTAP	84	96	5
BRTAP	84	96	6
BRTAP	84	192	0
BRTAP	84	192	7
NMTAP	84	240	6
NMTAP	84	288	5
NMTAP	84	336	1
NMTAP	85	0	2
NMSTR	85	48	3
NMSCL	85	48	3	96	48	0
NMTAP	85	144	5
NMSTR	85	192	4
NMSCR	85	192	4	96	48	7
NMTAP	85	288	1
NMTAP	85	336	2
BRHLD	86	0	3	192
NMTAP	86	144	0
NMSTR	86	192	0
NMSI_	86	192	0	96	48	4
NMTAP	86	288	3
NMTAP	86	336	2
NMSTR	87	0	1
NMSI_	87	0	1	96	48	3
NMTAP	87	96	5
NMTAP	87	144	6
NMSTR	87	192	7
NMSI_	87	192	7	96	48	3
NMSTR	87	288	7
NMSI_	87	288	7	96	48	4
NMSI_	87	288	7	96	48	5
NMSTR	88	0	7
NMSI_	88	0	7	96	48	1
NMSI_	88	0	7	96	48	2
NMTAP	88	96	7
BRTAP	88	192	7
NMHLD	89	0	1	192
BRTAP	89	0	5
NMTAP	89	96	0
NMTAP	89	144	7
NMHLD	89	192	6	192
NMTAP	89	288	5
NMTAP	89	336	4
NMHLD	90	0	3	192
NMTAP	90	96	2
NMTAP	90	144	1
NMHLD	90	192	0	192
NMTAP	90	288	1
NMTAP	90	336	2
NMTAP	91	0	3
NMTAP	91	96	4
NMTAP	91	96	7
NMTAP	91	144	4
NMTAP	91	144	7
NMSTR	91	192	4
NMSI_	91	192	4	96	48	1
NMTAP	91	192	7
NMTAP	91	288	4
NMSTR	91	288	6
NMSI_	91	288	6	96	48	3
NMSTR	92	0	0
NMSI_	92	0	0	96	48	4
NMTAP	92	0	6
NMTAP	92	96	0
NMSTR	92	96	7
NMSI_	92	96	7	96	48	3
NMTAP	92	192	0
NMTAP	92	192	7
NMTAP	92	288	0
NMTAP	92	336	2
NMTAP	93	0	5
NMSTR	93	48	7
NMSCL	93	48	7	96	48	4
NMTAP	93	96	7
NMTAP	93	144	2
NMSTR	93	192	0
NMSCR	93	192	0	96	48	3
NMTAP	93	288	4
NMTAP	93	336	6
NMHLD	94	0	7	192
BRTAP	94	144	4
BRTAP	94	192	4
BRTAP	94	240	4
NMTAP	94	288	3
NMTAP	94	288	6
NMTAP	94	336	2
NMTAP	94	336	5
NMHLD	95	0	1	48
NMHLD	95	0	4	48
NMTAP	95	96	2
NMTAP	95	96	5
NMTAP	95	144	3
NMTAP	95	144	6
NMSTR	95	192	4
NMSI_	95	192	4	96	24	1
NMTAP	95	192	7
NMSTR	95	288	0
NMSI_	95	288	0	96	48	5
NMTAP	95	288	4
NMTAP	96	0	0
NMSTR	96	0	4
NMSI_	96	0	4	96	24	1
NMTAP	96	96	0
NMTAP	96	96	4
NMTTP	96	192	7	E	1	M1
NMTAP	97	0	1
NMSTR	97	48	2
NMSCL	97	48	2	96	48	7
NMTAP	97	96	3
NMTAP	97	144	6
NMSTR	97	192	5
NMSCR	97	192	5	96	48	0
NMTAP	97	288	1
NMTAP	97	336	2
NMHLD	98	0	3	192
BRTAP	98	144	0
BRTAP	98	192	0
BRTAP	98	240	0
NMTAP	98	288	4
NMTAP	98	288	7
NMTAP	98	336	3
NMTAP	98	336	6
NMTAP	99	0	2
NMTAP	99	0	5
NMTAP	99	96	0
NMTAP	99	96	3
NMTAP	99	144	1
NMTAP	99	144	4
NMTAP	99	192	2
NMTAP	99	192	5
EXSTR	99	288	4
NMSI_	99	288	4	96	48	0
EXSTR	99	288	7
NMSI_	99	288	7	96	48	5
BRTAP	100	0	4
BRTAP	100	0	7
EXSTR	100	96	0
NMSI_	100	96	0	96	48	2
EXSTR	100	96	3
NMSI_	100	96	3	96	48	7
BRTAP	100	192	0
BRTAP	100	192	3

T_REC_TAP	697
T_REC_BRK	46
T_REC_XTP	0
T_REC_BXX	2
T_REC_HLD	71
T_REC_XHO	0
T_REC_BHO	6
T_REC_BXH	0
T_REC_STR	52
T_REC_BST	0
T_REC_XST	4
T_REC_XBS	0
T_REC_TTP	22
T_REC_THO	0
T_REC_SLD	58
T_REC_BSL	0
T_REC_ALL	958
T_NUM_TAP	775
T_NUM_BRK	54
T_NUM_HLD	71
T_NUM_SLD	58
T_NUM_ALL	958
T_JUDGE_TAP	823
T_JUDGE_HLD	200
T_JUDGE_SLD	58
T_JUDGE_ALL	1081
TTM_EACHPAIRS	181
TTM_SCR_TAP	387500
TTM_SCR_BRK	140400
TTM_SCR_HLD	71000
TTM_SCR_SLD	87000
TTM_SCR_ALL	685900
TTM_SCR_S	660100
TTM_SCR_SS	680500
TTM_RAT_ACV	10079

