VERSION	0.00.00	1.05.00
FES_MODE	1
BPM_DEF	180.000	180.000	180.000	180.000
MET_DEF	4	4
RESOLUTION	384
CLK_DEF	384
COMPATIBLE_CODE	MA2

BPM	0	0	180.000
MET	0	0	4	4

NMSTR	2	0	2
NMSCL	2	0	2	96	216	6
NMTAP	2	0	5
EXSTR	2	216	6
NMSCL	2	216	6	96	216	1
EXSTR	3	48	1
NMSCL	3	48	1	96	216	3
EXSTR	3	264	3
NMSCL	3	264	3	96	192	4
CNSCL	4	168	4	0	120	0
EXTAP	5	0	6
EXTAP	5	0	7
EXTAP	5	64	0
EXTAP	5	64	5
EXTAP	5	128	1
EXTAP	5	128	4
EXTAP	5	192	2
EXTAP	5	192	3
NMTAP	6	0	4
NMTAP	6	0	5
NMTAP	6	48	6
NMTAP	6	48	7
NMTAP	6	96	0
NMTAP	6	96	1
NMTAP	6	144	2
NMTAP	6	144	3
NMTTP	6	240	2	E	0	M1
NMTTP	6	240	2	A	0	M1
NMTTP	6	240	5	B	0	M1
NMTTP	6	240	5	E	0	M1
NMTAP	6	336	1
NMTAP	6	336	7
NMTAP	7	48	6
NMTAP	7	96	4
NMTAP	7	144	2
EXSTR	7	192	0
NMSUR	7	192	0	96	48	4
EXTAP	7	288	7
EXTAP	8	0	0
EXTAP	8	96	1
NMTAP	8	96	7
EXTAP	8	192	2
NMTAP	8	192	4
EXTAP	8	288	3
NMTAP	8	288	5
EXTAP	9	0	0
NMTAP	9	0	6
EXTAP	9	96	1
NMTAP	9	96	7
EXTAP	9	192	2
NMTAP	9	192	4
EXTAP	9	288	3
NMTAP	9	288	5
NMHLD	10	0	2	96
NMHLD	10	0	6	96
NMHLD	10	192	0	96
NMHLD	10	192	7	96
NMHLD	11	0	1	96
NMHLD	11	0	4	96
NMTAP	11	192	0
NMTAP	11	192	5
NMTTP	12	192	4	E	0	M1
BRTAP	14	48	0
BRTAP	14	48	7
BRTAP	14	60	1
BRTAP	14	60	6
BRTAP	14	72	2
BRTAP	14	72	5
BRTAP	14	84	3
BRTAP	14	84	4
BRTAP	14	144	2
BRTAP	14	144	5
BRTAP	14	192	1
BRTAP	14	192	6
BRTAP	14	264	0
BRTAP	14	264	7
BRTAP	15	48	0
BRTAP	15	60	1
BRTAP	15	72	2
BRTAP	15	84	3
BRTAP	15	96	4
BRTAP	15	108	5
BRTAP	15	120	6
BRTAP	15	132	7
BRTAP	15	144	0
BRTAP	15	240	2
BRTAP	15	240	3
BRTAP	15	312	1
BRTAP	15	312	4
BRTAP	16	0	0
BRTAP	16	0	5
BRTAP	16	144	6
BRTAP	16	156	5
BRTAP	16	168	4
BRTAP	16	180	3
BRTAP	16	192	2
BRTAP	16	288	0
BRTAP	17	48	1
BRTAP	17	48	7
BRTAP	17	96	1
BRTAP	17	96	7
BRTAP	17	192	4
BRTAP	17	192	6
BRTAP	17	288	2
BRTAP	17	288	4
BRTAP	17	352	1
BRTAP	17	352	3
BRTAP	18	16	1
BRTAP	18	16	3
BRTAP	18	160	5
BRTAP	18	160	7
BRTAP	18	224	3
BRTAP	18	224	5
BRTAP	18	288	1
BRTAP	18	288	3
BRHLD	19	48	0	96
BRSTR	19	288	7
BRSSR	19	288	7	96	192	3
NMTTP	22	48	5	B	0	M1
NMTTP	22	96	4	B	0	M1
NMTTP	22	144	3	B	0	M1
NMTTP	22	192	2	B	0	M1
NMTTP	24	0	6	E	0	M1
NMTTP	24	48	5	E	0	M1
NMTTP	24	96	4	E	0	M1
NMTTP	24	144	3	E	0	M1
NMTTP	24	192	2	E	0	M1
BRTAP	26	96	0
BRTAP	26	96	7
BRTAP	26	192	0
BRTAP	26	192	7
BXHLD	28	288	2	192
BXSTR	28	288	5
NMSUL	28	288	5	96	192	3
NMSTR	29	192	0
BRSI_	29	192	0	96	48	4
BRTAP	29	288	0
NMSTR	29	288	6
NMSUL	29	288	6	96	192	3
NMHLD	30	0	2	96
NMSTR	30	192	0
BRSI_	30	192	0	96	48	4
BRTAP	30	288	0
NMSTR	30	288	6
NMSXL	30	288	6	96	192	3
NMHLD	31	0	2	96
NMSTR	31	192	0
BRSI_	31	192	0	96	48	4
BRTAP	31	288	0
NMSTR	31	288	6
NMSXL	31	288	6	96	192	3
NMHLD	32	0	2	96
NMSTR	32	192	0
NMSI_	32	192	0	96	48	4
BRTAP	32	288	0
NMSTR	32	288	5
NMSUL	32	288	5	96	192	3
NMHLD	33	0	1	96
NMSTR	33	192	0
BRSI_	33	192	0	96	48	4
BRTAP	33	288	0
NMSTR	33	288	6
NMSXL	33	288	6	96	192	3
NMHLD	34	0	2	96
NMSTR	34	192	0
BRSI_	34	192	0	96	48	4
BRTAP	34	288	0
NMTAP	35	48	5
NMTAP	35	96	4
NMTAP	35	144	3
NMTAP	35	192	2
NMTAP	36	0	0
NMTAP	36	24	0
NMTAP	36	96	1
NMTAP	36	96	7
NMTAP	36	120	1
NMTAP	36	120	7
NMHLD	36	168	2	120
NMHLD	36	168	6	120
BRTAP	37	0	0
BRTAP	37	0	1
BRTAP	37	48	0
BRTAP	37	48	1
BRTAP	37	192	2
BRTAP	37	192	3
BRTAP	37	240	2
BRTAP	37	240	3
BRTAP	37	336	0
BRTAP	37	336	5
BRHLD	38	0	0	384
BRHLD	38	0	5	384
NMSTR	40	288	2
BRSCL	40	288	2	96	288	4
NMSTR	40	288	4
BRSXL	40	288	4	96	288	4
BRTAP	41	0	2
BRTAP	41	0	4
NMSTR	42	0	3
NMSLL	42	0	3	96	96	7
NMTAP	42	0	7
NMTAP	42	96	3
BRTAP	42	96	6
NMSTR	42	192	3
NMSLR	42	192	3	96	96	7
BRTAP	42	288	0
NMTAP	42	288	3
NMSTR	43	0	4
NMSLL	43	0	4	96	96	0
BRTAP	43	96	0
NMTAP	43	96	4
NMSTR	43	192	4
NMSLR	43	192	4	96	96	0
NMTAP	43	288	4
BRTAP	43	288	7
NMSTR	44	0	3
NMSI_	44	0	3	96	48	7
BRTAP	44	96	3
EXSTR	44	96	6
NMSI_	44	96	6	96	48	2
EXSTR	44	192	1
NMSI_	44	192	1	96	48	5
BRTAP	44	192	6
BRTAP	44	288	1
EXTAP	44	288	7
NMSTR	45	0	6
NMSCL	45	0	6	96	48	3
BRTAP	45	96	0
EXTAP	45	96	6
NMSTR	45	192	1
NMSUR	45	192	1	96	48	5
EXTAP	45	288	1
BRTAP	45	288	7
NMSTR	46	0	6
NMSUL	46	0	6	96	48	2
BRTAP	46	96	0
EXTAP	46	96	6
NMSTR	46	192	1
NMSCR	46	192	1	96	48	4
EXTAP	46	288	1
BRTAP	46	288	7
BXSTR	47	0	3
BRSF_	47	0	3	96	48	7
BRTAP	48	96	0
BRTAP	48	96	7
NMTAP	48	240	2
NMTAP	48	240	4
NMSTR	48	288	2
BRSCL	48	288	2	96	288	4
NMSTR	48	288	4
BRSXL	48	288	4	96	288	4
BRTAP	49	0	2
BRTAP	49	0	4
NMTAP	50	0	0
NMSTR	50	0	4
NMSLR	50	0	4	96	96	0
BRTAP	50	96	1
NMTAP	50	96	4
NMSTR	50	192	4
NMSLL	50	192	4	96	96	0
NMTAP	50	288	4
BRTAP	50	288	7
NMSTR	51	0	3
NMSLR	51	0	3	96	96	7
NMTAP	51	96	3
BRTAP	51	96	7
NMSTR	51	192	3
NMSLL	51	192	3	96	96	7
BRTAP	51	288	0
NMTAP	51	288	3
NMSTR	52	0	4
NMSI_	52	0	4	96	48	0
EXSTR	52	96	2
NMSI_	52	96	2	96	48	6
BRTAP	52	96	4
BRTAP	52	192	2
EXSTR	52	192	7
NMSI_	52	192	7	96	48	3
EXTAP	52	288	0
BRTAP	52	288	7
NMSTR	54	0	7
NMSCR	54	0	7	96	72	1
CNSV_	54	168	1	0	72	3
NMSTR	55	192	7
NMSCR	55	192	7	96	72	1
CNSV_	55	360	1	0	72	3
BRTAP	59	0	0
BRTAP	59	16	1
BRTAP	59	32	2
BRTAP	59	48	3
BRTAP	59	64	4
BRTAP	59	80	5
BRTAP	59	96	6
BRTAP	59	112	7
BRTAP	59	128	0
BRTAP	59	144	1
BRTAP	59	160	2
BRTAP	59	176	3
BRTAP	59	192	0
BRTAP	59	192	4
BRTAP	59	208	7
BRTAP	59	224	6
BRTAP	59	240	5
BRTAP	59	256	4
BRTAP	59	272	3
BRTAP	59	288	2
BRTAP	59	304	1
BRTAP	59	320	0
BRTAP	59	336	7
BRTAP	59	352	6
BRTAP	59	368	5
BRTAP	60	0	4
BRTAP	60	16	3
BRTAP	60	32	2
BRTAP	60	48	1
BRTAP	60	64	0
BRTAP	60	80	7
BXSTR	60	96	6
BRSI_	60	96	6	96	48	2
BXSTR	60	192	1
BRSI_	60	192	1	96	48	5
BXTAP	60	192	6
BXTAP	60	288	1
BXSTR	60	288	7
BRSI_	60	288	7	96	48	2
BRSI_	60	288	7	96	48	4
BXTAP	61	0	7
BXTAP	61	144	4
BXTAP	61	144	5
BXTAP	61	192	6
BXTAP	61	192	7
BXTAP	61	240	0
BXTAP	61	240	1
BXTAP	61	288	2
BXTAP	61	288	3
BXHLD	61	336	4	80
BXHLD	62	32	6	128
BXHLD	62	160	0	128
BRTAP	62	288	3
NMTTP	63	0	4	A	0	M1
NMTTP	63	0	5	A	0	M1
NMTTP	63	0	5	D	0	M1
NMTTP	63	0	6	D	0	M1
NMTTP	63	96	2	A	0	M1
NMTTP	63	96	2	D	0	M1
NMTTP	63	96	3	A	0	M1
NMTTP	63	96	3	D	0	M1
NMTTP	63	192	6	A	0	M1
NMTTP	63	192	6	D	0	M1
NMTTP	63	192	7	A	0	M1
NMTTP	63	192	7	D	0	M1
NMTTP	63	288	0	A	0	M1
NMTTP	63	288	1	A	0	M1
NMTTP	63	288	1	D	0	M1
NMTTP	63	288	2	D	0	M1
NMTTP	64	0	4	A	0	M1
NMTTP	64	0	5	A	0	M1
NMTTP	64	0	5	D	0	M1
NMTTP	64	0	6	D	0	M1
NMTTP	64	96	2	A	0	M1
NMTTP	64	96	2	D	0	M1
NMTTP	64	96	3	A	0	M1
NMTTP	64	96	3	D	0	M1
NMTTP	64	192	6	A	0	M1
NMTTP	64	192	6	D	0	M1
NMTTP	64	192	7	A	0	M1
NMTTP	64	192	7	D	0	M1
NMTAP	64	288	2
NMTAP	64	288	4
NMTAP	65	0	2
NMTAP	65	0	4
NMTTP	65	192	3	E	0	M1
NMTTP	65	264	3	E	0	M1
NMTTP	65	336	3	E	0	M1
NMTTP	66	24	3	E	0	M1
NMTTP	66	96	3	E	0	M1
NMTAP	66	336	5
NMTAP	67	0	4
NMTAP	67	48	3
NMHLD	67	96	2	576
BRTAP	68	336	3
BRTAP	68	336	5
BRTAP	69	48	2
BRTAP	69	48	6
BRTAP	69	96	2
BRHLD	69	96	6	480
BRTAP	70	288	3
BRTAP	70	288	5
BRTAP	70	336	2
BRTAP	70	336	4
BRTAP	71	0	1
BRTAP	71	0	3
BRTAP	71	48	0
BRTAP	71	48	2
BRHLD	71	96	1	576
BRHLD	71	96	7	576
BRTAP	73	0	4
BRTAP	73	0	6
BRTAP	73	48	5
BRTAP	73	96	4
BRTAP	73	96	6
BRTAP	73	144	5
BRTAP	73	192	4
BRTAP	73	192	6
BRTAP	73	240	2
BRTAP	73	288	1
BRTAP	73	288	3
BRTAP	73	336	2
BRTAP	74	0	1
BRTAP	74	0	3
BRTAP	74	48	2
BRTAP	74	96	1
BRTAP	74	96	3
BRTAP	74	144	4
BRTAP	74	192	3
BRTAP	74	192	5
BRTAP	74	240	4
BRSTR	74	288	2
NMSUR	74	288	2	96	192	4
BRHLD	74	288	6	192
NMSTR	75	192	7
BRSI_	75	192	7	96	48	3
NMSTR	75	288	1
NMSXR	75	288	1	96	192	4
BRTAP	75	288	7
NMHLD	76	0	5	96
BRTAP	76	192	7
BRTAP	76	240	7
BRTAP	76	288	4
BRSTR	76	288	6
NMSUL	76	288	6	96	192	3
NMHLD	77	0	2	96
NMSTR	77	192	0
BRSI_	77	192	0	96	48	4
BRTAP	77	288	0
NMSTR	77	288	6
NMSXL	77	288	6	96	192	3
NMHLD	78	0	2	96
EXHLD	78	192	1	48
EXSTR	78	288	1
NMSUR	78	288	1	96	192	4
EXHLD	78	288	3	48
NMHLD	79	0	5	96
NMSTR	79	192	7
BRSI_	79	192	7	96	48	3
NMSTR	79	288	1
NMSXR	79	288	1	96	192	4
BRTAP	79	288	7
NMHLD	80	0	5	96
NMSTR	80	192	7
BRSI_	80	192	7	96	48	3
BRTAP	80	288	2
BRTAP	80	288	7
BRHLD	80	336	2	336
BRHLD	82	0	3	288
BRHLD	82	0	5	288
EXSTR	83	0	0
NMSI_	83	0	0	96	48	4
NMSV_	83	0	0	96	24	2
NMTAP	83	0	1
CNSCR	83	120	2	0	24	3
NMTTP	83	192	0	B	0	M1
NMTTP	83	192	0	E	0	M1
NMTTP	83	192	5	B	0	M1
NMTTP	83	192	6	B	0	M1
NMTTP	83	192	6	E	0	M1
NMTTP	83	192	6	A	0	M1
NMTTP	83	192	7	B	0	M1
NMTTP	83	192	7	A	0	M1
NMTTP	83	288	2	B	0	M1
NMTTP	83	288	2	E	0	M1
NMTTP	83	288	3	B	0	M1
NMTTP	83	288	3	E	0	M1
NMTTP	83	288	3	D	0	M1
NMTTP	83	288	4	E	0	M1
EXSTR	84	0	4
NMSCL	84	0	4	96	48	0
NMSCR	84	0	4	96	48	0
NMTHO	84	192	0	672	C	1	M1
NMTTP	84	192	1	B	0	M1
NMTTP	84	192	2	B	0	M1
NMTTP	84	192	3	E	0	M1
NMTTP	84	192	3	A	0	M1
NMTTP	84	192	4	A	0	M1
NMTTP	84	192	4	D	0	M1
NMTTP	84	192	5	B	0	M1
NMTTP	84	192	5	E	0	M1
NMTTP	84	192	6	B	0	M1
NMTTP	84	192	7	E	0	M1
NMTTP	84	192	7	A	1	M1
NMSTR	86	288	7
NMSI_	86	288	7	96	48	4
NMTTP	87	0	0	B	0	M1
BRTAP	87	0	7
NMTTP	87	96	1	B	0	M1
NMTTP	87	96	2	B	0	M1
NMTAP	87	96	5
NMTTP	87	192	0	A	0	M1
NMTAP	87	192	5
NMTTP	87	240	3	E	0	M1
NMTTP	87	288	1	A	0	M1
NMTTP	87	288	2	E	0	M1
NMSTR	87	288	7
NMSI_	87	288	7	96	48	4
NMTTP	88	0	0	B	0	M1
BRTAP	88	0	7
NMTTP	88	96	1	B	0	M1
NMTTP	88	96	2	B	0	M1
NMTAP	88	96	5
NMTTP	88	192	0	A	0	M1
NMTAP	88	192	5
NMTTP	88	240	3	E	0	M1
NMTTP	88	288	1	A	0	M1
NMTTP	88	288	2	E	0	M1
NMSTR	88	288	7
NMSI_	88	288	7	96	48	4
NMTTP	89	0	0	B	0	M1
BRTAP	89	0	7
NMTTP	89	96	1	B	0	M1
NMTTP	89	96	2	B	0	M1
NMTAP	89	96	5
NMTTP	89	192	0	A	0	M1
NMTAP	89	192	5
NMTTP	89	240	3	E	0	M1
NMTTP	89	288	1	A	0	M1
NMTTP	89	288	2	E	0	M1
NMSTR	89	288	7
NMSI_	89	288	7	96	48	4
NMTTP	90	0	0	B	0	M1
BRTAP	90	0	7
NMTTP	90	96	1	B	0	M1
NMTTP	90	96	2	B	0	M1
NMTAP	90	96	5
NMTTP	90	192	0	A	0	M1
NMTAP	90	192	5
NMTTP	90	240	3	E	0	M1
NMTTP	90	288	1	A	0	M1
NMTTP	90	288	2	E	0	M1
NMSTR	90	288	7
NMSI_	90	288	7	96	48	4
NMTTP	91	0	0	B	0	M1
BRTAP	91	0	7
NMTTP	91	96	1	B	0	M1
NMTTP	91	96	2	B	0	M1
NMTAP	91	96	5
NMTTP	91	192	0	A	0	M1
NMTAP	91	192	5
NMTTP	91	240	3	E	0	M1
NMTTP	91	288	1	A	0	M1
NMTTP	91	288	2	E	0	M1
NMSTR	91	288	7
NMSI_	91	288	7	96	48	4
NMTTP	92	0	0	B	0	M1
BRTAP	92	0	7
NMTTP	92	96	1	B	0	M1
NMTTP	92	96	2	B	0	M1
NMTAP	92	96	5
NMTTP	92	192	0	A	0	M1
NMTAP	92	192	5
NMTTP	92	240	3	E	0	M1
NMTTP	92	288	1	A	0	M1
NMTTP	92	288	2	E	0	M1
NMSTR	92	288	7
NMSI_	92	288	7	96	48	4
NMTTP	93	0	0	B	0	M1
BRTAP	93	0	7
NMTTP	93	96	1	B	1	M1
NMSTR	93	288	7
NMSI_	93	288	7	96	48	4
BRTAP	94	0	7
NMTAP	94	96	5
NMTAP	94	192	5
NMSTR	94	288	7
NMSI_	94	288	7	96	48	4
NMTAP	95	0	0
NMTTP	95	0	7	A	1	M1
NMTTP	95	96	1	B	0	M1
NMTTP	95	96	1	E	0	M1
NMTTP	95	96	6	E	0	M1
NMTAP	95	192	0
NMTTP	95	192	7	E	0	M1
NMTAP	95	240	3
NMTTP	95	288	2	B	0	M1
NMTTP	95	288	3	E	0	M1
NMSTR	95	288	7
NMSI_	95	288	7	96	48	4
NMTAP	96	0	0
NMTTP	96	0	7	A	1	M1
NMTTP	96	96	1	B	0	M1
NMTTP	96	96	1	E	0	M1
NMTTP	96	96	6	E	0	M1
NMTAP	96	192	0
NMTTP	96	192	7	E	0	M1
NMTAP	96	240	3
NMTTP	96	288	2	B	0	M1
NMTTP	96	288	3	E	0	M1
NMSTR	96	288	7
NMSI_	96	288	7	96	48	4
NMTAP	97	0	0
NMTTP	97	0	7	A	1	M1
NMTTP	97	96	1	B	0	M1
NMTTP	97	96	1	E	0	M1
NMTTP	97	96	6	E	0	M1
NMTAP	97	192	0
NMTTP	97	192	7	E	0	M1
NMTAP	97	240	3
NMTTP	97	288	2	B	0	M1
NMTTP	97	288	3	E	0	M1
NMSTR	97	288	7
NMSI_	97	288	7	96	48	4
NMTAP	98	0	0
NMTTP	98	0	7	A	1	M1
NMTTP	98	96	1	B	0	M1
NMTTP	98	96	1	E	0	M1
NMTTP	98	96	6	E	0	M1
NMTAP	98	192	0
NMTTP	98	192	7	E	0	M1
NMTAP	98	240	3
NMTTP	98	288	2	B	0	M1
NMTTP	98	288	3	E	0	M1
NMSTR	98	288	7
NMSI_	98	288	7	96	48	4
NMTAP	99	0	0
NMTTP	99	0	7	A	1	M1
NMTTP	99	96	1	B	0	M1
NMTTP	99	96	1	E	0	M1
NMTTP	99	96	6	E	0	M1
NMTAP	99	192	0
NMTTP	99	192	7	E	0	M1
NMTAP	99	240	3
NMTTP	99	288	2	B	0	M1
NMTTP	99	288	3	E	0	M1
NMSTR	99	288	7
NMSI_	99	288	7	96	48	4
NMTAP	100	0	0
NMTTP	100	0	7	A	1	M1
NMTTP	100	96	1	B	0	M1
NMTTP	100	96	1	E	0	M1
NMTTP	100	96	6	E	0	M1
NMTAP	100	192	0
NMTTP	100	192	7	E	0	M1
NMTAP	100	240	3
NMTTP	100	288	2	B	0	M1
NMTTP	100	288	3	E	0	M1
NMSTR	100	288	7
NMSI_	100	288	7	96	48	4
NMTAP	101	0	0
NMTTP	101	0	7	A	1	M1
NMTTP	101	96	1	B	0	M1
NMTTP	101	96	1	E	0	M1
NMTTP	101	96	6	E	0	M1
NMTAP	101	192	0
NMTTP	101	192	7	E	0	M1
NMTAP	101	240	3
NMTTP	101	288	2	B	0	M1
NMTTP	101	288	3	E	0	M1
NMSTR	101	288	7
NMSI_	101	288	7	96	48	4
NMTAP	102	0	0
NMSTR	102	0	7
NMSI_	102	0	7	96	48	1
NMSXR	102	0	7	96	192	0
CNSXL	102	144	1	0	144	0
EXHLD	103	0	1	24
EXHLD	103	0	5	24
EXHLD	103	72	1	24
EXHLD	103	72	5	24
EXHLD	103	144	1	24
EXHLD	103	144	5	24
EXHLD	103	216	1	24
EXHLD	103	216	5	24
NMTAP	103	288	1
NMTAP	103	288	5
EXHLD	104	0	2	24
EXHLD	104	0	6	24
EXHLD	104	72	2	24
EXHLD	104	72	6	24
EXHLD	104	144	2	24
EXHLD	104	144	6	24
EXHLD	104	216	2	24
EXHLD	104	216	6	24
NMTAP	104	288	2
NMTAP	104	288	6
NMTAP	105	0	3
NMTAP	105	0	4
NMTAP	105	48	3
NMTAP	105	48	4
NMTAP	105	96	2
NMTAP	105	96	5
NMTAP	105	144	2
NMTAP	105	144	5
NMTAP	105	360	0
NMTAP	105	360	7
NMTAP	106	0	0
NMTAP	106	0	7
NMTAP	106	48	1
NMTAP	106	48	6
NMTAP	106	72	1
NMTAP	106	72	6
NMHLD	106	120	2	552
NMHLD	106	120	5	552
NMTTP	108	0	0	E	1	M1
NMTTP	108	0	0	A	0	M1
NMTTP	108	0	1	D	0	M1
NMTTP	108	0	7	A	0	M1
NMTTP	108	0	7	D	0	M1
NMTTP	108	12	0	B	0	M1
NMTTP	108	12	1	E	0	M1
NMTTP	108	12	7	B	0	M1
NMTTP	108	12	7	E	0	M1
NMTTP	108	24	1	B	0	M1
NMTTP	108	24	1	A	0	M1
NMTTP	108	24	2	E	0	M1
NMTTP	108	24	6	B	0	M1
NMTTP	108	24	6	E	0	M1
NMTTP	108	24	6	A	0	M1
NMTTP	108	36	0	C	0	M1
NMTTP	108	36	2	B	0	M1
NMTTP	108	36	5	B	0	M1
NMTTP	108	48	3	B	0	M1
NMTTP	108	48	4	B	0	M1
NMTTP	108	48	4	E	0	M1
NMTTP	108	324	1	B	0	M1
NMTTP	108	324	1	E	0	M1
NMTTP	108	324	1	A	0	M1
NMTTP	108	324	1	D	0	M1
NMTTP	108	324	2	B	0	M1
NMTTP	108	324	2	E	0	M1
NMTTP	108	324	2	A	0	M1
NMTTP	108	324	2	D	1	M1
NMTTP	109	144	6	B	0	M1
NMTTP	109	144	6	E	0	M1
NMTTP	109	144	6	A	1	M1
NMTTP	109	144	6	D	0	M1
NMTTP	109	144	7	E	0	M1
NMTTP	109	144	7	D	0	M1
NMTTP	109	192	2	B	0	M1
NMTTP	109	192	2	A	0	M1
NMTTP	109	192	3	B	0	M1
NMTTP	109	192	3	E	0	M1
NMTTP	109	192	3	A	0	M1
NMTTP	109	192	3	D	1	M1
NMTTP	109	372	4	B	0	M1
NMTTP	109	372	4	A	0	M1
NMTTP	109	372	5	B	0	M1
NMTTP	109	372	5	E	0	M1
NMTTP	109	372	5	A	0	M1
NMTTP	109	372	5	D	1	M1
NMTTP	110	48	0	B	0	M1
NMTTP	110	48	0	A	0	M1
NMTTP	110	48	1	B	0	M1
NMTTP	110	48	1	E	0	M1
NMTTP	110	48	1	A	0	M1
NMTTP	110	48	1	D	1	M1
BRTAP	110	192	6
BRTAP	110	192	7
BRTAP	110	240	6
BRTAP	110	240	7
BRTAP	110	336	0
BRTAP	110	336	1
BRTAP	111	0	2
BRTAP	111	0	3
BRTAP	111	48	4
BRTAP	111	60	5
BRTAP	111	72	6
BRTAP	111	84	7
BRTAP	111	96	0
BRTAP	111	108	1
BRTAP	111	120	2
BRTAP	111	132	3
BRTAP	111	144	4
BRTAP	111	156	5
BRTAP	111	168	6
BRTAP	111	180	7
NMTTP	111	192	0	A	0	M1
NMTTP	111	204	1	A	0	M1
NMTTP	111	216	2	A	0	M1
NMTTP	111	228	3	A	0	M1
NMTTP	111	240	4	A	0	M1
NMTTP	111	252	5	A	0	M1
NMTTP	111	264	6	A	0	M1
NMTTP	111	276	7	A	0	M1
EXSTR	111	288	0
NMSF_	111	288	0	96	48	4
BXTAP	112	0	0
NMSTR	112	144	2
NMSI_	112	144	2	96	48	7
NMTAP	112	192	1
NMSTR	112	240	0
NMSI_	112	240	0	96	48	5
NMTAP	112	240	2
NMSTR	112	336	0
NMSCR	112	336	0	96	48	3
NMSTR	112	336	6
NMSCL	112	336	6	96	48	4
NMTAP	113	48	0
NMSTR	113	48	6
NMSI_	113	48	6	96	48	3
EXTAP	113	144	2
NMTAP	113	144	6
EXTAP	113	192	2
CNSI_	113	192	3	0	48	0
BRTAP	113	288	1
BRTAP	113	288	7
BRTAP	114	0	6
BRTAP	114	16	5
BRTAP	114	32	4
BRTAP	114	96	1
BRTAP	114	112	2
BRTAP	114	128	3
BRTAP	114	192	7
BRTAP	114	208	6
BRTAP	114	224	5
NMTAP	114	288	2
NMTAP	114	336	2
NMTAP	114	352	3
NMTAP	114	368	4
NMTAP	115	0	5
NMTAP	115	16	6
NMTAP	115	32	7
NMTAP	115	48	0
NMTAP	115	64	1
NMTAP	115	80	2
NMTAP	115	96	3
NMTAP	115	112	4
NMTAP	115	128	5
NMTAP	115	144	6
NMTAP	115	160	7
NMTAP	115	176	0
NMTAP	115	192	1
NMTAP	115	208	2
NMTAP	115	224	3
NMTAP	115	240	4
NMTAP	115	256	5
NMTAP	115	272	6
NMTAP	115	288	7
NMTTP	116	0	0	C	1	M1
NMTTP	116	0	2	B	0	M1
NMTTP	116	0	2	A	0	M1
NMTTP	116	0	3	B	0	M1
NMTTP	116	0	3	A	0	M1
NMTTP	116	0	6	B	0	M1
NMTTP	116	0	6	A	0	M1
NMTTP	116	0	7	B	0	M1
NMTTP	116	0	7	A	0	M1
NMSTR	117	0	0
NMSSL	117	0	0	96	192	4
EXTAP	118	96	6
EXTAP	118	160	7
EXTAP	118	224	0
EXTAP	118	288	1

T_REC_TAP	136
T_REC_BRK	210
T_REC_XTP	29
T_REC_BXX	12
T_REC_HLD	21
T_REC_XHO	18
T_REC_BHO	10
T_REC_BXH	4
T_REC_STR	62
T_REC_BST	3
T_REC_XST	12
T_REC_XBS	5
T_REC_TTP	235
T_REC_THO	1
T_REC_SLD	67
T_REC_BSL	19
T_REC_ALL	844
T_NUM_TAP	474
T_NUM_BRK	263
T_NUM_HLD	40
T_NUM_SLD	67
T_NUM_ALL	844
T_JUDGE_TAP	704
T_JUDGE_HLD	193
T_JUDGE_SLD	86
T_JUDGE_ALL	983
TTM_EACHPAIRS	145
TTM_SCR_TAP	237000
TTM_SCR_BRK	683800
TTM_SCR_HLD	40000
TTM_SCR_SLD	100500
TTM_SCR_ALL	1061300
TTM_SCR_S	1003950
TTM_SCR_SS	1035000
TTM_RAT_ACV	10254

