VERSION	0.00.00	1.05.00
FES_MODE	0
BPM_DEF	180.000	180.000	180.000	180.000
MET_DEF	4	4
RESOLUTION	384
CLK_DEF	384
COMPATIBLE_CODE	MA2

BPM	0	0	180.000
MET	0	0	4	4

NMTAP	1	192	3
NMTAP	1	240	2
NMTAP	1	288	4
NMTAP	1	336	5
NMHLD	2	0	5	96
NMTAP	2	96	3
NMTAP	2	144	3
NMTAP	2	288	2
NMHLD	2	336	2	144
NMTAP	3	96	4
NMTAP	3	144	4
NMTAP	3	288	5
NMHLD	3	336	5	144
NMTAP	4	96	3
NMTAP	4	144	3
NMTAP	4	288	2
NMHLD	4	336	2	144
NMTAP	5	96	4
NMTAP	5	144	4
NMTAP	5	288	3
NMTAP	5	336	2
NMHLD	6	0	2	96
NMHLD	6	0	3	96
NMTAP	6	144	2
NMTAP	6	144	3
NMTAP	6	240	3
NMTAP	6	240	4
NMHLD	6	336	4	144
NMHLD	6	336	5	144
NMTAP	7	192	3
NMTAP	7	192	4
NMTAP	7	288	2
NMTAP	7	288	5
NMTAP	8	0	3
NMTAP	8	24	4
NMTAP	8	48	3
NMTAP	8	72	4
NMTAP	8	96	3
NMTAP	8	120	4
NMTAP	8	144	3
NMTAP	8	168	4
NMTAP	8	192	3
NMTAP	8	216	4
NMTAP	8	240	3
NMTAP	8	264	4
NMTAP	8	288	3
NMTAP	8	312	4
NMTAP	8	336	3
NMTAP	8	360	4
NMTAP	9	0	2
NMTAP	9	24	5
NMTAP	9	48	2
NMTAP	9	72	5
NMTAP	9	96	2
NMTAP	9	120	5
NMTAP	9	144	2
NMTAP	9	168	5
NMTAP	9	192	2
NMTAP	9	216	5
NMTAP	9	240	2
NMTAP	9	264	5
NMTAP	9	288	2
NMTAP	9	312	5
NMTAP	9	336	2
NMTAP	9	360	5
NMTAP	10	0	1
NMTAP	10	24	6
NMTAP	10	48	1
NMTAP	10	72	6
NMTAP	10	96	1
NMTAP	10	120	6
NMTAP	10	144	1
NMTAP	10	168	6
NMTAP	10	192	1
NMTAP	10	216	6
NMTAP	10	240	1
NMTAP	10	264	6
NMTAP	10	288	1
NMTAP	10	312	6
NMTAP	10	336	1
NMTAP	10	360	6
NMTAP	11	0	0
NMTAP	11	24	7
NMTAP	11	48	0
NMTAP	11	72	7
NMTAP	11	96	0
NMTAP	11	120	7
NMTAP	11	144	0
NMTAP	11	168	7
NMTAP	11	192	0
EXTAP	11	256	1
EXTAP	11	256	2
EXTAP	11	320	2
EXTAP	11	320	3
NMTTP	12	0	5	E	0	M1
NMTTP	12	96	6	E	0	M1
NMTTP	12	192	7	E	0	M1
NMSTR	12	288	0
NMSI_	12	288	0	96	48	4
NMSTR	12	288	1
NMSI_	12	288	1	96	48	3
NMTAP	13	0	0
NMTAP	13	0	1
NMHLD	13	192	6	96
NMTAP	13	288	7
NMTAP	13	336	7
NMSTR	14	48	4
NMSI_	14	48	4	96	48	0
NMTAP	14	48	5
NMTAP	14	144	6
NMTAP	14	192	6
BRTAP	14	288	7
NMTAP	15	0	0
NMTAP	15	0	7
NMTAP	15	96	0
NMTAP	15	96	7
NMTAP	15	192	1
NMHLD	15	240	1	96
NMSTR	15	336	0
NMSI_	15	336	0	96	48	4
NMTAP	16	48	3
NMTAP	16	96	3
NMTAP	16	192	2
NMTAP	16	192	4
NMTAP	16	288	5
NMTAP	17	0	4
NMTAP	17	0	5
NMTAP	17	144	6
NMTAP	17	144	7
NMSTR	17	192	6
NMSI_	17	192	6	96	48	2
NMTAP	17	192	7
NMTAP	17	288	0
NMTAP	17	336	0
NMTAP	18	48	2
NMTAP	18	48	3
NMTAP	18	144	1
NMTAP	18	144	4
NMTAP	18	192	1
NMTAP	18	192	4
BRTAP	18	288	3
NMTAP	19	0	2
NMTAP	19	48	2
NMTAP	19	96	3
NMTAP	19	144	3
NMHLD	19	240	1	96
NMTAP	19	240	4
NMTAP	19	336	3
NMTAP	20	48	2
NMTAP	20	48	3
NMHLD	20	96	2	96
NMHLD	20	96	3	96
NMSTR	20	288	4
NMSI_	20	288	4	96	48	0
NMSTR	20	288	5
NMSI_	20	288	5	96	48	7
NMTAP	21	0	4
NMTAP	21	0	5
NMHLD	21	192	1	96
NMTAP	21	288	0
NMTAP	21	336	0
NMSTR	22	48	2
NMSI_	22	48	2	96	48	7
NMTAP	22	48	3
NMTAP	22	144	5
NMTAP	22	192	5
BRTAP	22	288	6
NMTAP	23	0	0
NMTAP	23	0	7
NMTAP	23	96	0
NMTAP	23	96	7
NMTAP	23	192	6
NMHLD	23	240	6	96
NMTAP	23	336	7
NMTAP	24	48	4
NMTAP	24	48	5
NMTAP	24	96	4
NMTAP	24	96	5
NMTAP	24	192	3
NMTAP	24	192	6
NMTAP	24	288	2
NMHLD	25	0	2	96
NMHLD	25	0	3	96
NMHLD	25	192	1	96
NMTAP	25	288	0
NMTAP	25	336	0
NMTAP	26	48	2
NMTAP	26	48	3
EXTAP	26	144	1
EXTAP	26	144	4
EXTAP	26	192	1
EXTAP	26	192	4
NMTTP	26	288	4	E	0	M1
NMTAP	27	0	6
NMSTR	27	48	6
NMSCL	27	48	6	96	96	3
NMTAP	27	144	0
NMTAP	27	288	1
NMSTR	27	336	1
NMSI_	27	336	1	96	96	4
NMTAP	28	48	7
NMTAP	28	192	6
NMTAP	28	240	6
NMTAP	28	336	3
NMTAP	28	336	5
NMSTR	29	96	4
NMSXL	29	96	4	96	96	4
NMSXR	29	96	4	96	96	4
BRTAP	30	0	1
BRTAP	30	0	7
BRTAP	30	96	0
BRTAP	30	96	6
BRTAP	30	144	0
BRTAP	30	144	6
EXTAP	30	240	1
EXTAP	30	240	7
EXTAP	30	336	0
EXTAP	30	336	6
NMTAP	31	96	1
NMTAP	31	96	5
NMSTR	31	192	2
NMSCR	31	192	2	96	48	5
NMSTR	31	192	6
NMSCR	31	192	6	96	48	1
NMSTR	31	288	2
NMSXL	31	288	2	96	192	5
NMTAP	31	288	6
NMHLD	32	336	4	144
NMHLD	32	336	6	144
NMHLD	33	192	1	96
NMHLD	33	192	3	96
NMTAP	34	0	3
NMTAP	34	0	5
NMTAP	34	96	3
NMTAP	34	96	5
NMTAP	34	192	2
NMTAP	34	192	4
NMTAP	34	288	2
NMTAP	34	288	4
NMHLD	35	0	5	192
NMHLD	35	192	7	192
NMHLD	36	0	0	192
NMTAP	36	192	2
NMTAP	37	0	2
NMTAP	37	24	3
NMTAP	37	48	2
NMTAP	37	72	3
NMTAP	37	96	2
NMTAP	37	192	5
NMTAP	37	216	4
NMTAP	37	240	5
NMTAP	37	264	4
NMTAP	37	288	5
NMTAP	38	0	0
NMTAP	38	24	7
NMTAP	38	48	0
NMTAP	38	72	7
NMTAP	38	96	1
NMTAP	38	128	3
NMTAP	38	160	2
NMTAP	38	192	6
NMTAP	38	224	4
NMTAP	38	256	5
NMTAP	38	288	2
NMTAP	38	320	4
NMTAP	38	352	3
EXTAP	39	64	3
EXTAP	39	128	4
EXTAP	39	192	2
EXTAP	39	192	5
EXTAP	39	240	2
EXTAP	39	240	5
NMTAP	39	336	3
NMTAP	39	336	4
NMTTP	40	96	0	C	1	M1
NMTTP	40	96	2	B	0	M1
NMTTP	40	96	5	B	0	M1
NMSTR	40	288	0
NMSCR	40	288	0	96	48	3
NMSTR	40	288	7
NMSCL	40	288	7	96	48	4
NMTAP	41	0	0
NMTAP	41	0	7
NMTAP	41	144	3
NMTAP	41	144	4
NMSTR	41	192	3
NMSXR	41	192	3	96	96	1
NMSTR	41	192	4
NMSXL	41	192	4	96	96	6
NMTAP	42	96	0
NMTAP	42	96	7
NMTAP	42	144	0
NMTAP	42	144	7
NMSTR	42	288	0
NMSCL	42	288	0	96	48	5
NMSTR	42	288	1
NMSCR	42	288	1	96	48	4
NMTAP	43	0	0
NMTAP	43	0	1
NMTAP	43	144	3
NMTAP	43	144	6
NMTAP	43	192	3
NMTAP	43	192	6
NMTAP	43	288	1
NMTAP	43	288	4
NMSTR	44	0	2
NMSI_	44	0	2	96	48	7
NMSTR	44	0	3
NMSI_	44	0	3	96	48	6
NMTAP	44	96	2
NMTAP	44	96	3
NMTAP	44	240	0
NMTAP	44	288	1
NMSTR	44	336	2
NMSCL	44	336	2	96	48	7
NMTAP	45	48	6
NMTAP	45	96	5
NMSTR	45	144	4
NMSCR	45	144	4	96	48	7
NMTAP	45	240	1
NMTAP	45	288	2
NMSTR	45	336	3
NMSCL	45	336	3	96	48	0
NMTAP	46	48	7
NMTAP	46	96	6
NMHLD	46	144	5	144
NMTAP	46	288	4
NMTAP	46	336	4
NMTAP	47	0	3
NMTAP	47	0	6
NMTAP	47	96	1
NMTAP	47	96	4
NMTAP	47	144	1
NMTAP	47	144	4
NMSTR	47	240	2
NMSUR	47	240	2	96	96	7
NMSTR	47	240	3
NMSCR	47	240	3	96	96	6
EXTAP	48	96	0
EXTAP	48	96	1
EXTAP	48	144	0
EXTAP	48	144	1
NMSTR	48	288	2
NMSCL	48	288	2	96	48	7
NMSTR	48	288	7
NMSCL	48	288	7	96	48	4
NMTAP	49	0	2
NMTAP	49	0	7
NMTAP	49	144	0
NMTAP	49	144	5
NMTAP	49	192	0
NMTAP	49	192	5
NMHLD	49	288	1	96
NMHLD	50	0	3	96
NMTAP	50	96	4
NMHLD	50	144	4	96
NMTAP	50	240	6
NMTAP	50	288	6
NMSTR	50	336	0
NMSI_	50	336	0	96	48	4
NMTAP	51	96	5
NMSTR	51	144	6
NMSCL	51	144	6	96	48	3
NMTAP	51	288	1
NMHLD	51	336	0	96
NMTAP	52	48	3
NMSTR	52	96	3
NMSI_	52	96	3	96	48	7
NMTAP	52	288	0
NMHLD	53	0	1	96
NMHLD	53	0	3	96
NMHLD	53	144	0	432
NMTAP	53	288	4
NMTAP	54	0	4
NMTAP	54	96	3
NMTAP	54	192	4
NMTAP	54	288	3
NMTAP	54	288	5
NMHLD	55	0	4	96
NMHLD	55	0	6	96
NMHLD	55	144	7	144
NMTAP	55	288	4
NMTAP	55	336	4
NMTAP	56	48	2
NMTAP	56	48	5
NMSTR	56	96	2
NMSXR	56	96	2	96	480	4
NMSTR	56	96	5
NMSXL	56	96	5	96	480	3
NMTTP	58	288	2	B	0	M1
NMTTP	58	288	5	B	0	M1
NMTTP	59	0	0	C	1	M1
EXTAP	59	192	0
EXTAP	59	192	7
EXTAP	59	240	0
EXTAP	59	240	7
NMHLD	59	336	6	96
NMTAP	60	48	7
NMTAP	60	144	1
NMHLD	60	192	1	96
NMSTR	60	288	0
NMSCL	60	288	0	96	96	5
NMSTR	61	0	5
NMSCL	61	0	5	96	96	2
NMSTR	61	96	2
NMSCL	61	96	2	96	96	7
NMTAP	61	192	7
NMTAP	61	288	4
NMHLD	62	0	6	96
NMHLD	62	96	4	96
NMHLD	62	192	3	96
NMSTR	62	288	1
NMSUR	62	288	1	96	96	5
EXTAP	63	192	0
EXTAP	63	192	7
EXTAP	63	240	0
EXTAP	63	240	7
NMHLD	63	336	1	96
NMTAP	64	48	0
NMTAP	64	144	6
NMHLD	64	192	6	96
NMTAP	64	288	7
NMTAP	65	0	5
NMTAP	65	96	4
NMTAP	65	96	6
NMTAP	65	144	4
NMTAP	65	144	6
NMTAP	65	240	2
NMSTR	65	240	4
NMSCR	65	240	4	96	288	3
NMTTP	65	336	0	C	1	M1
EXTAP	66	336	1
EXTAP	66	336	3
NMTAP	67	48	0
NMTAP	67	48	4
NMTAP	67	96	0
NMTAP	67	96	4
NMTAP	67	192	1
NMTAP	67	240	1
NMTAP	67	288	3
NMTAP	67	336	2
NMTAP	68	0	5
NMTAP	68	48	5
NMTAP	68	96	4
NMTAP	68	144	4
NMTAP	68	192	6
NMHLD	68	240	6	96
NMTAP	68	336	4
NMTAP	69	48	3
NMTAP	69	48	7
NMTAP	69	96	3
NMTAP	69	96	7
NMTAP	69	192	5
NMTAP	69	240	5
NMTAP	69	288	4
NMTAP	69	336	6
NMTAP	70	0	2
NMTAP	70	48	2
NMTAP	70	96	3
NMTAP	70	144	3
NMTAP	70	192	1
NMHLD	70	240	1	96
NMTAP	70	336	3
NMTAP	71	48	0
NMTAP	71	48	4
NMTAP	71	96	0
NMTAP	71	96	4
NMHLD	71	192	1	48
NMHLD	71	192	3	48
NMHLD	71	288	4	48
NMHLD	71	288	6	48
NMHLD	72	0	0	48
NMHLD	72	0	2	48
NMHLD	72	96	5	48
NMHLD	72	96	7	48
NMHLD	72	192	1	48
NMHLD	72	192	3	48
NMTAP	72	288	4
NMTAP	72	288	6
NMTAP	73	0	5
NMTAP	73	48	5
NMSTR	73	96	4
NMSCL	73	96	4	96	48	1
NMSTR	73	96	6
NMSI_	73	96	6	96	48	3
NMTAP	73	144	4
NMTAP	73	144	6
NMTAP	73	288	2
NMTAP	73	336	2
NMSTR	74	0	1
NMSI_	74	0	1	96	48	4
NMSTR	74	0	3
NMSCR	74	0	3	96	48	6
NMTAP	74	48	1
NMTAP	74	48	3
EXTAP	74	192	6
EXTAP	74	192	7
EXSTR	74	240	6
NMSCL	74	240	6	96	48	3
EXSTR	74	240	7
NMSV_	74	240	7	96	48	2
NMHLD	75	96	1	96
NMHLD	75	192	3	96
NMTAP	75	288	4
EXHLD	76	0	4	48
EXHLD	76	0	6	48
EXHLD	76	96	1	48
EXHLD	76	96	3	48
EXHLD	76	192	4	48
EXHLD	76	192	6	48
EXHLD	76	288	1	48
EXHLD	76	288	3	48
NMHLD	77	0	4	48
NMHLD	77	0	5	48
NMHLD	77	96	1	96
NMHLD	77	192	3	96
NMSTR	77	288	4
NMSSL	77	288	4	96	96	0
CNSSL	78	96	0	0	144	4
NMHLD	78	336	6	144
NMHLD	79	96	4	96
NMHLD	79	192	3	96
NMHLD	79	288	1	96
NMTAP	80	0	7
NMTAP	80	96	3
NMTAP	80	96	5
NMTAP	80	144	3
NMTAP	80	144	5
NMTAP	80	240	2
NMTAP	80	240	4
NMTAP	80	288	2
NMSTR	80	288	4
NMSUR	80	288	4	96	384	5
CNSCR	82	0	5	0	192	3
NMTAP	83	0	1
NMTAP	83	24	0
NMTAP	83	48	1
NMTAP	83	72	0
NMTAP	83	96	1
NMTAP	83	192	6
NMTAP	83	216	7
NMTAP	83	240	6
NMTAP	83	264	7
NMTAP	83	288	6
NMTAP	84	0	3
NMTAP	84	24	4
NMTAP	84	48	3
NMTAP	84	72	4
NMTAP	84	96	1
NMTAP	84	128	3
NMTAP	84	160	2
NMTAP	84	192	6
NMTAP	84	224	4
NMTAP	84	256	5
NMTAP	84	288	1
NMTAP	84	320	7
NMTAP	84	352	0
EXTAP	85	64	0
EXTAP	85	128	7
EXTAP	85	192	1
EXTAP	85	192	6
EXTAP	85	240	1
EXTAP	85	240	6
NMTAP	85	336	3
NMTAP	85	336	4
NMTTP	86	96	0	C	1	M1
NMTTP	86	96	2	B	0	M1
NMTTP	86	96	5	B	0	M1
NMSTR	86	288	0
NMSCR	86	288	0	96	48	3
NMSTR	86	288	7
NMSCL	86	288	7	96	48	4
BRTAP	87	0	0
BRTAP	87	0	7
NMTAP	87	144	3
NMTAP	87	144	4
NMSTR	87	192	3
NMSXR	87	192	3	96	96	2
NMSTR	87	192	4
NMSXL	87	192	4	96	96	5
NMTAP	88	96	0
NMTAP	88	96	7
NMTAP	88	144	0
NMTAP	88	144	7
NMSTR	88	288	0
NMSCL	88	288	0	96	48	5
NMSTR	88	288	1
NMSCR	88	288	1	96	48	4
NMTAP	89	144	3
NMTAP	89	144	4
NMSTR	89	192	3
NMSI_	89	192	3	96	48	1
NMSTR	89	192	4
NMSI_	89	192	4	96	48	0
NMSTR	89	288	3
NMSI_	89	288	3	96	48	7
NMSTR	89	288	4
NMSI_	89	288	4	96	48	6
NMSTR	90	0	3
NMSI_	90	0	3	96	48	1
NMSTR	90	0	4
NMSI_	90	0	4	96	48	0
NMTAP	90	96	3
NMTAP	90	96	4
NMTAP	90	240	7
NMTAP	90	288	6
NMSTR	90	336	5
NMSCR	90	336	5	96	48	0
NMTAP	91	48	1
NMTAP	91	96	2
NMSTR	91	144	3
NMSCL	91	144	3	96	48	0
NMTAP	91	240	6
NMTAP	91	288	5
NMSTR	91	336	4
NMSCR	91	336	4	96	48	7
NMTAP	92	48	0
NMTAP	92	96	1
NMHLD	92	144	2	144
NMTAP	92	288	3
NMTAP	92	336	3
NMTAP	93	0	1
NMTAP	93	0	4
NMTAP	93	96	3
NMTAP	93	96	6
NMTAP	93	144	3
NMTAP	93	144	6
NMSTR	93	240	4
NMSI_	93	240	4	96	24	0
NMSTR	93	240	5
NMSLR	93	240	5	96	72	3
CNSI_	93	360	0	0	48	2
EXTAP	94	96	0
EXTAP	94	96	1
EXTAP	94	144	0
EXTAP	94	144	1
EXTAP	94	288	0
EXSTR	94	288	7
NMSF_	94	288	7	96	48	3
BRTAP	95	0	7
NMTAP	95	144	2
NMTAP	95	144	4
NMTAP	95	192	2
NMSTR	95	192	4
NMSCR	95	192	4	96	96	0
NMSTR	95	288	0
NMSCR	95	288	0	96	96	4
NMTAP	96	0	4
NMTAP	96	96	0
NMTAP	96	144	0
EXTAP	96	240	1
EXTAP	96	240	7
EXTAP	96	288	2
EXTAP	96	288	6
EXTAP	96	336	3
EXTAP	96	336	5
EXSTR	97	96	4
NMSI_	97	96	4	96	48	1
EXSTR	97	96	5
NMSI_	97	96	5	96	48	0
EXTAP	97	144	4
EXTAP	97	144	5
EXTAP	97	288	2
EXTAP	97	288	3
EXTAP	97	336	2
EXTAP	97	336	3
NMTAP	98	48	1
NMTAP	98	48	4
NMTAP	98	96	1
NMTAP	98	96	4
NMTAP	98	288	3
NMTAP	98	288	6
NMSTR	99	0	4
NMSCR	99	0	4	96	288	2
NMTAP	99	0	5
NMHLD	99	144	7	528
NMTAP	100	288	4
NMTAP	101	0	2
NMSTR	101	0	3
NMSCL	101	0	3	96	288	5
NMTAP	101	144	0
NMHLD	101	192	0	480
NMTAP	102	288	4
NMHLD	103	0	2	96
NMHLD	103	0	6	96
NMTAP	103	144	5
NMTAP	103	168	4
NMTAP	103	192	3
NMHLD	103	288	1	96
NMHLD	104	0	3	96
NMHLD	104	96	4	96
NMHLD	104	192	6	96
NMHLD	104	288	0	384
NMHLD	105	0	5	288
NMHLD	105	336	6	432
NMHLD	105	336	7	432
BRTAP	107	144	1
BRTAP	107	192	2
BRTAP	107	240	3
BRSTR	107	288	4
NMSUL	107	288	4	96	288	2
BRTAP	107	336	5
BRTAP	108	0	6
CNSCL	108	288	2	0	192	5
NMTAP	109	288	2
NMTAP	109	288	6
NMHLD	110	0	1	96
NMTAP	110	96	7
NMTAP	110	144	7
NMTAP	110	192	0
NMTAP	110	192	6
NMTAP	110	240	0
NMTAP	110	240	6
NMTAP	110	336	1
NMTAP	110	336	4
NMTAP	111	48	3
NMTAP	111	48	6
NMTAP	111	144	1
NMTAP	111	144	4
NMTAP	111	192	1
NMTAP	111	192	4
NMSTR	111	288	2
NMSI_	111	288	2	96	48	7
NMSTR	111	288	5
NMSI_	111	288	5	96	48	0
BRTAP	112	0	2
BRTAP	112	0	5
NMTAP	112	144	0
NMTAP	112	144	7
NMTAP	112	192	0
NMTAP	112	192	7
NMTAP	112	240	1
NMTAP	112	240	6
NMHLD	112	336	5	96
NMTAP	113	48	4
NMTAP	113	144	2
NMHLD	113	192	2	96
NMTAP	113	288	3
NMTAP	114	0	0
NMTAP	114	0	1
NMTAP	114	96	6
NMTAP	114	96	7
NMTAP	114	144	6
NMTAP	114	144	7
NMSTR	114	240	4
NMSUR	114	240	4	96	336	3
NMSTR	114	240	5
NMSCR	114	240	5	96	336	2
BRTAP	114	336	4
BRTAP	114	336	5
BRTAP	116	0	0
BRTAP	116	0	7

T_REC_TAP	412
T_REC_BRK	23
T_REC_XTP	57
T_REC_BXX	0
T_REC_HLD	81
T_REC_XHO	8
T_REC_BHO	0
T_REC_BXH	0
T_REC_STR	70
T_REC_BST	1
T_REC_XST	5
T_REC_XBS	0
T_REC_TTP	14
T_REC_THO	0
T_REC_SLD	77
T_REC_BSL	0
T_REC_ALL	748
T_NUM_TAP	558
T_NUM_BRK	24
T_NUM_HLD	89
T_NUM_SLD	77
T_NUM_ALL	748
T_JUDGE_TAP	582
T_JUDGE_HLD	223
T_JUDGE_SLD	77
T_JUDGE_ALL	882
TTM_EACHPAIRS	172
TTM_SCR_TAP	279000
TTM_SCR_BRK	62400
TTM_SCR_HLD	89000
TTM_SCR_SLD	115500
TTM_SCR_ALL	545900
TTM_SCR_S	527200
TTM_SCR_SS	543500
TTM_RAT_ACV	10044

