VERSION	0.00.00	1.04.00
FES_MODE	1
BPM_DEF	160.000	160.000	160.000	160.000
MET_DEF	4	4
RESOLUTION	384
CLK_DEF	384
COMPATIBLE_CODE	MA2

BPM	0	0	160.000
MET	0	0	4	4

NMTTP	1	0	1	E	0	M1
NMTTP	1	96	2	E	0	M1
NMTTP	1	192	3	E	0	M1
NMTTP	1	288	1	B	1	M1
NMSTR	2	0	0
NMSCR	2	0	0	96	96	4
NMTAP	2	192	0
NMTAP	2	288	0
NMSTR	3	0	0
NMSCR	3	0	0	96	96	4
NMTAP	3	192	0
NMSTR	3	288	0
NMSXL	3	288	0	96	288	3
NMSTR	5	0	0
NMSCR	5	0	0	96	96	4
NMTAP	5	192	0
NMTAP	5	288	0
NMSTR	6	0	0
NMSCR	6	0	0	96	96	4
NMTAP	6	192	0
NMTAP	6	288	0
NMSTR	7	0	0
NMSCR	7	0	0	96	96	4
NMTAP	7	192	0
NMSTR	7	288	0
NMSXL	7	288	0	96	288	4
NMTAP	9	0	7
NMTAP	9	96	0
NMTAP	9	192	0
NMTAP	10	0	2
NMSTR	10	0	3
NMSCR	10	0	3	96	48	6
NMSUR	10	0	3	96	48	0
NMSTR	10	192	4
NMSCL	10	192	4	96	48	1
NMSUL	10	192	4	96	48	7
NMTAP	10	192	5
NMSTR	11	0	4
NMSXR	11	0	4	96	48	2
NMSTR	11	0	6
NMSI_	11	0	6	96	48	4
NMSTR	11	192	4
NMSXR	11	192	4	96	48	2
NMSTR	11	192	6
NMSI_	11	192	6	96	48	4
EXTAP	12	0	2
EXTAP	12	0	7
NMTAP	12	48	1
NMTAP	12	72	0
NMTAP	12	96	1
NMTAP	12	144	2
NMTAP	12	144	3
NMTAP	12	192	0
NMTAP	12	192	5
NMTAP	12	240	6
NMTAP	12	264	7
NMTAP	12	288	6
NMTAP	12	336	4
NMTAP	12	336	5
NMSTR	13	0	2
NMSCR	13	0	2	96	48	5
NMTAP	13	0	7
NMTAP	13	48	1
NMTAP	13	48	6
NMTAP	13	96	2
NMTAP	13	96	7
NMTAP	13	192	0
EXSTR	13	192	5
NMSCL	13	192	5	96	48	2
NMTAP	13	240	1
NMTAP	13	240	6
NMTAP	13	288	0
NMTAP	13	288	5
NMTAP	14	0	0
NMTAP	14	48	3
NMTAP	14	96	1
NMTAP	14	120	0
NMTAP	14	144	2
NMTAP	14	168	3
NMTAP	14	192	1
NMTAP	14	216	0
NMTAP	14	240	2
NMTAP	14	264	3
NMTAP	14	288	7
NMTAP	14	336	0
NMTAP	14	336	6
NMTAP	15	0	1
NMTAP	15	24	0
NMTAP	15	48	7
NMTAP	15	72	6
NMSTR	15	96	5
NMSI_	15	96	5	96	48	0
NMSTR	15	144	0
NMSI_	15	144	0	96	48	5
NMSTR	16	0	1
NMSI_	16	0	1	96	48	4
NMTAP	16	0	2
NMTAP	16	48	1
NMTAP	16	96	0
NMTAP	16	96	1
NMTAP	16	192	5
NMSTR	16	192	6
NMSI_	16	192	6	96	48	3
NMTAP	16	240	6
NMTAP	16	288	6
NMTAP	16	288	7
NMSTR	17	0	0
NMSI_	17	0	0	96	48	5
NMTAP	17	0	6
NMTAP	17	48	1
NMSTR	17	96	0
NMSI_	17	96	0	96	48	3
NMTAP	17	96	2
NMTAP	17	144	1
NMSTR	17	192	0
BRSI_	17	192	0	96	48	4
NMTAP	17	192	6
NMTAP	17	240	7
NMTAP	17	288	0
EXSTR	18	0	3
NMSCL	18	0	3	96	48	0
EXSTR	18	0	7
NMSCL	18	0	7	96	48	4
EXSTR	18	96	3
NMSUR	18	96	3	96	48	7
EXSTR	18	96	7
NMSUR	18	96	7	96	48	3
EXSTR	18	192	3
NMSCL	18	192	3	96	48	0
EXSTR	18	192	7
NMSCL	18	192	7	96	48	4
EXSTR	18	288	3
NMSUR	18	288	3	96	48	7
EXSTR	18	288	7
NMSUR	18	288	7	96	48	3
EXSTR	19	0	3
NMSCL	19	0	3	96	48	0
EXSTR	19	0	7
NMSCL	19	0	7	96	48	4
EXSTR	19	96	3
NMSUR	19	96	3	96	48	7
EXSTR	19	96	7
NMSUR	19	96	7	96	48	3
NMSTR	19	192	3
NMSCL	19	192	3	96	48	0
EXSTR	19	192	7
NMSCL	19	192	7	96	48	4
BXTAP	19	288	3
BXTAP	19	288	7
NMSTR	20	0	0
NMSCR	20	0	0	96	48	3
NMTAP	20	0	6
NMTAP	20	96	7
NMTAP	20	144	0
NMSTR	20	192	1
NMSCL	20	192	1	96	48	6
NMTAP	20	192	3
NMTAP	20	288	2
NMTAP	20	336	1
NMTAP	21	0	5
NMSTR	21	0	7
NMSCR	21	0	7	96	48	2
NMTAP	21	96	6
NMTAP	21	144	7
NMSTR	21	192	0
NMSI_	21	192	0	96	48	4
NMTAP	21	192	2
EXTAP	22	0	3
EXTAP	22	0	5
NMTAP	22	24	3
NMTAP	22	48	6
NMHLD	22	96	1	48
NMTAP	22	96	4
NMTAP	22	144	6
NMTAP	22	192	3
NMTAP	22	192	5
NMTAP	22	216	3
NMTAP	22	240	6
NMHLD	22	288	0	48
NMTAP	22	288	4
NMTAP	22	336	6
NMTAP	23	0	3
NMTAP	23	0	5
NMTAP	23	24	3
NMTAP	23	48	6
NMHLD	23	96	1	48
NMTAP	23	96	4
NMTAP	23	144	5
NMSTR	23	192	0
NMSI_	23	192	0	96	48	5
NMTAP	23	192	6
NMTAP	23	240	1
NMTAP	23	240	5
NMTAP	23	288	0
NMTAP	23	288	6
NMTAP	24	0	4
NMTAP	24	48	4
NMTAP	24	72	3
NMTAP	24	96	2
NMHLD	24	192	1	48
NMHLD	24	192	3	48
NMHLD	24	288	1	48
NMHLD	24	288	3	48
NMTAP	25	0	4
NMTAP	25	48	4
NMTAP	25	72	3
NMTAP	25	96	2
NMHLD	25	192	1	48
NMHLD	25	192	3	48
NMHLD	25	288	1	48
NMHLD	25	288	3	48
NMTAP	26	0	4
NMTAP	26	48	4
NMTAP	26	72	3
NMTAP	26	96	2
NMHLD	26	192	1	48
NMHLD	26	192	3	48
NMHLD	26	288	1	48
NMHLD	26	288	3	48
NMTAP	27	0	4
NMTAP	27	48	4
NMTAP	27	72	3
NMTAP	27	96	2
NMHLD	27	192	2	48
NMHLD	27	192	3	48
NMHLD	27	288	2	48
NMHLD	27	288	3	48
NMTAP	28	0	4
NMTAP	28	48	4
NMTAP	28	72	3
NMTAP	28	96	2
NMHLD	28	192	1	48
NMHLD	28	192	3	48
NMHLD	28	288	1	48
NMHLD	28	288	3	48
NMTAP	29	0	4
NMTAP	29	48	4
NMTAP	29	72	3
NMTAP	29	96	2
NMHLD	29	192	1	48
NMHLD	29	192	3	48
NMHLD	29	288	1	48
NMHLD	29	288	3	48
NMTAP	30	0	4
NMTAP	30	48	4
NMTAP	30	72	3
NMTAP	30	96	2
NMHLD	30	192	1	48
NMHLD	30	192	3	48
NMHLD	30	288	1	48
NMHLD	30	288	3	48
NMSTR	31	0	2
NMSCR	31	0	2	96	48	5
NMTAP	31	240	0
NMTAP	31	240	7
NMSTR	31	288	1
NMSI_	31	288	1	96	48	3
NMTAP	31	288	6
NMTAP	31	336	4
NMTAP	32	0	1
NMSTR	32	0	6
NMSI_	32	0	6	96	48	2
NMTAP	32	48	5
NMSTR	32	96	1
NMSI_	32	96	1	96	48	5
NMTAP	32	96	6
NMTAP	32	144	0
NMTAP	32	192	1
NMSTR	32	192	6
NMSI_	32	192	6	96	48	4
NMTAP	32	240	7
NMSTR	32	288	1
NMSI_	32	288	1	96	48	5
NMTAP	32	288	6
NMTAP	32	336	3
NMTAP	33	0	1
NMTAP	33	0	6
NMTAP	33	48	0
NMTAP	33	96	2
NMTAP	33	144	3
NMTAP	33	144	4
NMTAP	33	192	2
NMTAP	33	192	5
NMTAP	33	240	0
NMTAP	33	240	7
NMSTR	33	288	1
NMSI_	33	288	1	96	48	4
NMSTR	33	288	6
NMSI_	33	288	6	96	48	3
NMSTR	34	0	1
NMSI_	34	0	1	96	48	7
NMTAP	34	0	6
NMSTR	34	96	1
NMSI_	34	96	1	96	48	3
NMSTR	34	144	5
NMSI_	34	144	5	96	48	1
NMTAP	34	192	1
NMTAP	34	240	5
NMSTR	34	288	0
NMSI_	34	288	0	96	48	4
NMSTR	34	336	4
NMSI_	34	336	4	96	48	0
NMSTR	35	0	0
NMSF_	35	0	0	96	48	4
NMTAP	35	192	2
NMTAP	35	192	6
NMTAP	35	288	1
NMTAP	35	288	5
NMSTR	36	0	0
NMSI_	36	0	0	96	48	3
NMTTP	36	8	0	E	0	M1
NMTTP	36	16	7	B	0	M1
NMTTP	36	24	6	B	0	M1
NMTTP	36	32	6	E	0	M1
NMTAP	36	48	4
NMTAP	36	96	0
NMTAP	36	144	4
NMSTR	36	192	1
NMSI_	36	192	1	96	48	4
NMTTP	36	200	1	E	0	M1
NMTTP	36	208	0	B	0	M1
NMTTP	36	216	7	B	0	M1
NMTTP	36	224	7	E	0	M1
NMTAP	36	240	5
NMTAP	36	288	1
NMTAP	36	336	5
NMSTR	37	0	2
NMSI_	37	0	2	96	48	5
NMTTP	37	8	2	E	0	M1
NMTTP	37	16	1	B	0	M1
NMTTP	37	24	0	B	0	M1
NMTTP	37	32	0	E	0	M1
NMTAP	37	48	6
NMTAP	37	96	2
NMTAP	37	144	6
NMTAP	37	192	7
NMTAP	37	240	0
NMTAP	37	288	1
BRTAP	37	288	5
NMSTR	38	0	0
NMSI_	38	0	0	96	48	4
NMTAP	38	0	5
NMTAP	38	24	1
NMTAP	38	24	6
NMTAP	38	48	2
NMTAP	38	48	7
NMTAP	38	96	1
NMTAP	38	144	1
NMSTR	38	192	0
NMSI_	38	192	0	96	48	4
NMTAP	38	192	5
NMTAP	38	216	1
NMTAP	38	216	6
NMTAP	38	240	2
NMTAP	38	240	7
NMSTR	38	288	1
NMSLR	38	288	1	96	96	0
NMTAP	38	336	1
NMSTR	39	0	0
NMSI_	39	0	0	96	48	4
NMSTR	39	48	4
NMSCR	39	48	4	96	48	7
NMSTR	39	96	7
NMSCR	39	96	7	96	48	2
NMTAP	39	144	3
NMTAP	39	192	3
BXTAP	39	288	3
BXTAP	39	288	5
NMTAP	40	0	0
NMTAP	40	24	3
NMTAP	40	48	2
NMTAP	40	72	7
NMTAP	40	96	4
NMTAP	40	120	5
NMTAP	40	144	0
NMTAP	40	168	6
NMSTR	40	192	2
NMSI_	40	192	2	96	48	0
NMTAP	40	216	4
NMSTR	40	240	0
NMSI_	40	240	0	96	48	4
NMTAP	40	264	7
NMTAP	40	288	2
NMTAP	41	0	7
NMTAP	41	24	6
NMTAP	41	48	5
NMTAP	41	72	3
NMTAP	41	72	4
NMTAP	41	96	2
NMTAP	41	120	1
NMTAP	41	144	0
NMTAP	41	144	4
NMTAP	41	168	5
NMTAP	41	192	6
NMTAP	41	216	0
NMTAP	41	216	7
NMTAP	41	240	1
NMTAP	41	264	2
BRTAP	41	288	3
BRTAP	41	288	6
NMSTR	42	0	4
NMSI_	42	0	4	96	48	6
NMTAP	42	0	5
NMTAP	42	24	3
NMTAP	42	48	2
NMTAP	42	72	1
NMSTR	42	96	0
NMSI_	42	96	0	96	48	4
BRTAP	42	96	4
NMTAP	42	192	0
NMTAP	42	192	4
NMTAP	42	240	5
NMTAP	42	264	6
NMTAP	42	288	3
NMTAP	42	288	7
NMTAP	42	336	2
NMTAP	43	0	0
NMSTR	43	0	1
NMSUR	43	0	1	96	48	5
NMTAP	43	48	7
NMTAP	43	96	1
NMSTR	43	96	6
NMSUL	43	96	6	96	48	2
NMTAP	43	144	7
NMSTR	43	192	0
NMSI_	43	192	0	96	48	4
NMTAP	43	192	6
NMTAP	43	240	1
NMTAP	43	288	0
NMTAP	43	288	5
NMSTR	44	0	1
NMSI_	44	0	1	96	48	6
NMTAP	44	24	4
NMTAP	44	48	3
NMTAP	44	72	7
NMTAP	44	96	1
NMTAP	44	144	5
NMTAP	44	168	5
NMTAP	44	192	7
NMTAP	44	216	4
NMTAP	44	240	0
NMTAP	44	264	3
NMTAP	44	288	1
NMTAP	44	312	2
NMTAP	44	336	0
NMTAP	44	360	7
NMTAP	45	0	5
NMTAP	45	24	6
NMTAP	45	48	3
NMTAP	45	72	4
NMTAP	45	96	1
NMTAP	45	120	0
NMTAP	45	144	2
NMTAP	45	168	3
NMTAP	45	192	0
NMTAP	45	216	7
NMTAP	45	240	3
NMTAP	45	264	4
NMTAP	45	288	7
NMTAP	45	312	6
NMTAP	45	336	4
NMTAP	45	360	5
NMSTR	46	0	3
NMSCL	46	0	3	96	48	0
NMSTR	46	0	6
NMSCL	46	0	6	96	48	3
NMTAP	46	96	3
NMTAP	46	96	6
NMTAP	46	192	6
NMTAP	46	192	7
NMTAP	46	240	3
NMTAP	46	240	4
NMTAP	46	288	0
NMTAP	46	288	1
NMTAP	46	336	3
NMTAP	46	336	4
NMSTR	47	0	2
NMSCL	47	0	2	96	48	7
NMTAP	47	0	5
NMTAP	47	48	3
NMTAP	47	96	2
NMSTR	47	96	5
BRSI_	47	96	5	96	48	1
NMTAP	47	144	4
NMSTR	47	192	0
NMSI_	47	192	0	96	48	4
NMTAP	47	192	5
CNSI_	47	240	1	0	48	6
BXTAP	47	288	0
CNSI_	47	288	6	0	48	3
NMSTR	48	0	0
NMSI_	48	0	0	96	48	4
NMTAP	48	48	7
NMSTR	48	96	0
NMSCR	48	96	0	96	48	3
NMTAP	48	144	6
NMTAP	48	192	0
NMTAP	48	288	1
NMTAP	48	288	5
NMTAP	48	312	2
NMTAP	48	312	6
NMTAP	48	336	3
NMTAP	48	336	7
NMTAP	48	360	0
NMTAP	48	360	4
NMSTR	49	0	1
NMSI_	49	0	1	96	48	6
NMSTR	49	0	5
NMSI_	49	0	5	96	48	2
NMSTR	49	96	1
NMSCL	49	96	1	96	96	3
NMTAP	49	96	5
NMTAP	49	192	1
NMTAP	49	192	5
NMTTP	49	288	0	C	1	M1
NMTAP	50	48	2
NMTAP	50	96	2
NMTAP	50	144	3
NMHLD	50	192	1	96
NMTAP	50	288	3
NMTAP	50	336	4
NMHLD	51	0	2	48
NMHLD	51	0	4	48
NMHLD	51	96	1	48
NMHLD	51	96	3	48
NMHLD	51	192	0	48
NMHLD	51	192	2	48
NMSTR	51	288	7
NMSCR	51	288	7	96	288	4
NMHLD	51	336	7	432
NMTAP	53	192	0
NMTAP	53	192	1
NMTAP	53	288	1
NMTAP	53	288	3
NMTAP	53	336	1
NMTAP	53	336	3
NMTAP	54	48	2
NMTAP	54	96	2
NMTAP	54	144	3
NMHLD	54	192	1	96
NMTAP	54	288	3
NMTAP	54	336	4
NMHLD	55	0	2	48
NMHLD	55	0	4	48
NMHLD	55	96	1	48
NMHLD	55	96	3	48
NMHLD	55	192	0	48
NMHLD	55	192	2	48
NMSTR	55	288	7
NMSI_	55	288	7	96	96	4
NMHLD	55	336	7	432
CNSI_	56	96	4	0	96	0
CNSI_	56	192	0	0	96	3
CNSI_	56	288	3	0	96	1
NMSTR	58	0	6
NMSCL	58	0	6	96	48	4
NMTAP	58	48	1
NMSTR	58	96	6
NMSI_	58	96	6	96	48	2
NMTAP	58	144	3
NMTAP	58	192	6
NMTAP	58	240	1
NMTAP	58	264	0
NMTAP	58	288	1
NMTAP	58	312	0
NMSTR	58	336	1
NMSI_	58	336	1	96	48	4
EXTAP	59	48	1
EXTAP	59	48	4
NMTAP	59	64	5
NMTAP	59	80	6
NMTAP	59	96	7
EXSTR	59	144	0
NMSCR	59	144	0	96	48	3
EXTAP	59	144	3
NMTAP	59	160	7
NMTAP	59	176	6
NMTAP	59	192	5
EXTAP	59	240	0
NMTAP	59	240	4
NMTAP	59	256	5
NMTAP	59	272	6
NMTAP	59	288	7
NMSTR	60	0	7
NMSI_	60	0	7	96	48	2
NMSTR	60	48	2
NMSLL	60	48	2	96	48	6
NMTAP	60	96	7
NMTAP	60	144	4
NMSTR	60	192	4
NMSI_	60	192	4	96	48	1
NMSI_	60	192	4	96	48	7
NMTAP	60	288	4
NMTAP	61	0	0
NMTAP	61	12	1
NMTAP	61	24	2
NMTAP	61	48	5
NMTAP	61	72	5
NMTAP	61	96	7
NMTAP	61	108	0
NMTAP	61	120	1
NMTAP	61	144	4
NMTAP	61	168	4
NMTAP	61	192	6
NMTAP	61	204	7
NMTAP	61	216	0
NMTAP	61	228	1
NMTAP	61	240	2
NMTAP	61	252	3
BXTAP	61	288	4
BXTAP	61	288	6
NMHLD	62	0	2	48
NMTTP	62	0	7	E	0	M1
NMHLD	62	72	1	48
NMTTP	62	72	6	E	0	M1
NMTAP	62	144	0
NMTTP	62	144	4	B	0	M1
NMTAP	62	192	0
NMTTP	62	192	4	E	0	M1
NMTAP	62	240	0
NMTTP	62	240	3	B	0	M1
NMTTP	62	288	1	E	0	M1
NMHLD	62	288	5	48
NMTTP	62	360	2	E	0	M1
NMHLD	62	360	6	48
NMTTP	63	48	3	B	0	M1
NMTAP	63	48	7
NMTTP	63	96	4	E	0	M1
NMTAP	63	96	7
NMTTP	63	144	4	B	0	M1
NMTAP	63	144	7
NMTAP	63	192	1
NMTAP	63	192	6
NMTAP	63	240	2
NMTAP	63	240	5
NMTAP	63	288	0
NMTTP	63	288	0	C	1	M1
NMTAP	64	0	2
NMTAP	64	24	3
NMTAP	64	48	2
NMTAP	64	72	3
NMTAP	64	96	1
NMTAP	64	120	4
NMTAP	64	144	1
NMTAP	64	168	4
NMTAP	64	192	0
NMTAP	64	216	5
NMTAP	64	240	0
NMTAP	64	264	5
NMTAP	64	288	7
NMTAP	64	312	6
NMTAP	64	336	7
NMTAP	64	360	6
NMTAP	65	0	0
NMTAP	65	24	1
NMTAP	65	48	2
NMTAP	65	72	3
NMTAP	65	96	4
NMTAP	65	96	7
NMTAP	65	120	6
NMTAP	65	144	5
NMTAP	65	168	4
BRTAP	65	192	0
NMTAP	65	192	3
NMTAP	65	204	1
NMTAP	65	216	2
NMTAP	65	228	3
NMTAP	65	240	4
NMTAP	65	252	5
NMTAP	65	264	6
NMTAP	65	276	7
NMTAP	65	288	0
BRTAP	65	288	4
NMTAP	66	0	1
NMTAP	66	0	5
NMTAP	66	24	2
NMTAP	66	24	6
NMTAP	66	48	3
NMTAP	66	48	7
NMTAP	66	72	0
NMTAP	66	72	4
NMTAP	66	96	5
NMTAP	66	120	6
NMTAP	66	144	7
NMTAP	66	168	0
NMTAP	66	192	1
NMTAP	66	192	5
NMTAP	66	216	2
NMTAP	66	216	6
NMTAP	66	240	3
NMTAP	66	240	7
NMTAP	66	264	0
NMTAP	66	264	4
NMTAP	66	288	5
NMTAP	66	312	6
NMTAP	66	336	7
NMTAP	66	360	0
NMTAP	67	0	1
NMTAP	67	0	5
NMTAP	67	24	2
NMTAP	67	24	6
NMTAP	67	48	3
NMTAP	67	48	7
NMTAP	67	72	0
NMTAP	67	72	4
NMTAP	67	96	5
NMTAP	67	120	6
NMTAP	67	144	7
NMTAP	67	168	0
NMTAP	67	192	1
NMTAP	67	192	5
NMTAP	67	216	2
NMTAP	67	216	6
NMTAP	67	240	3
NMTAP	67	240	7
NMTAP	67	264	0
NMTAP	67	264	4
BRTAP	67	288	1
BRTAP	67	288	5
EXSTR	68	0	0
NMSI_	68	0	0	96	48	2
EXSTR	68	48	0
NMSI_	68	48	0	96	48	4
EXSTR	68	96	0
NMSI_	68	96	0	96	48	3
EXSTR	68	144	0
NMSI_	68	144	0	96	48	5
EXSTR	68	192	0
NMSI_	68	192	0	96	48	4
EXSTR	68	240	0
NMSI_	68	240	0	96	48	6
EXSTR	68	288	0
NMSI_	68	288	0	96	48	3
EXSTR	68	336	0
NMSI_	68	336	0	96	48	5
EXSTR	69	0	0
NMSI_	69	0	0	96	48	2
EXSTR	69	48	0
NMSI_	69	48	0	96	48	4
EXSTR	69	96	0
NMSI_	69	96	0	96	48	3
EXTAP	69	144	0
EXTAP	69	192	0
NMTAP	69	288	0
NMTAP	69	288	6
NMSTR	70	0	1
NMSI_	70	0	1	96	48	4
NMTAP	70	0	7
NMTAP	70	48	0
NMTAP	70	96	1
NMSTR	70	96	6
NMSI_	70	96	6	96	48	2
NMTAP	70	144	7
NMSTR	70	192	1
NMSCR	70	192	1	96	48	4
NMTAP	70	192	6
NMTAP	70	240	0
NMTAP	70	264	0
NMTAP	70	288	1
NMSTR	70	288	7
NMSI_	70	288	7	96	48	3
NMTAP	70	336	6
NMSTR	71	0	1
NMSI_	71	0	1	96	48	6
NMTAP	71	0	7
NMTAP	71	48	0
NMTAP	71	72	0
NMSTR	71	96	1
NMSCR	71	96	1	96	48	4
NMSTR	71	96	5
NMSCR	71	96	5	96	48	0
NMTAP	71	144	4
NMTAP	71	192	1
NMTAP	71	192	5
NMTAP	71	288	2
NMTAP	71	288	6
NMSTR	72	0	0
NMSUL	72	0	0	96	48	4
NMSTR	72	0	4
NMSUL	72	0	4	96	48	0
NMTAP	72	24	1
NMTAP	72	24	5
NMTAP	72	48	2
NMTAP	72	48	6
NMTAP	72	72	3
NMTAP	72	72	7
BRSTR	72	96	0
NMSCR	72	96	0	96	48	3
BRSTR	72	96	4
NMSCR	72	96	4	96	48	7
NMTAP	72	192	0
NMTAP	72	192	4
NMTAP	72	288	0
NMTAP	72	312	1
NMSTR	72	336	7
NMSCL	72	336	7	96	48	4
NMSCR	72	336	7	96	48	2
NMTAP	72	360	2
NMTAP	73	0	6
EXSTR	73	48	7
NMSF_	73	48	7	96	48	3
NMTAP	73	144	7
NMTAP	73	240	7
NMTAP	73	264	6
NMSTR	73	288	0
NMSCL	73	288	0	96	48	5
NMSCR	73	288	0	96	48	3
NMTAP	73	312	5
NMTAP	73	336	1
EXSTR	74	0	0
NMSF_	74	0	0	96	48	4
NMTAP	74	96	0
EXTAP	74	192	2
EXTAP	74	192	4
NMHLD	74	240	0	96
NMSTR	74	240	6
NMSCR	74	240	6	96	192	4
NMTAP	75	0	5
NMTAP	75	48	6
NMTAP	75	96	7
NMTAP	75	144	0
NMTAP	75	192	1
BRTAP	75	288	2
BRTAP	75	288	4
NMTAP	76	0	1
NMTAP	76	0	5
NMTAP	76	12	2
NMTAP	76	24	3
NMTAP	76	36	4
NMTAP	76	48	5
NMTAP	76	60	6
NMTAP	76	72	7
NMTAP	76	84	0
NMHLD	76	96	1	96
NMTAP	76	96	5
NMTAP	76	108	4
NMTAP	76	120	3
NMTAP	76	132	2
NMTAP	76	156	0
NMTAP	76	168	7
NMTAP	76	180	6
NMHLD	76	192	5	96
NMTAP	76	204	2
NMTAP	76	216	3
NMTAP	76	228	4
NMTAP	76	252	6
NMTAP	76	264	7
NMTAP	76	276	0
NMHLD	76	288	1	96
NMTAP	76	300	4
NMTAP	76	312	3
NMTAP	76	324	2
NMTAP	76	348	0
NMTAP	76	360	7
NMTAP	76	372	6
NMHLD	77	0	5	96
NMTAP	77	12	2
NMTAP	77	24	3
NMTAP	77	36	4
NMTAP	77	60	6
NMTAP	77	72	7
NMTAP	77	84	0
NMHLD	77	96	1	96
NMTAP	77	108	4
NMTAP	77	120	3
NMTAP	77	132	2
NMTAP	77	156	0
NMTAP	77	168	7
NMTAP	77	180	6
NMTAP	77	192	5
NMTAP	77	204	2
NMTAP	77	216	3
NMTAP	77	228	4
NMTAP	77	240	5
NMTAP	77	252	6
NMTAP	77	264	7
NMTAP	77	276	0
BRTAP	77	288	1
BRTAP	77	288	5
NMTAP	78	0	2
NMTAP	78	0	6
NMTAP	78	12	5
NMTAP	78	24	4
NMTAP	78	36	3
NMTAP	78	48	2
NMTAP	78	60	1
NMTAP	78	72	0
NMTAP	78	84	7
NMTAP	78	96	2
NMHLD	78	96	6	96
NMTAP	78	108	3
NMTAP	78	120	4
NMTAP	78	132	5
NMTAP	78	156	7
NMTAP	78	168	0
NMTAP	78	180	1
NMHLD	78	192	2	96
NMTAP	78	204	5
NMTAP	78	216	4
NMTAP	78	228	3
NMTAP	78	252	1
NMTAP	78	264	0
NMTAP	78	276	7
NMHLD	78	288	6	96
NMTAP	78	300	3
NMTAP	78	312	4
NMTAP	78	324	5
NMTAP	78	348	7
NMTAP	78	360	0
NMTAP	78	372	1
NMHLD	79	0	2	96
NMTAP	79	12	5
NMTAP	79	24	4
NMTAP	79	36	3
NMTAP	79	60	1
NMTAP	79	72	0
NMTAP	79	84	7
NMTAP	79	96	6
NMTAP	79	108	3
NMTAP	79	120	4
NMTAP	79	132	5
NMTAP	79	144	6
NMTAP	79	156	7
NMTAP	79	168	0
NMTAP	79	180	1
NMSTR	79	192	2
NMSI_	79	192	2	96	48	5
NMSTR	79	192	6
NMSI_	79	192	6	96	48	1
BXTAP	79	288	2
BXTAP	79	288	6

T_REC_TAP	559
T_REC_BRK	12
T_REC_XTP	12
T_REC_BXX	9
T_REC_HLD	61
T_REC_XHO	0
T_REC_BHO	0
T_REC_BXH	0
T_REC_STR	90
T_REC_BST	2
T_REC_XST	28
T_REC_XBS	0
T_REC_TTP	28
T_REC_THO	0
T_REC_SLD	123
T_REC_BSL	2
T_REC_ALL	926
T_NUM_TAP	717
T_NUM_BRK	25
T_NUM_HLD	61
T_NUM_SLD	123
T_NUM_ALL	926
T_JUDGE_TAP	740
T_JUDGE_HLD	89
T_JUDGE_SLD	125
T_JUDGE_ALL	954
TTM_EACHPAIRS	167
TTM_SCR_TAP	358500
TTM_SCR_BRK	65000
TTM_SCR_HLD	61000
TTM_SCR_SLD	184500
TTM_SCR_ALL	669000
TTM_SCR_S	646550
TTM_SCR_SS	666500
TTM_RAT_ACV	10037

