VERSION	0.00.00	1.04.00
FES_MODE	0
BPM_DEF	185.000	185.000	185.000	185.000
MET_DEF	4	4
RESOLUTION	384
CLK_DEF	384
COMPATIBLE_CODE	MA2

BPM	0	0	185.000
MET	0	0	4	4

NMTAP	1	0	3
NMTAP	1	0	4
NMTAP	1	48	5
NMTAP	1	72	4
NMTAP	1	96	6
NMTAP	1	144	2
NMTAP	1	168	3
NMTAP	1	192	1
NMTAP	1	240	7
NMTAP	1	264	0
EXHLD	1	288	7	96
NMTAP	2	0	0
NMTAP	2	24	7
NMTAP	2	48	0
NMTAP	2	72	7
NMTAP	2	96	1
NMTAP	2	120	6
NMTAP	2	144	2
NMTAP	2	168	5
NMTAP	2	192	3
NMTAP	2	216	4
NMTAP	2	240	3
EXTAP	2	288	2
EXTAP	2	288	5
NMHLD	3	0	3	48
NMSTR	3	0	6
BRSI_	3	0	6	96	48	4
NMHLD	3	96	2	48
NMHLD	3	192	3	48
NMSTR	3	192	6
BRSI_	3	192	6	96	48	3
NMSTR	3	288	2
BRSI_	3	288	2	96	48	7
NMSTR	4	0	5
BRSCL	4	0	5	96	48	2
NMSTR	4	96	1
BRSI_	4	96	1	96	48	5
NMTAP	4	192	7
EXTAP	4	288	2
EXTAP	4	288	6
NMSTR	5	0	1
BRSI_	5	0	1	96	48	3
NMHLD	5	0	4	48
NMHLD	5	96	6	48
NMSTR	5	192	1
BRSI_	5	192	1	96	48	5
NMHLD	5	192	5	48
NMSTR	5	288	6
BRSCR	5	288	6	96	48	1
NMSTR	6	0	2
BRSI_	6	0	2	96	48	6
NMSTR	6	96	5
BRSI_	6	96	5	96	48	3
NMTAP	6	192	0
EXTAP	6	288	1
EXTAP	6	288	7
NMHLD	7	0	0	48
NMSTR	7	0	5
BRSI_	7	0	5	96	48	7
NMHLD	7	96	2	48
NMHLD	7	192	0	48
NMSTR	7	192	5
BRSI_	7	192	5	96	48	0
NMSTR	7	288	1
BRSI_	7	288	1	96	48	4
NMSTR	8	0	6
BRSI_	8	0	6	96	48	3
NMSTR	8	96	2
BRSI_	8	96	2	96	48	7
NMTAP	8	192	4
EXTAP	8	288	0
EXTAP	8	288	5
EXTAP	9	0	1
EXTAP	9	0	7
EXTAP	9	48	2
EXTAP	9	48	6
EXTAP	9	96	3
EXTAP	9	96	5
NMTAP	9	144	2
NMTAP	9	168	4
NMTAP	9	216	4
NMTAP	9	240	2
NMTAP	9	288	3
NMTAP	9	288	5
NMTAP	9	336	6
NMTAP	9	360	4
NMTAP	10	24	4
NMTAP	10	48	6
NMTAP	10	96	2
NMTAP	10	96	7
NMTAP	10	144	1
NMTAP	10	168	0
NMTAP	10	192	1
NMTAP	10	216	0
NMTAP	10	240	1
BXTAP	10	288	2
BXTAP	10	288	7
BRHLD	11	0	1	2496
NMHLD	11	0	3	96
NMHLD	11	192	4	96
NMHLD	12	0	3	96
NMHLD	12	192	2	96
NMHLD	13	0	0	96
NMHLD	13	192	2	96
NMHLD	14	0	0	96
NMHLD	14	192	3	96
NMTAP	15	0	4
NMTAP	15	96	4
NMTAP	15	192	3
NMTAP	15	288	3
NMTAP	16	0	2
NMTAP	16	96	2
NMTAP	16	192	0
NMTAP	16	288	0
NMTAP	17	0	2
NMTAP	17	96	2
NMTAP	17	192	3
NMTAP	17	288	2
NMTAP	17	288	3
NMHLD	17	336	1	144
NMHLD	17	336	4	144
NMHLD	18	144	1	96
NMTAP	18	144	4
BRTAP	18	240	7
BRTAP	18	288	0
BRTAP	18	336	1
NMTAP	19	0	1
NMTAP	19	24	3
NMTAP	19	48	1
NMTAP	19	72	3
NMTAP	19	96	2
NMTAP	19	120	3
NMTAP	19	144	2
NMTAP	19	168	3
NMTAP	19	192	2
NMTAP	19	216	4
NMTAP	19	240	2
NMTAP	19	264	4
NMSTR	19	288	1
BRSXL	19	288	1	96	144	0
EXTAP	20	0	7
EXTAP	20	96	5
EXTAP	20	144	5
NMTAP	20	240	0
NMTAP	20	240	3
NMTAP	20	288	0
NMTAP	20	288	3
NMTAP	21	0	2
NMTAP	21	24	4
NMTAP	21	48	2
NMTAP	21	72	4
NMTAP	21	96	3
NMTAP	21	120	5
NMTAP	21	144	3
NMTAP	21	168	5
NMTAP	21	192	2
NMTAP	21	216	4
NMTAP	21	240	2
NMTAP	21	264	4
NMSTR	21	288	3
BRSI_	21	288	3	96	48	1
BRSI_	21	288	3	96	48	7
NMTTP	22	0	3	A	1	M1
EXTAP	22	96	0
EXTAP	22	144	0
NMTAP	22	240	1
NMTAP	22	240	7
NMTAP	22	288	1
NMTAP	22	288	7
NMTAP	23	0	2
NMTAP	23	24	4
NMTAP	23	48	2
NMTAP	23	72	4
NMTAP	23	96	3
NMTAP	23	120	4
NMTAP	23	144	3
NMTAP	23	168	4
NMTAP	23	192	2
NMTAP	23	216	4
NMTAP	23	240	2
NMTAP	23	264	4
NMTAP	23	288	1
NMTAP	23	312	3
NMTAP	23	336	1
NMTAP	23	360	3
NMSTR	24	0	0
BRSI_	24	0	0	96	48	4
NMTAP	24	96	7
NMTAP	24	144	7
NMTAP	24	240	3
NMTAP	24	240	5
NMTAP	24	288	3
NMTAP	24	288	5
NMTAP	25	0	2
NMTAP	25	24	4
NMTAP	25	48	2
NMTAP	25	72	4
NMTAP	25	96	1
NMTAP	25	120	3
NMTAP	25	144	1
NMTAP	25	168	3
NMTAP	25	192	2
NMTAP	25	216	3
NMTAP	25	240	2
NMTAP	25	288	1
NMTAP	25	288	4
NMSTR	25	336	1
BRSI_	25	336	1	96	48	7
NMTAP	25	336	4
NMTAP	26	48	5
NMTAP	26	96	5
CNSI_	26	96	7	0	48	3
CNSI_	26	144	3	0	48	5
EXTAP	26	192	6
NMTAP	26	288	0
NMTAP	26	288	7
BRTAP	27	0	3
BRTAP	27	96	0
NMSTR	27	192	0
BRSCL	27	192	0	96	96	3
NMSTR	28	0	1
BRSI_	28	0	1	96	96	6
NMSTR	28	192	2
BRSI_	28	192	2	96	96	5
NMTTP	29	0	0	C	0	M1
NMTAP	29	192	0
NMSTR	29	288	0
BRSV_	29	288	0	96	144	2
BRSV_	29	288	0	96	144	6
CNSV_	30	144	2	0	144	4
CNSV_	30	144	6	0	144	4
NMSTR	31	0	7
BRSI_	31	0	7	96	96	4
NMSTR	31	192	1
BRSI_	31	192	1	96	96	6
CNSI_	31	192	4	0	96	1
NMSTR	32	0	3
BRSI_	32	0	3	96	96	0
CNSI_	32	0	6	0	96	3
CNSI_	32	192	0	0	96	5
NMSTR	32	192	5
BRSI_	32	192	5	96	96	2
NMTAP	33	0	1
NMTAP	33	48	1
NMTAP	33	96	3
NMTAP	33	144	2
NMTAP	33	192	4
NMTAP	33	240	4
NMTAP	33	288	3
NMTAP	33	336	5
NMTTP	34	0	0	B	0	M1
NMTTP	34	0	0	E	0	M1
NMTTP	34	0	1	B	0	M1
NMTTP	34	0	1	E	0	M1
NMTTP	34	0	2	B	0	M1
NMTTP	34	0	2	E	0	M1
NMTTP	34	0	3	B	0	M1
NMTTP	34	0	3	E	0	M1
NMTTP	34	0	4	B	0	M1
NMTTP	34	0	4	E	0	M1
NMTTP	34	0	5	B	0	M1
NMTTP	34	0	5	E	0	M1
NMTTP	34	0	6	B	0	M1
NMTTP	34	0	6	E	0	M1
NMTTP	34	0	7	B	0	M1
NMTTP	34	0	7	E	0	M1
NMTTP	34	1	0	C	0	M1
NMHLD	35	0	1	48
NMHLD	35	0	4	48
NMHLD	35	96	1	48
NMHLD	35	96	4	48
NMHLD	35	192	3	48
NMHLD	35	192	6	48
NMHLD	35	288	3	48
NMHLD	35	288	6	48
NMHLD	36	0	1	48
NMHLD	36	0	4	48
NMHLD	36	96	1	48
NMHLD	36	96	4	48
NMHLD	36	192	2	48
NMHLD	36	192	3	48
NMHLD	36	288	1	48
NMHLD	36	288	4	48
NMHLD	37	0	3	48
NMHLD	37	0	6	48
NMHLD	37	96	3	48
NMHLD	37	96	6	48
NMHLD	37	192	4	48
NMHLD	37	192	5	48
NMHLD	37	288	3	48
NMHLD	37	288	6	48
NMHLD	38	0	1	48
NMHLD	38	0	7	48
NMHLD	38	96	0	48
NMHLD	38	96	6	48
NMHLD	38	192	1	48
NMHLD	38	192	7	48
NMTAP	38	288	2
NMTAP	38	288	5
NMHLD	39	0	3	48
NMHLD	39	0	4	48
NMTTP	39	96	5	B	0	M1
NMTTP	39	96	5	D	0	M1
NMTTP	39	96	6	D	0	M1
NMHLD	39	192	3	48
NMHLD	39	192	4	48
NMTTP	39	288	0	B	0	M1
NMTTP	39	288	1	B	0	M1
NMTTP	39	288	1	E	0	M1
NMTTP	39	288	2	B	0	M1
NMHLD	40	0	3	48
NMHLD	40	0	4	48
NMTTP	40	96	0	C	0	M1
NMTTP	40	96	6	B	0	M1
NMTTP	40	96	7	B	0	M1
NMTTP	40	96	7	E	0	M1
NMHLD	40	192	2	48
NMHLD	40	192	3	48
NMTTP	40	288	4	A	0	M1
NMTTP	40	288	5	B	0	M1
NMTTP	40	288	5	E	0	M1
NMTTP	40	288	5	A	0	M1
NMTTP	40	288	5	D	0	M1
NMHLD	41	0	3	48
NMHLD	41	0	6	48
NMTTP	41	96	5	B	0	M1
NMTTP	41	96	6	B	0	M1
NMTTP	41	96	7	B	0	M1
NMTTP	41	96	7	E	0	M1
NMHLD	41	192	3	48
NMHLD	41	192	4	48
NMTTP	41	288	0	B	0	M1
NMTTP	41	288	1	B	0	M1
NMTTP	41	288	1	E	0	M1
NMHLD	42	0	3	48
NMHLD	42	0	5	48
NMHLD	42	96	2	48
NMHLD	42	96	4	48
NMTAP	42	192	3
NMTAP	42	240	2
NMTAP	42	240	4
NMSTR	42	288	0
BRSCR	42	288	0	96	48	3
NMTAP	42	288	6
NMTAP	43	0	0
BRSTR	43	0	4
BRSI_	43	0	4	96	48	6
NMTAP	43	96	0
NMTAP	43	96	4
NMTAP	43	144	1
NMTAP	43	192	2
NMSTR	43	192	7
BRSI_	43	192	7	96	48	3
NMSTR	43	288	1
BRSI_	43	288	1	96	48	4
NMTAP	43	288	7
NMTAP	43	336	2
NMSTR	44	0	1
BRSCL	44	0	1	96	96	5
NMSTR	44	96	5
BRSCR	44	96	5	96	96	1
NMTAP	44	192	4
NMTAP	44	288	3
NMTAP	44	336	3
NMTAP	45	0	2
NMTAP	45	0	4
NMTAP	45	48	0
NMTAP	45	96	3
NMTAP	45	96	5
NMTAP	45	144	7
NMTAP	45	192	4
NMTAP	45	192	6
NMSTR	45	240	3
BRSCL	45	240	3	96	48	0
NMTAP	45	240	5
NMTAP	45	336	3
BRSTR	45	336	7
BRSI_	45	336	7	96	48	1
CNSI_	46	96	1	0	48	6
CNSI_	46	144	6	0	48	2
CNSI_	46	192	2	0	48	4
NMTAP	46	288	0
NMTAP	46	288	6
NMTAP	46	336	1
NMTAP	46	336	5
BRSTR	47	0	2
BRSI_	47	0	2	96	48	4
NMTAP	47	0	4
NMTAP	47	96	2
NMSTR	47	96	6
BRSI_	47	96	6	96	48	2
NMTAP	47	144	5
BRSTR	47	192	0
BRSI_	47	192	0	96	48	4
NMTAP	47	192	6
NMTAP	47	288	0
NMTAP	47	288	4
NMTAP	47	336	5
BRSTR	48	0	6
BRSCR	48	0	6	96	96	2
NMTAP	48	96	3
CNSCL	48	192	2	0	96	6
NMTAP	48	192	5
NMTAP	48	288	3
NMTAP	48	336	2
NMTAP	49	0	1
NMTAP	49	0	5
NMTAP	49	48	4
NMTAP	49	96	2
NMTAP	49	96	6
NMTAP	49	144	3
NMTAP	49	192	0
NMTAP	49	192	1
NMSTR	49	240	2
BRSI_	49	240	2	96	48	0
NMSTR	49	240	7
BRSI_	49	240	7	96	48	3
BRTAP	49	336	2
BRTAP	49	336	7
NMTAP	50	48	4
NMTAP	50	96	4
NMTAP	50	144	4
NMTAP	50	192	3
NMTAP	50	192	5
NMTAP	50	240	2
NMTAP	50	240	6
NMTAP	50	288	1
NMSTR	50	288	7
BRSI_	50	288	7	96	48	3
NMTAP	50	336	0
NMTAP	50	336	6
BRHLD	51	0	1	288
BRTAP	51	0	7
EXTAP	51	288	0
NMTAP	52	0	1
NMTAP	52	24	7
NMTAP	52	48	1
NMTAP	52	72	7
NMTAP	52	96	2
NMTAP	52	120	6
NMTAP	52	144	3
NMTAP	52	168	5
NMTAP	52	192	2
NMTAP	52	216	4
NMTAP	52	240	2
NMTAP	52	264	4
BRTAP	52	288	1
BXTAP	52	288	5
NMTAP	53	0	6
BRSTR	53	0	7
BRSI_	53	0	7	96	48	2
NMSTR	53	96	5
BRSI_	53	96	5	96	48	7
NMSTR	53	192	3
BRSLR	53	192	3	96	96	2
EXTAP	53	288	7
NMSTR	54	0	6
BRSI_	54	0	6	96	48	3
NMSTR	54	96	2
BRSI_	54	96	2	96	48	7
NMSTR	54	192	4
BRSI_	54	192	4	96	48	7
EXTAP	54	288	0
CNSI_	54	336	7	0	48	5
NMSTR	55	0	2
BRSCL	55	0	2	96	48	7
NMSTR	55	96	4
BRSUR	55	96	4	96	48	1
NMSTR	55	192	3
BRSUL	55	192	3	96	48	6
NMTAP	55	288	5
NMSTR	56	0	4
BRSI_	56	0	4	96	48	6
BRSI_	56	0	4	96	48	7
NMSTR	56	96	4
BRSI_	56	96	4	96	48	1
BRSI_	56	96	4	96	48	2
NMTAP	56	192	4
EXTAP	56	288	0
EXTAP	56	288	7
BRTAP	57	0	1
BRSTR	57	0	5
BRSCL	57	0	5	96	48	2
NMSTR	57	96	0
BRSI_	57	96	0	96	48	4
NMSTR	57	192	6
BRSUL	57	192	6	96	48	2
NMSTR	57	288	7
BRSI_	57	288	7	96	48	3
NMSTR	58	0	6
BRSCR	58	0	6	96	48	1
NMSTR	58	96	4
BRSI_	58	96	4	96	48	0
NMTAP	58	192	5
NMTAP	58	288	1
NMTAP	58	288	7
BRTAP	59	0	3
EXTAP	59	0	5
BRTAP	59	48	2
BRTAP	59	96	2
EXTAP	59	96	4
BRTAP	59	144	2
BRTAP	59	192	1
EXTAP	59	192	3
BRTAP	59	240	1
BRTAP	59	288	1
EXTAP	59	288	2
BRTAP	59	336	1
EXTAP	60	0	2
BRTAP	60	0	3
BRTAP	60	48	3
EXSTR	60	96	1
BRSI_	60	96	1	96	48	5
BRTAP	60	96	3
BRTAP	60	144	3
EXTAP	60	192	1
EXTAP	60	192	4
EXTAP	60	288	3
EXTAP	60	288	7
NMTAP	61	0	6
NMTAP	61	32	4
NMTAP	61	64	6
NMTAP	61	96	4
NMTAP	61	128	6
NMTAP	61	160	4
NMTAP	61	192	5
NMTAP	61	224	3
NMTAP	61	256	5
NMTAP	61	288	3
NMTAP	61	320	5
NMTAP	61	352	3
NMTAP	62	0	4
NMTAP	62	32	2
NMTAP	62	64	4
NMTAP	62	96	2
NMTAP	62	128	4
NMTAP	62	160	2
NMTAP	62	192	3
NMTAP	62	224	1
NMTAP	62	256	4
EXTAP	62	288	0
NMTAP	63	0	1
NMTAP	63	32	3
NMTAP	63	64	1
NMTAP	63	96	3
NMTAP	63	128	1
NMTAP	63	160	3
NMTAP	63	192	2
NMTAP	63	224	4
NMTAP	63	256	2
NMTAP	63	288	4
NMTAP	63	320	2
NMTAP	63	352	4
NMTAP	64	0	3
NMTAP	64	32	5
NMTAP	64	64	3
NMTAP	64	96	5
NMTAP	64	128	3
NMTAP	64	160	5
NMTAP	64	192	4
NMTAP	64	224	6
NMTAP	64	256	3
EXTAP	64	288	7
NMTAP	65	0	6
NMTAP	65	32	4
NMTAP	65	64	5
NMTAP	65	96	4
NMTAP	65	128	5
NMTAP	65	160	4
NMTAP	65	192	6
NMTAP	65	224	3
NMTAP	65	256	4
NMTAP	65	288	3
NMTAP	65	320	4
NMTAP	65	352	3
NMTAP	66	0	5
NMTAP	66	32	2
NMTAP	66	64	3
NMTAP	66	96	2
NMTAP	66	128	3
NMTAP	66	160	2
NMTAP	66	192	4
NMTAP	66	224	1
NMTAP	66	256	3
EXTAP	66	288	0
NMTAP	67	0	1
NMTAP	67	32	3
NMTAP	67	64	2
NMTAP	67	96	3
NMTAP	67	128	2
NMTAP	67	160	3
NMTAP	67	192	1
NMTAP	67	224	4
NMTAP	67	256	3
NMTAP	67	288	4
NMTAP	67	320	3
NMTAP	67	352	4
NMTAP	68	0	2
NMTAP	68	32	5
NMTAP	68	64	4
NMTAP	68	96	5
NMTAP	68	128	4
NMTAP	68	160	5
NMTAP	68	192	3
NMTAP	68	224	6
NMTAP	68	256	4
EXTAP	68	288	7
BRTAP	69	0	4
BRSTR	69	0	7
BRSI_	69	0	7	96	1008	4
NMTTP	70	0	0	E	0	M1
NMTTP	71	0	0	C	0	M1
CNSCL	71	336	4	0	48	3
CNSI_	72	0	3	0	1152	0
NMTTP	72	0	4	E	0	M1
NMTTP	73	0	0	C	0	M1
NMTTP	74	0	0	E	0	M1
NMTHO	75	0	0	0	C	0	M1
NMTAP	76	0	7
NMTAP	76	24	0
NMTAP	76	48	7
NMTAP	76	72	0
NMTAP	76	96	6
NMTAP	76	120	1
NMTAP	76	144	6
NMTAP	76	168	2
NMTAP	76	192	5
NMTAP	76	216	3
NMTAP	76	240	4
NMTAP	76	288	2
NMTAP	76	288	6
NMHLD	77	0	4	96
NMHLD	77	0	5	96
NMHLD	77	192	3	96
NMHLD	77	192	4	96
NMHLD	78	0	2	96
NMHLD	78	0	3	96
NMHLD	78	192	3	96
NMHLD	78	192	4	96
NMHLD	79	0	4	96
NMHLD	79	0	5	96
NMHLD	79	192	3	96
NMHLD	79	192	4	96
NMHLD	80	0	2	96
NMHLD	80	0	3	96
NMHLD	80	192	3	96
NMHLD	80	192	4	96
NMHLD	81	0	3	96
NMHLD	81	0	5	96
NMHLD	81	192	2	96
NMHLD	81	192	4	96
NMHLD	82	0	3	96
NMHLD	82	0	5	96
NMHLD	82	192	2	96
NMHLD	82	192	4	96
NMHLD	83	0	4	96
NMHLD	83	0	5	96
NMHLD	83	192	2	96
NMHLD	83	192	3	96
NMTAP	84	0	2
NMTAP	84	48	2
NMTAP	84	96	4
NMTAP	84	120	3
NMTAP	84	144	4
NMTAP	84	192	2
NMTAP	84	216	3
NMTAP	84	240	2
NMTAP	84	288	5
NMTAP	84	312	4
NMTAP	84	336	5
NMHLD	85	0	2	96
NMTAP	85	0	6
NMTAP	85	96	3
NMTAP	85	144	2
NMTAP	85	192	1
NMHLD	85	192	5	96
NMTAP	85	288	4
NMTAP	85	336	5
NMHLD	86	0	3	96
NMTAP	86	0	6
NMTAP	86	96	1
NMTAP	86	192	0
NMTAP	86	192	6
NMSTR	86	288	5
BRSI_	86	288	5	96	96	3
NMTAP	87	0	3
NMTAP	87	96	2
CNSI_	87	96	3	0	96	6
NMTAP	87	192	1
CNSI_	87	192	6	0	192	0
NMSTR	87	288	0
BRSSL	87	288	0	96	240	4
NMTAP	88	0	1
EXTAP	88	96	2
EXTAP	88	192	2
NMHLD	89	0	3	144
NMTAP	89	0	4
NMHLD	89	96	2	96
NMHLD	89	192	1	144
NMHLD	89	288	0	96
NMHLD	90	0	7	96
NMHLD	90	96	6	96
NMHLD	90	192	5	96
NMHLD	90	288	4	96
NMHLD	91	0	2	96
NMHLD	91	96	0	96
NMHLD	91	192	6	96
NMHLD	91	288	4	96
NMTAP	92	0	3
NMTAP	92	48	3
NMTAP	92	96	5
NMTAP	92	144	5
NMTAP	92	192	1
NMTAP	92	240	1
NMTAP	92	288	7
NMTAP	92	336	7
NMTHO	93	0	0	672	C	1	M1
EXTAP	94	288	7
NMHLD	95	0	0	96
NMHLD	95	0	6	96
NMHLD	95	192	2	144
NMHLD	95	192	4	144
NMHLD	96	0	2	120
NMHLD	96	0	4	120
NMHLD	96	192	2	72
NMHLD	96	192	4	72
NMHLD	96	288	2	48
NMHLD	96	288	3	48
NMHLD	97	0	1	48
NMHLD	97	0	4	48
NMHLD	97	96	1	48
NMHLD	97	96	4	48
NMHLD	97	192	3	48
NMHLD	97	192	6	48
NMHLD	97	288	3	48
NMHLD	97	288	6	48
NMHLD	98	0	1	48
NMHLD	98	0	4	48
NMHLD	98	96	3	48
NMHLD	98	96	6	48
NMHLD	98	192	1	48
NMHLD	98	192	4	48
NMTAP	98	288	2
NMTAP	98	288	5
NMHLD	99	0	3	48
NMHLD	99	0	4	48
NMHLD	99	96	6	48
NMHLD	99	96	7	48
NMHLD	99	192	3	48
NMHLD	99	192	4	48
NMHLD	99	288	0	48
NMHLD	99	288	1	48
NMHLD	100	0	3	48
NMHLD	100	0	4	48
NMTAP	100	96	0
NMTAP	100	96	6
NMTAP	100	144	0
NMTAP	100	144	6
NMTAP	100	192	7
NMTAP	100	240	2
NMTAP	100	240	4
NMSTR	100	288	0
BRSI_	100	288	0	96	48	4
NMTAP	100	288	6
BRTAP	101	0	0
BRSTR	101	0	6
BRSI_	101	0	6	96	48	3
BRSTR	101	96	1
BRSI_	101	96	1	96	48	7
NMTAP	101	96	6
NMTAP	101	144	2
BRSTR	101	192	1
BRSI_	101	192	1	96	48	4
NMTAP	101	192	5
NMTAP	101	288	1
BRTAP	101	288	4
NMTAP	101	336	5
NMTAP	102	0	3
BRSTR	102	0	6
BRSCL	102	0	6	96	48	3
BRSTR	102	96	0
BRSCR	102	96	0	96	48	3
NMTAP	102	96	6
NMTAP	102	192	0
BRSTR	102	192	7
BRSI_	102	192	7	96	48	3
BRTAP	102	288	7
BRTAP	103	0	1
BRTAP	103	0	5
NMTAP	103	48	2
NMTAP	103	72	3
BRTAP	103	96	1
NMTAP	103	144	6
NMTAP	103	168	7
BRTAP	103	192	5
NMTAP	103	240	1
NMTAP	103	264	0
BRTAP	103	288	2
NMTAP	103	336	5
NMTAP	103	360	4
BRSTR	104	0	6
BRSI_	104	0	6	96	48	2
NMSTR	104	48	2
BRSI_	104	48	2	96	48	6
BRSTR	104	96	6
BRSCR	104	96	6	96	96	4
NMTAP	104	144	0
BRTAP	104	192	0
BRTAP	104	288	7
BRTAP	105	0	6
BRTAP	105	0	7
NMTAP	105	72	5
BRTAP	105	96	4
NMTAP	105	144	2
NMTAP	105	144	3
BRTAP	105	192	0
BRTAP	105	192	1
BRTAP	105	288	3
BRTAP	105	288	4
NMTAP	105	336	1
NMTAP	105	336	6
BRSTR	106	0	0
BRSI_	106	0	0	96	48	4
BRSTR	106	0	7
BRSI_	106	0	7	96	48	5
BRSTR	106	96	0
BRSI_	106	96	0	96	48	2
BRSTR	106	96	7
BRSI_	106	96	7	96	48	3
BRSTR	106	192	0
BRSI_	106	192	0	96	48	4
BRSTR	106	192	7
BRSI_	106	192	7	96	48	5
BRTAP	106	288	0
BRTAP	106	288	7
BRTAP	107	0	0
BRTAP	107	0	7
NMTAP	107	48	1
NMTAP	107	48	6
BRTAP	107	96	0
BRTAP	107	96	1
NMTAP	107	144	2
NMTAP	107	144	7
BRTAP	107	192	6
BRTAP	107	192	7
NMSTR	107	240	0
BRSCR	107	240	0	96	48	3
NMSTR	107	240	5
BRSI_	107	240	5	96	48	3
BRTAP	107	288	6
BRTAP	107	288	7
NMTAP	107	336	0
NMTAP	107	336	5
NMTAP	108	48	7
NMSTR	108	96	0
BRSI_	108	96	0	96	48	4
NMSTR	108	144	6
NMSI_	108	144	6	96	48	2
BRSTR	108	192	0
BRSCR	108	192	0	96	48	3
BRSTR	108	240	6
NMSCL	108	240	6	96	48	3
BRTAP	108	288	0
BRTAP	108	336	6
BXHLD	109	0	7	192
BRTAP	109	288	2
BRTAP	109	288	4
NMTAP	110	0	5
NMTAP	110	24	3
NMTAP	110	48	5
NMTAP	110	72	3
NMTAP	110	96	4
NMTAP	110	120	2
NMTAP	110	144	4
NMTAP	110	168	2
NMTAP	110	192	5
NMTAP	110	216	3
NMTAP	110	240	6
NMTAP	110	264	4
BRTAP	110	288	7
NMTAP	111	0	1
NMTAP	111	24	3
NMTAP	111	72	3
NMSTR	111	96	2
BRSI_	111	96	2	96	48	7
NMTAP	111	144	2
NMSTR	111	192	5
BRSI_	111	192	5	96	48	0
NMTAP	111	240	5
NMTAP	111	288	3
NMTAP	111	336	2
NMTAP	112	0	1
NMTAP	112	24	7
NMTAP	112	72	7
NMSTR	112	96	2
BRSI_	112	96	2	96	48	6
NMTAP	112	144	2
NMSTR	112	192	5
BRSI_	112	192	5	96	48	1
NMTAP	112	240	5
NMTAP	112	288	4
NMTAP	112	336	3
NMTAP	113	0	2
NMTAP	113	24	0
NMTAP	113	72	0
NMSTR	113	96	1
BRSCR	113	96	1	96	48	4
NMTAP	113	144	1
NMSTR	113	192	6
BRSCR	113	192	6	96	48	1
NMTAP	113	240	6
NMTAP	113	288	2
NMTAP	113	336	2
NMTAP	114	0	2
NMTAP	114	0	3
NMTAP	114	48	3
NMTAP	114	48	4
NMTAP	114	96	4
NMHLD	114	96	5	48
NMTAP	114	144	3
NMTAP	114	168	2
NMTAP	114	192	1
NMTAP	114	216	0
NMTAP	114	240	6
NMTAP	114	240	7
NMTAP	114	288	0
NMTAP	114	288	5
NMTAP	115	0	2
NMTAP	115	24	3
NMTAP	115	72	3
NMSTR	115	96	1
BRSCL	115	96	1	96	48	6
NMTAP	115	144	1
NMSTR	115	192	4
BRSI_	115	192	4	96	48	0
NMTAP	115	240	5
NMTAP	115	288	2
NMTAP	115	336	2
NMTAP	116	0	1
NMTAP	116	24	7
NMTAP	116	72	7
NMSTR	116	96	2
BRSCL	116	96	2	96	48	7
NMTAP	116	144	2
NMSTR	116	192	6
BRSV_	116	192	6	96	48	3
NMTAP	116	240	5
NMTAP	116	288	2
NMTAP	117	0	1
BXTAP	117	0	3
BXTAP	117	48	0
NMTAP	117	48	7
NMTAP	117	96	4
BXTAP	117	96	6
NMTAP	117	144	5
NMTAP	117	168	3
NMTAP	117	216	3
NMTAP	117	240	5
NMTAP	117	288	2
NMTAP	117	288	6
NMTAP	117	336	1
NMTAP	117	360	0
NMTAP	118	0	2
NMTAP	118	24	7
NMTAP	118	48	3
NMTAP	118	72	6
NMTAP	118	96	4
NMTAP	118	120	5
NMTAP	118	144	3
NMTAP	118	168	4
NMTAP	118	192	2
NMTAP	118	216	3
NMTAP	118	240	0
EXSTR	118	288	1
BRSV_	118	288	1	96	48	4
EXSTR	118	288	7
BRSV_	118	288	7	96	48	2
NMTHO	119	0	0	0	C	1	M1
BRTAP	119	0	1

T_REC_TAP	464
T_REC_BRK	56
T_REC_XTP	41
T_REC_BXX	6
T_REC_HLD	144
T_REC_XHO	1
T_REC_BHO	2
T_REC_BXH	1
T_REC_STR	70
T_REC_BST	24
T_REC_XST	3
T_REC_XBS	0
T_REC_TTP	47
T_REC_THO	3
T_REC_SLD	2
T_REC_BSL	99
T_REC_ALL	963
T_NUM_TAP	625
T_NUM_BRK	188
T_NUM_HLD	148
T_NUM_SLD	2
T_NUM_ALL	963
T_JUDGE_TAP	711
T_JUDGE_HLD	294
T_JUDGE_SLD	101
T_JUDGE_ALL	1106
TTM_EACHPAIRS	173
TTM_SCR_TAP	312500
TTM_SCR_BRK	488800
TTM_SCR_HLD	148000
TTM_SCR_SLD	3000
TTM_SCR_ALL	952300
TTM_SCR_S	905500
TTM_SCR_SS	933500
TTM_RAT_ACV	10201

