VERSION	0.00.00	1.04.00
FES_MODE	1
BPM_DEF	185.000	185.000	185.000	185.000
MET_DEF	4	4
RESOLUTION	384
CLK_DEF	384
COMPATIBLE_CODE	MA2

BPM	0	0	185.000
MET	0	0	4	4

NMTAP	1	0	3
NMTAP	1	0	4
NMTAP	1	48	5
NMTAP	1	72	4
NMTAP	1	96	6
NMTAP	1	144	2
NMTAP	1	168	3
NMTAP	1	192	1
NMTAP	1	240	7
NMTAP	1	264	0
EXHLD	1	288	7	96
NMTAP	2	0	0
NMTAP	2	24	7
NMTAP	2	48	0
NMTAP	2	72	7
NMTAP	2	96	1
NMTAP	2	120	6
NMTAP	2	144	2
NMTAP	2	168	5
NMTAP	2	192	3
NMTAP	2	216	4
NMTAP	2	240	3
EXTAP	2	288	2
EXTAP	2	288	5
NMHLD	3	0	3	48
NMSTR	3	0	6
NMSI_	3	0	6	96	48	4
NMHLD	3	96	2	48
NMHLD	3	192	3	48
NMSTR	3	192	6
NMSI_	3	192	6	96	48	3
NMSTR	3	288	2
NMSI_	3	288	2	96	48	7
NMSTR	4	0	5
NMSCL	4	0	5	96	48	2
NMSTR	4	96	1
NMSI_	4	96	1	96	48	5
NMTAP	4	192	7
EXTAP	4	288	2
EXTAP	4	288	6
NMSTR	5	0	1
NMSI_	5	0	1	96	48	3
NMHLD	5	0	4	48
NMHLD	5	96	6	48
NMSTR	5	192	1
NMSI_	5	192	1	96	48	5
NMHLD	5	192	5	48
NMSTR	5	288	6
NMSCR	5	288	6	96	48	1
NMSTR	6	0	2
NMSI_	6	0	2	96	48	6
NMSTR	6	96	5
NMSI_	6	96	5	96	48	3
NMTAP	6	192	0
EXTAP	6	288	1
EXTAP	6	288	7
NMHLD	7	0	0	48
NMSTR	7	0	5
NMSI_	7	0	5	96	48	7
NMHLD	7	96	2	48
NMHLD	7	192	0	48
NMSTR	7	192	5
NMSI_	7	192	5	96	48	0
NMSTR	7	288	1
NMSI_	7	288	1	96	48	4
NMSTR	8	0	6
NMSI_	8	0	6	96	48	3
NMSTR	8	96	2
NMSI_	8	96	2	96	48	7
NMTAP	8	192	4
EXTAP	8	288	0
EXTAP	8	288	5
EXTAP	9	0	1
EXTAP	9	0	7
EXTAP	9	48	2
EXTAP	9	48	6
EXTAP	9	96	3
EXTAP	9	96	5
NMTAP	9	144	2
NMTAP	9	168	4
NMTAP	9	216	4
NMTAP	9	240	2
NMTAP	9	288	3
NMTAP	9	288	5
NMTAP	9	336	6
NMTAP	9	360	4
NMTAP	10	24	4
NMTAP	10	48	6
NMTAP	10	96	2
NMTAP	10	96	7
NMTAP	10	144	1
NMTAP	10	168	0
NMTAP	10	192	1
NMTAP	10	216	0
NMTAP	10	240	1
BXTAP	10	288	2
BXTAP	10	288	7
NMHLD	11	0	4	96
NMHLD	11	0	6	1056
NMHLD	11	192	3	96
NMTAP	12	0	4
NMTAP	12	96	4
NMTAP	12	192	2
NMTAP	12	240	2
NMTAP	12	288	2
NMTAP	13	0	3
NMTAP	13	96	5
NMTAP	13	192	7
NMSTR	13	288	7
NMSCR	13	288	7	96	192	2
NMTAP	14	0	5
NMTAP	14	96	4
NMTAP	14	192	3
NMTAP	14	288	2
NMTAP	14	288	4
NMHLD	15	0	3	96
NMHLD	15	0	5	960
NMHLD	15	192	4	96
NMTAP	16	0	3
NMTAP	16	96	3
NMTAP	16	192	4
NMTAP	16	240	4
NMTAP	16	288	4
NMTAP	17	0	6
NMTAP	17	96	6
NMTAP	17	192	4
NMTAP	17	288	4
NMTAP	17	288	5
NMHLD	17	336	3	144
NMHLD	17	336	6	144
NMTAP	18	144	3
NMSTR	18	144	6
NMSI_	18	144	6	96	48	2
NMTAP	18	240	0
NMTAP	18	288	0
NMTAP	19	0	1
NMTAP	19	24	3
NMTAP	19	48	1
NMTAP	19	72	3
NMTAP	19	96	2
NMTAP	19	120	3
NMTAP	19	144	2
NMTAP	19	168	3
NMTAP	19	192	2
NMTAP	19	216	4
NMTAP	19	240	2
NMTAP	19	264	4
NMSTR	19	288	3
NMSXL	19	288	3	96	144	7
EXTAP	20	0	7
EXTAP	20	96	6
EXTAP	20	144	6
NMTAP	20	240	1
NMTAP	20	240	4
NMTAP	20	288	1
NMTAP	20	288	4
NMTAP	21	0	5
NMTAP	21	24	3
NMTAP	21	48	5
NMTAP	21	72	3
NMTAP	21	96	4
NMTAP	21	120	2
NMTAP	21	144	4
NMTAP	21	168	2
NMTAP	21	192	5
NMTAP	21	216	3
NMTAP	21	240	5
NMTAP	21	264	3
NMSTR	21	288	4
NMSI_	21	288	4	96	48	0
NMSI_	21	289	4	95	48	6
NMTTP	22	0	4	A	1	M1
EXTAP	22	96	7
EXTAP	22	144	7
NMTAP	22	240	1
NMTAP	22	240	3
NMTAP	22	288	1
NMTAP	22	288	3
NMTAP	23	0	5
NMTAP	23	24	3
NMTAP	23	48	5
NMTAP	23	72	3
NMTAP	23	96	4
NMTAP	23	120	3
NMTAP	23	144	4
NMTAP	23	168	3
NMTAP	23	192	5
NMTAP	23	216	3
NMTAP	23	240	5
NMTAP	23	264	3
NMTAP	23	288	6
NMTAP	23	312	4
NMTAP	23	336	6
NMTAP	23	360	4
NMSTR	24	0	7
NMSI_	24	0	7	96	48	3
NMTAP	24	96	0
NMTAP	24	144	0
NMTAP	24	240	2
NMTAP	24	240	4
NMTAP	24	288	2
NMTAP	24	288	4
NMTAP	25	0	5
NMTAP	25	24	3
NMTAP	25	48	5
NMTAP	25	72	3
NMTAP	25	96	6
NMTAP	25	120	4
NMTAP	25	144	6
NMTAP	25	168	4
NMTAP	25	192	5
NMTAP	25	216	4
NMTAP	25	240	5
NMTAP	25	288	3
NMTAP	25	288	6
NMTAP	25	336	3
NMSTR	25	336	6
NMSI_	25	336	6	96	48	0
NMTAP	26	48	2
CNSI_	26	96	0	0	48	4
NMTAP	26	96	2
CNSI_	26	144	4	0	48	2
EXTAP	26	192	1
NMTAP	26	288	0
NMTAP	26	288	7
NMSTR	27	0	1
NMSXR	27	0	1	96	288	7
EXHLD	27	0	4	384
CNSXR	28	0	7	0	384	5
CNSXR	29	0	5	0	384	3
EXHLD	29	0	6	384
CNSXR	30	0	3	0	384	1
NMSTR	31	0	7
NMSI_	31	0	7	96	96	4
NMSTR	31	192	1
NMSI_	31	192	1	96	96	6
CNSI_	31	192	4	0	96	1
NMSTR	32	0	3
NMSI_	32	0	3	96	96	0
CNSI_	32	0	6	0	96	3
CNSI_	32	192	0	0	96	5
NMSTR	32	192	5
NMSI_	32	192	5	96	96	2
NMTAP	33	0	1
NMTAP	33	48	1
NMTAP	33	96	3
NMTAP	33	144	2
NMTAP	33	192	4
NMTAP	33	240	4
NMTAP	33	288	3
NMTAP	33	336	5
NMTTP	34	0	0	B	0	M1
NMTTP	34	0	0	E	0	M1
NMTTP	34	0	1	B	0	M1
NMTTP	34	0	1	E	0	M1
NMTTP	34	0	2	B	0	M1
NMTTP	34	0	2	E	0	M1
NMTTP	34	0	3	B	0	M1
NMTTP	34	0	3	E	0	M1
NMTTP	34	0	4	B	0	M1
NMTTP	34	0	4	E	0	M1
NMTTP	34	0	5	B	0	M1
NMTTP	34	0	5	E	0	M1
NMTTP	34	0	6	B	0	M1
NMTTP	34	0	6	E	0	M1
NMTTP	34	0	7	B	0	M1
NMTTP	34	0	7	E	0	M1
NMTTP	34	1	0	C	0	M1
NMTHO	34	192	0	96	C	0	M1
NMSTR	34	288	7
NMSCL	34	288	7	96	48	4
BRSTR	35	0	3
NMSI_	35	0	3	96	48	1
BRTAP	35	0	7
NMTAP	35	96	3
NMTAP	35	96	7
NMTAP	35	144	6
NMSTR	35	192	0
NMSI_	35	192	0	96	48	4
NMTAP	35	192	5
NMTAP	35	288	0
NMSTR	35	288	6
NMSI_	35	288	6	96	48	3
NMTAP	35	336	7
NMSTR	36	0	6
NMSCR	36	0	6	96	96	2
NMSTR	36	96	2
NMSCL	36	96	2	96	96	6
NMTAP	36	192	3
NMTAP	36	288	4
NMTAP	36	336	3
NMTAP	37	0	2
NMSTR	37	0	5
NMSI_	37	0	5	96	48	0
NMSTR	37	48	1
NMSI_	37	48	1	96	48	5
NMTAP	37	96	5
NMTAP	37	144	1
NMTAP	37	192	7
NMSTR	37	240	7
NMSCR	37	240	7	96	48	2
BRSTR	37	336	3
NMSI_	37	336	3	96	48	5
NMTAP	37	336	7
CNSI_	38	96	5	0	48	2
CNSI_	38	144	2	0	48	6
CNSI_	38	192	6	0	48	0
EXTAP	38	288	1
EXTAP	38	288	7
NMTAP	38	336	1
NMTAP	38	336	7
NMSTR	39	0	0
NMSI_	39	0	0	96	48	4
NMTAP	39	0	6
NMTAP	39	96	0
NMSTR	39	96	5
NMSCL	39	96	5	96	48	2
NMTAP	39	144	6
NMSTR	39	192	0
NMSI_	39	192	0	96	48	2
NMTAP	39	192	5
NMTAP	39	288	0
NMTAP	39	288	5
NMTAP	39	336	6
NMTAP	40	0	3
NMSTR	40	0	7
NMSUL	40	0	7	96	48	2
NMSTR	40	96	2
NMSI_	40	96	2	96	48	5
NMTAP	40	192	0
EXTAP	40	288	6
NMTAP	40	336	5
NMTAP	41	0	0
NMTAP	41	0	4
NMTAP	41	48	7
NMTAP	41	96	0
NMTAP	41	96	3
NMTAP	41	144	7
NMTAP	41	192	0
NMTAP	41	192	4
NMSTR	41	240	0
NMSCL	41	240	0	96	48	5
NMTAP	41	240	4
NMTAP	41	336	0
BRTAP	41	336	2
EXTAP	42	48	3
EXTAP	42	48	4
NMTAP	42	96	2
NMTAP	42	144	1
NMTAP	42	192	7
NMTAP	42	240	2
NMTAP	42	240	4
NMTAP	42	288	0
NMTAP	42	288	6
NMHLD	43	0	3	48
NMHLD	43	0	6	48
NMHLD	43	96	3	48
NMHLD	43	96	6	48
NMHLD	43	192	1	48
NMHLD	43	192	4	48
NMHLD	43	288	1	48
NMHLD	43	288	4	48
NMHLD	44	0	3	48
NMHLD	44	0	6	48
NMHLD	44	96	3	48
NMHLD	44	96	6	48
NMHLD	44	192	4	48
NMHLD	44	192	5	48
NMHLD	44	288	3	48
NMHLD	44	288	6	48
NMHLD	45	0	1	48
NMHLD	45	0	4	48
NMHLD	45	96	1	48
NMHLD	45	96	4	48
NMHLD	45	192	2	48
NMHLD	45	192	3	48
NMHLD	45	288	1	48
NMHLD	45	288	4	48
NMHLD	46	0	0	48
NMHLD	46	0	6	48
NMHLD	46	96	1	48
NMHLD	46	96	7	48
NMHLD	46	192	0	48
NMHLD	46	192	6	48
NMTAP	46	288	2
NMTAP	46	288	5
NMHLD	47	0	3	48
NMHLD	47	0	4	48
NMTTP	47	96	5	B	0	M1
NMTTP	47	96	5	A	0	M1
NMTTP	47	96	6	B	0	M1
NMTTP	47	96	6	E	0	M1
NMTTP	47	96	6	A	0	M1
NMTTP	47	96	6	D	0	M1
NMHLD	47	192	3	48
NMHLD	47	192	4	48
NMTTP	47	288	0	C	0	M1
NMTTP	47	288	1	B	0	M1
NMTTP	47	288	1	A	0	M1
NMTTP	47	288	2	A	0	M1
NMTTP	47	288	2	D	0	M1
NMHLD	48	0	3	48
NMHLD	48	0	4	48
NMTTP	48	96	5	B	0	M1
NMTTP	48	96	5	E	0	M1
NMTTP	48	96	5	A	0	M1
NMTTP	48	96	6	A	0	M1
NMHLD	48	192	3	48
NMHLD	48	192	4	48
NMTTP	48	288	1	E	0	M1
NMTTP	48	288	2	D	0	M1
NMHLD	49	0	3	48
NMHLD	49	0	4	48
NMTTP	49	96	5	B	0	M1
NMTTP	49	96	6	B	0	M1
NMHLD	49	192	3	48
NMHLD	49	192	4	48
NMTTP	49	288	0	C	0	M1
NMTTP	49	288	1	B	0	M1
NMTTP	49	288	1	A	0	M1
NMTTP	49	288	2	A	0	M1
NMTTP	49	288	2	D	0	M1
NMHLD	50	0	3	48
NMHLD	50	0	4	48
NMTTP	50	96	4	B	0	M1
NMTTP	50	96	5	E	0	M1
NMTAP	50	192	0
NMTAP	50	192	6
NMSTR	50	288	7
NMSI_	50	288	7	96	48	3
NMTAP	50	336	0
NMTAP	50	336	6
BRHLD	51	0	1	288
BRTAP	51	0	7
EXTAP	51	288	0
NMTAP	52	0	1
NMTAP	52	24	7
NMTAP	52	48	1
NMTAP	52	72	7
NMTAP	52	96	2
NMTAP	52	120	6
NMTAP	52	144	3
NMTAP	52	168	5
NMTAP	52	192	2
NMTAP	52	216	4
NMTAP	52	240	2
NMTAP	52	264	4
BRTAP	52	288	1
BXTAP	52	288	5
NMTAP	53	0	6
BRSTR	53	0	7
NMSI_	53	0	7	96	48	2
NMSTR	53	96	5
NMSI_	53	96	5	96	48	7
NMSTR	53	192	3
NMSLR	53	192	3	96	96	2
EXTAP	53	288	7
NMSTR	54	0	6
NMSI_	54	0	6	96	48	3
NMSTR	54	96	2
NMSI_	54	96	2	96	48	7
NMSTR	54	192	4
NMSI_	54	192	4	96	48	7
EXTAP	54	288	0
CNSI_	54	336	7	0	48	5
NMSTR	55	0	2
NMSCL	55	0	2	96	48	7
NMSTR	55	96	4
NMSUR	55	96	4	96	48	1
NMSTR	55	192	3
NMSUL	55	192	3	96	48	6
NMTAP	55	288	5
NMSTR	56	0	4
NMSI_	56	0	4	96	48	7
NMSI_	56	1	4	95	48	6
NMSTR	56	96	4
NMSI_	56	96	4	96	48	1
NMSI_	56	97	4	95	48	2
NMTAP	56	192	4
EXTAP	56	288	0
EXTAP	56	288	7
BRTAP	57	0	1
BRSTR	57	0	5
NMSCL	57	0	5	96	48	2
NMSTR	57	96	0
NMSI_	57	96	0	96	48	4
NMSTR	57	192	6
NMSUL	57	192	6	96	48	2
NMSTR	57	288	7
NMSI_	57	288	7	96	48	3
NMSTR	58	0	6
NMSCR	58	0	6	96	48	1
NMSTR	58	96	4
NMSI_	58	96	4	96	48	0
NMTAP	58	192	5
NMTAP	58	288	1
NMTAP	58	288	7
NMTAP	59	0	0
NMTAP	59	0	6
NMTAP	59	48	1
NMTAP	59	48	5
NMTAP	59	96	2
NMTAP	59	96	4
NMTAP	59	144	1
NMTAP	59	168	3
NMTAP	59	216	3
NMTAP	59	240	1
NMTAP	59	288	2
NMTAP	59	288	4
NMTAP	59	336	5
NMTAP	59	360	3
NMTAP	60	24	3
NMTAP	60	48	5
NMTAP	60	96	1
NMTAP	60	96	6
NMTAP	60	144	0
NMTAP	60	168	7
NMTAP	60	192	0
NMTAP	60	216	7
NMTAP	60	240	0
BXTAP	60	288	1
BXTAP	60	288	6
NMTAP	61	0	2
NMSTR	61	0	6
NMSUL	61	0	6	96	192	1
NMSTR	61	192	1
NMSCR	61	192	1	96	192	6
NMSTR	62	0	6
NMSI_	62	0	6	96	96	3
EXTAP	62	192	0
CNSI_	62	192	3	0	96	1
EXTAP	62	288	0
NMSTR	63	0	1
NMSUR	63	0	1	96	192	6
NMTAP	63	0	7
NMSTR	63	192	6
NMSCL	63	192	6	96	192	1
NMSTR	64	0	1
NMSI_	64	0	1	96	96	4
CNSI_	64	192	4	0	96	6
EXTAP	64	192	7
EXTAP	64	288	7
NMSTR	65	0	6
NMSUL	65	0	6	96	192	2
NMSTR	65	192	2
NMSCR	65	192	2	96	192	6
NMSTR	66	0	6
NMSLL	66	0	6	96	192	2
EXTAP	66	192	7
EXTAP	66	288	0
NMSTR	67	0	1
NMSUR	67	0	1	96	192	5
NMTAP	67	0	7
NMSTR	67	192	5
NMSCL	67	192	5	96	192	1
NMSTR	68	0	1
NMSLR	68	0	1	96	192	5
EXTAP	68	192	7
EXTAP	68	288	7
NMTAP	69	0	6
NMTAP	69	32	4
NMTAP	69	64	6
NMTAP	69	96	4
NMTAP	69	128	6
NMTAP	69	160	4
NMTAP	69	192	5
NMTAP	69	224	3
NMTAP	69	256	5
NMTAP	69	288	3
NMTAP	69	320	5
NMTAP	69	352	3
NMTAP	70	0	4
NMTAP	70	32	2
NMTAP	70	64	4
NMTAP	70	96	2
NMTAP	70	128	4
NMTAP	70	160	2
NMTAP	70	192	3
NMTAP	70	224	1
NMTAP	70	256	4
EXHLD	70	288	0	0
NMTAP	71	0	1
NMTAP	71	32	3
NMTAP	71	64	1
NMTAP	71	96	3
NMTAP	71	128	1
NMTAP	71	160	3
NMTAP	71	192	2
NMTAP	71	224	4
NMTAP	71	256	2
NMTAP	71	288	4
NMTAP	71	320	2
NMTAP	71	352	4
NMTAP	72	0	3
NMTAP	72	32	5
NMTAP	72	64	3
NMTAP	72	96	5
NMTAP	72	128	3
NMTAP	72	160	5
NMTAP	72	192	4
NMTAP	72	224	6
NMTAP	72	256	3
EXHLD	72	288	7	0
NMHLD	73	0	6	0
NMHLD	73	32	4	0
NMHLD	73	64	5	0
NMHLD	73	96	4	0
NMHLD	73	128	5	0
NMHLD	73	160	4	0
NMHLD	73	192	6	0
NMHLD	73	224	3	0
NMHLD	73	256	4	0
NMHLD	73	288	3	0
NMHLD	73	320	4	0
NMHLD	73	352	3	0
NMHLD	74	0	5	0
NMHLD	74	32	2	0
NMHLD	74	64	3	0
NMHLD	74	96	2	0
NMHLD	74	128	3	0
NMHLD	74	160	2	0
NMHLD	74	192	4	0
NMHLD	74	224	1	0
NMHLD	74	256	3	0
EXHLD	74	288	0	0
NMTHO	75	0	0	0	C	0	M1
NMTAP	76	0	7
NMTAP	76	24	0
NMTAP	76	48	7
NMTAP	76	72	0
NMTAP	76	96	6
NMTAP	76	120	1
NMTAP	76	144	6
NMTAP	76	168	2
NMTAP	76	192	5
NMTAP	76	216	3
NMTAP	76	240	4
NMTAP	76	288	2
NMTAP	76	288	6
NMTTP	77	0	0	B	0	M1
NMTTP	77	0	0	C	0	M1
NMTTP	77	0	2	B	0	M1
NMTTP	77	0	2	A	0	M1
NMTTP	77	0	7	B	0	M1
NMTTP	77	0	7	E	0	M1
NMTTP	77	192	1	A	0	M1
NMTTP	77	192	1	D	0	M1
NMTTP	77	192	2	D	0	M1
NMTTP	77	192	5	A	0	M1
NMTTP	77	192	6	B	0	M1
NMTTP	77	192	6	E	0	M1
NMTTP	78	0	0	D	0	M1
NMTTP	78	0	3	E	0	M1
NMTTP	78	0	3	A	0	M1
NMTTP	78	0	3	D	0	M1
NMTTP	78	0	7	A	0	M1
NMTTP	78	0	7	D	0	M1
NMTTP	78	192	0	E	0	M1
NMTTP	78	192	2	E	0	M1
NMTTP	78	192	2	A	0	M1
NMTTP	78	192	2	D	0	M1
NMTTP	78	192	7	B	0	M1
NMTTP	78	192	7	E	0	M1
NMTTP	79	0	0	D	0	M1
NMTTP	79	0	1	B	0	M1
NMTTP	79	0	1	E	0	M1
NMTTP	79	0	1	A	0	M1
NMTTP	79	0	7	A	0	M1
NMTTP	79	0	7	D	0	M1
NMTTP	79	192	2	B	0	M1
NMTTP	79	192	3	B	0	M1
NMTTP	79	192	4	E	0	M1
NMTTP	79	192	5	B	0	M1
NMTTP	79	192	5	E	0	M1
NMTTP	79	192	6	B	0	M1
NMTTP	80	0	0	B	0	M1
NMTTP	80	0	1	E	0	M1
NMTTP	80	0	3	B	0	M1
NMTTP	80	0	4	B	0	M1
NMTTP	80	0	5	E	0	M1
NMTTP	80	0	7	B	0	M1
NMTTP	80	192	4	E	0	M1
NMTTP	80	192	4	A	0	M1
NMTTP	80	192	4	D	0	M1
NMTTP	80	192	5	A	0	M1
NMTTP	80	192	6	E	0	M1
NMTTP	80	192	6	A	0	M1
NMTTP	80	192	6	D	0	M1
NMTTP	81	0	0	B	0	M1
NMTTP	81	0	0	C	0	M1
NMTTP	81	0	2	B	0	M1
NMTTP	81	0	2	A	0	M1
NMTTP	81	0	7	B	0	M1
NMTTP	81	0	7	E	0	M1
NMTTP	81	192	1	A	0	M1
NMTTP	81	192	1	D	0	M1
NMTTP	81	192	2	D	0	M1
NMTTP	81	192	5	A	0	M1
NMTTP	81	192	6	B	0	M1
NMTTP	81	192	6	E	0	M1
NMTTP	82	0	0	D	0	M1
NMTTP	82	0	3	E	0	M1
NMTTP	82	0	3	A	0	M1
NMTTP	82	0	3	D	0	M1
NMTTP	82	0	7	A	0	M1
NMTTP	82	0	7	D	0	M1
NMTTP	82	192	0	E	0	M1
NMTTP	82	192	2	E	0	M1
NMTTP	82	192	2	A	0	M1
NMTTP	82	192	2	D	0	M1
NMTTP	82	192	7	B	0	M1
NMTTP	82	192	7	E	0	M1
NMTTP	83	0	4	E	0	M1
NMTTP	83	0	4	A	0	M1
NMTTP	83	0	4	D	0	M1
NMTTP	83	0	5	A	0	M1
NMTTP	83	0	6	E	0	M1
NMTTP	83	0	6	D	0	M1
NMTTP	83	192	0	B	0	M1
NMTTP	83	192	1	E	0	M1
NMTTP	83	192	3	B	0	M1
NMTTP	83	192	4	B	0	M1
NMTTP	83	192	5	E	0	M1
NMTTP	83	192	7	B	0	M1
NMTAP	84	0	2
NMTAP	84	48	2
NMTAP	84	96	4
NMTAP	84	120	3
NMTAP	84	144	4
NMTAP	84	192	2
NMTAP	84	216	3
NMTAP	84	240	2
NMTAP	84	288	5
NMTAP	84	312	4
NMTAP	84	336	5
NMHLD	85	0	2	48
NMTAP	85	0	6
NMHLD	85	96	2	48
NMTAP	85	96	6
NMTAP	85	192	3
NMHLD	85	192	5	48
NMTAP	85	288	3
NMHLD	85	288	5	48
NMHLD	86	0	2	48
NMTAP	86	0	4
NMHLD	86	96	2	48
NMTAP	86	96	4
NMHLD	86	192	1	48
NMTAP	86	192	5
NMHLD	86	288	1	48
NMTAP	86	288	5
NMHLD	87	0	0	48
NMTAP	87	0	2
NMHLD	87	96	1	48
NMTAP	87	96	3
NMHLD	87	192	2	48
NMTAP	87	192	4
NMHLD	87	288	3	48
NMTAP	87	288	5
NMHLD	88	0	4	48
NMTAP	88	0	6
NMTAP	88	96	5
NMHLD	88	96	7	48
NMTAP	88	192	4
NMHLD	88	192	6	48
NMTAP	88	288	3
NMHLD	88	288	5	48
NMTAP	89	0	2
NMHLD	89	0	6	48
NMHLD	89	96	2	48
NMTAP	89	96	6
NMTAP	89	192	1
NMHLD	89	192	5	48
NMHLD	89	288	1	48
NMTAP	89	288	5
NMHLD	90	0	0	48
NMTAP	90	0	4
NMTAP	90	96	0
NMHLD	90	96	4	48
NMHLD	90	192	3	48
NMTAP	90	192	7
NMTAP	90	288	3
NMHLD	90	288	7	48
NMTAP	91	0	4
NMHLD	91	0	6	48
NMTAP	91	96	3
NMHLD	91	96	5	48
NMTAP	91	192	2
NMHLD	91	192	4	48
NMTAP	91	288	1
NMHLD	91	288	3	48
NMTAP	92	0	0
NMHLD	92	0	2	48
NMTAP	92	96	1
NMHLD	92	96	7	48
NMHLD	92	192	0	48
NMTAP	92	192	2
NMHLD	92	288	1	48
NMTAP	92	288	3
NMTHO	93	0	0	672	C	1	M1
NMSTR	93	0	7
NMSI_	93	0	7	96	192	4
NMTTP	94	0	4	E	0	M1
NMTTP	94	96	3	E	0	M1
NMTTP	94	192	5	E	0	M1
EXSTR	94	288	7
BRSTR	95	0	7
NMSI_	95	0	7	96	48	1
NMSTR	95	48	0
NMSTR	95	96	7
NMSI_	95	96	7	96	48	5
NMSTR	95	144	2
NMSTR	95	192	7
NMSCR	95	192	7	96	48	1
NMSTR	95	240	3
NMSTR	95	288	7
NMSCL	95	288	7	96	48	5
NMSTR	95	336	4
NMSTR	96	0	7
NMSI_	96	0	7	96	48	1
NMSTR	96	48	3
NMSTR	96	96	7
NMSI_	96	96	7	96	48	5
NMSTR	96	144	2
NMSTR	96	192	7
NMSI_	96	192	7	96	48	1
NMSTR	96	240	4
EXSTR	96	288	7
NMSCL	96	288	7	96	48	5
NMSTR	96	336	2
NMSTR	97	0	7
NMSI_	97	0	7	96	48	2
NMSTR	97	48	3
NMSTR	97	96	7
NMSI_	97	96	7	96	48	4
NMSTR	97	144	4
NMSTR	97	192	7
NMSCR	97	192	7	96	48	2
NMSTR	97	240	2
NMSTR	97	288	7
NMSCL	97	288	7	96	48	4
NMSTR	97	336	3
NMSTR	98	0	7
NMSI_	98	0	7	96	48	2
NMSTR	98	48	1
NMSTR	98	96	7
NMSI_	98	96	7	96	48	4
NMSTR	98	144	4
NMSTR	98	192	7
NMSCR	98	192	7	96	48	2
NMSTR	98	240	1
NMSTR	98	288	7
NMSCL	98	288	7	96	48	4
NMSTR	98	336	4
NMSTR	99	0	7
NMSI_	99	0	7	96	48	2
NMSTR	99	48	1
NMSTR	99	96	7
NMSI_	99	96	7	96	48	4
NMSTR	99	144	5
NMSTR	99	192	7
NMSCR	99	192	7	96	48	2
EXSTR	99	240	0
NMSTR	99	288	7
NMSCL	99	288	7	96	48	4
NMSTR	99	336	4
NMSTR	100	0	7
NMSI_	100	0	7	96	48	2
NMSTR	100	48	1
NMSTR	100	96	7
NMSI_	100	96	7	96	48	4
NMSTR	100	144	4
NMSTR	100	192	7
NMSCR	100	192	7	96	48	2
NMSTR	100	240	0
NMSTR	100	288	7
NMSCL	100	288	7	96	48	4
NMSTR	100	336	4
NMSTR	101	0	7
NMSI_	101	0	7	96	48	1
NMSTR	101	48	0
NMSTR	101	96	7
NMSI_	101	96	7	96	48	5
NMSTR	101	144	3
NMSTR	101	192	7
NMSCR	101	192	7	96	48	1
NMSTR	101	240	1
NMSTR	101	288	7
NMSCL	101	288	7	96	48	5
NMSTR	101	336	4
NMSTR	102	0	7
NMSI_	102	0	7	96	48	1
NMSTR	102	48	1
NMSTR	102	96	7
NMSI_	102	96	7	96	48	5
NMSTR	102	144	4
NMSTR	102	192	7
NMSI_	102	192	7	96	48	1
NMSTR	102	240	3
NMSTR	102	288	7
NMSCL	102	288	7	96	48	5
NMSTR	102	336	5
NMSTR	103	0	7
NMSI_	103	0	7	96	48	2
NMSTR	103	48	2
NMSTR	103	96	7
NMSI_	103	96	7	96	48	4
NMSTR	103	144	4
NMSTR	103	192	7
NMSCR	103	192	7	96	48	2
NMSTR	103	240	1
NMSTR	103	288	7
NMSCL	103	288	7	96	48	4
NMSTR	103	336	4
NMSTR	104	0	7
NMSI_	104	0	7	96	48	2
NMSTR	104	48	1
NMSTR	104	96	7
NMSI_	104	96	7	96	48	4
NMSTR	104	144	4
NMSTR	104	192	7
NMSCR	104	192	7	96	48	2
NMSTR	104	240	1
NMSTR	104	288	7
NMSCL	104	288	7	96	48	4
NMSTR	104	336	4
NMSTR	105	0	7
NMSI_	105	0	7	96	48	2
NMSTR	105	48	1
NMSTR	105	96	7
NMSI_	105	96	7	96	48	4
NMSTR	105	144	5
NMSTR	105	192	7
NMSCR	105	192	7	96	48	2
NMSTR	105	240	0
NMSTR	105	288	7
NMSCL	105	288	7	96	48	4
NMSTR	105	336	4
NMSTR	106	0	7
NMSI_	106	0	7	96	48	2
NMSTR	106	48	1
NMSTR	106	96	7
NMSI_	106	96	7	96	48	4
NMSTR	106	144	4
NMSTR	106	192	7
NMSCR	106	192	7	96	48	2
NMSTR	106	240	0
NMSTR	106	288	7
NMSCL	106	288	7	96	48	4
NMSTR	106	336	4
NMSTR	107	0	7
NMSCR	107	0	7	96	24	0
NMSTR	107	48	0
NMSTR	107	96	7
NMSCL	107	96	7	96	24	6
CNSI_	107	120	0	0	24	2
NMSTR	107	144	5
NMSTR	107	192	7
NMSI_	107	192	7	96	24	1
CNSI_	107	216	6	0	24	4
NMSTR	107	240	2
NMSTR	107	288	7
NMSI_	107	288	7	96	24	5
CNSCR	107	312	1	0	24	2
NMSTR	107	336	4
NMSTR	108	0	7
NMSCR	108	0	7	96	48	2
CNSCL	108	24	5	0	24	4
NMSTR	108	48	2
NMSTR	108	96	7
NMSI_	108	96	7	96	48	4
NMSTR	108	144	5
NMSTR	108	192	7
NMSI_	108	192	7	96	48	2
NMSTR	108	240	2
NMSTR	108	288	7
NMSCL	108	288	7	96	48	4
NMSTR	108	336	4
NMSTR	109	0	7
NMSI_	109	0	7	96	48	1
NMSTR	109	48	2
NMSTR	109	96	7
NMSI_	109	96	7	96	48	4
NMSTR	109	144	3
NMSTR	109	192	7
NMSI_	109	192	7	96	48	2
NMSTR	109	240	1
NMSTR	109	288	7
NMSCL	109	288	7	96	48	4
NMSTR	109	336	5
NMSTR	110	0	7
NMSCR	110	0	7	96	48	2
NMSTR	110	48	1
NMSTR	110	96	7
NMSI_	110	96	7	96	48	4
NMSTR	110	144	4
NMSTR	110	192	7
NMSI_	110	192	7	96	48	3
NMSTR	110	240	2
BRSTR	110	288	7
NMSTR	111	0	1
NMSTR	111	24	3
NMSTR	111	72	3
NMSTR	111	96	2
NMSI_	111	96	2	96	48	7
NMSTR	111	144	2
NMSTR	111	192	5
NMSI_	111	192	5	96	48	0
NMSTR	111	240	5
NMSTR	111	288	3
NMSTR	111	336	2
NMSTR	112	0	1
NMSTR	112	24	7
NMSTR	112	72	7
NMSTR	112	96	2
NMSI_	112	96	2	96	48	6
NMSTR	112	144	2
NMSTR	112	192	5
NMSI_	112	192	5	96	48	1
NMSTR	112	240	5
NMSTR	112	288	4
NMSTR	112	336	3
NMSTR	113	0	2
NMSTR	113	24	0
NMSTR	113	72	0
NMSTR	113	96	1
NMSCR	113	96	1	96	48	4
NMSTR	113	144	1
NMSTR	113	192	6
NMSCR	113	192	6	96	48	1
NMSTR	113	240	6
NMSTR	113	288	2
NMSTR	113	336	2
NMSTR	114	0	2
NMSTR	114	1	3
NMSTR	114	48	4
NMSTR	114	49	3
NMSTR	114	96	4
NMHLD	114	97	5	47
NMSTR	114	144	3
NMSTR	114	168	2
NMSTR	114	192	1
NMSTR	114	216	0
NMSTR	114	240	6
NMSTR	114	241	7
NMSTR	114	288	5
NMSTR	114	289	0
NMSTR	115	0	2
NMSTR	115	24	3
NMSTR	115	72	3
NMSTR	115	96	1
NMSCL	115	96	1	96	48	6
NMSTR	115	144	1
NMSTR	115	192	4
NMSI_	115	192	4	96	48	0
NMSTR	115	240	5
NMSTR	115	288	2
NMSTR	115	336	2
NMSTR	116	0	1
NMSTR	116	24	7
NMSTR	116	72	7
NMSTR	116	96	2
NMSCL	116	96	2	96	48	7
NMSTR	116	144	2
NMSTR	116	192	6
NMSV_	116	192	6	96	48	3
NMSTR	116	240	5
NMSTR	116	288	2
NMSTR	117	0	1
BXSTR	117	1	3
NMSTR	117	48	7
BXSTR	117	49	0
NMSTR	117	96	4
BXSTR	117	97	6
NMSTR	117	144	5
NMSTR	117	168	3
NMSTR	117	216	3
NMSTR	117	240	5
NMSTR	117	288	6
NMSTR	117	289	2
NMSTR	117	336	1
NMSTR	117	360	0
NMSTR	118	0	2
NMSTR	118	24	7
NMSTR	118	48	3
NMSTR	118	72	6
NMSTR	118	96	4
NMSTR	118	120	5
NMSTR	118	144	3
NMSTR	118	168	4
NMSTR	118	192	2
NMSTR	118	216	3
NMSTR	118	240	0
EXSTR	118	287	7
NMSV_	118	287	7	96	49	2
EXSTR	118	288	1
NMSV_	118	288	1	96	48	4
BRSTR	119	0	1

T_REC_TAP	338
T_REC_BRK	5
T_REC_XTP	38
T_REC_BXX	5
T_REC_HLD	115
T_REC_XHO	6
T_REC_BHO	1
T_REC_BXH	0
T_REC_STR	271
T_REC_BST	7
T_REC_XST	5
T_REC_XBS	3
T_REC_TTP	132
T_REC_THO	3
T_REC_SLD	151
T_REC_BSL	0
T_REC_ALL	1080
T_NUM_TAP	784
T_NUM_BRK	21
T_NUM_HLD	124
T_NUM_SLD	151
T_NUM_ALL	1080
T_JUDGE_TAP	804
T_JUDGE_HLD	207
T_JUDGE_SLD	151
T_JUDGE_ALL	1162
TTM_EACHPAIRS	127
TTM_SCR_TAP	392000
TTM_SCR_BRK	54600
TTM_SCR_HLD	124000
TTM_SCR_SLD	226500
TTM_SCR_ALL	797100
TTM_SCR_S	771150
TTM_SCR_SS	795000
TTM_RAT_ACV	10026

