VERSION	0.00.00	1.05.00
FES_MODE	1
BPM_DEF	154.000	154.000	154.000	154.000
MET_DEF	4	4
RESOLUTION	384
CLK_DEF	384
COMPATIBLE_CODE	MA2

BPM	0	0	154.000
MET	0	0	4	4

NMHLD	1	192	3	96
NMHLD	1	192	4	96
NMTAP	2	0	5
NMTAP	2	48	5
NMTAP	2	96	3
NMTAP	2	144	3
NMTAP	2	192	2
NMTAP	2	192	4
NMTAP	2	264	3
NMTAP	2	264	5
NMTAP	2	336	4
NMHLD	2	336	6	72
NMTAP	3	24	4
NMTAP	3	36	5
NMTAP	3	48	4
NMTAP	3	96	3
NMTAP	3	144	3
NMTAP	3	192	2
NMTAP	3	192	4
NMTAP	3	264	1
NMTAP	3	264	3
NMTTP	3	336	2	E	0	M1
NMTTP	3	348	2	B	0	M1
NMTTP	3	360	3	B	0	M1
NMTTP	3	372	4	B	0	M1
NMTAP	4	0	6
NMTAP	4	48	6
NMTAP	4	96	0
NMTAP	4	144	0
NMTAP	4	192	1
NMTAP	4	192	7
NMTAP	4	264	0
NMTAP	4	264	2
NMHLD	4	336	1	72
NMTAP	4	336	3
NMTAP	5	24	3
NMTAP	5	36	2
NMTAP	5	48	3
NMTAP	5	96	5
NMTAP	5	144	5
NMTAP	5	192	5
NMTAP	5	208	4
NMTAP	5	224	3
NMTAP	5	240	2
BRTAP	5	288	7
NMSTR	6	0	6
NMSI_	6	0	6	96	48	3
NMTAP	6	48	6
NMSTR	6	96	1
NMSI_	6	96	1	96	48	4
NMTAP	6	144	1
NMTAP	6	192	7
NMTAP	6	264	6
NMTAP	6	336	3
NMHLD	6	336	5	72
NMTAP	7	24	2
NMTAP	7	36	4
NMTAP	7	48	2
NMTAP	7	96	1
NMTAP	7	144	1
NMTAP	7	192	0
NMTAP	7	192	7
NMTAP	7	216	0
NMTAP	7	216	7
NMTAP	7	264	1
NMTAP	7	264	6
NMTAP	7	288	1
NMTAP	7	288	6
NMTAP	7	336	2
NMHLD	7	336	5	96
NMTAP	8	48	4
NMTAP	8	96	6
NMTAP	8	96	7
NMTAP	8	144	6
NMTAP	8	144	7
NMTAP	8	192	0
NMTAP	8	192	1
NMTAP	8	240	0
NMTAP	8	240	1
NMTAP	8	288	2
NMTAP	8	288	3
NMTAP	8	336	2
NMTAP	8	352	3
NMTAP	8	368	2
NMTAP	9	0	4
NMTAP	9	32	2
NMTAP	9	64	0
NMSTR	9	96	4
NMSCR	9	96	4	96	96	0
NMTAP	9	128	2
NMTAP	9	160	0
NMTAP	10	0	1
NMTAP	10	24	3
NMTAP	10	48	1
NMTAP	10	96	2
NMTAP	10	96	4
NMTAP	10	144	2
NMTAP	10	144	4
NMTAP	10	192	3
NMTAP	10	192	5
NMTAP	10	264	4
NMTAP	10	264	6
NMTAP	10	336	5
NMHLD	10	336	7	96
NMTAP	11	48	3
NMTAP	11	96	3
NMTAP	11	144	4
NMTAP	11	144	6
NMTAP	11	192	3
NMTAP	11	192	5
NMTAP	11	264	2
NMTAP	11	264	4
NMTAP	11	336	1
NMTAP	11	336	3
NMHLD	12	0	1	48
NMHLD	12	0	3	48
NMHLD	12	96	1	48
NMHLD	12	96	3	48
NMTAP	12	192	0
NMTAP	12	192	2
NMTAP	12	264	1
NMTAP	12	264	3
NMTAP	12	336	2
NMTAP	12	336	4
NMTAP	13	0	2
NMSTR	13	0	4
NMSI_	13	0	4	96	48	7
NMTAP	13	96	1
NMSTR	13	192	0
NMSI_	13	192	0	96	48	3
EXTAP	13	240	7
NMTAP	13	288	6
EXTAP	13	336	7
NMTAP	14	0	6
NMTAP	14	24	4
NMTAP	14	48	6
NMTAP	14	96	3
NMTAP	14	96	5
NMTAP	14	144	3
NMTAP	14	144	5
NMTAP	14	192	2
NMTAP	14	192	4
NMTAP	14	240	1
NMTAP	14	264	3
NMTAP	14	312	3
NMHLD	14	336	1	84
NMTAP	15	48	4
NMTAP	15	96	2
NMTAP	15	144	1
NMTAP	15	144	3
NMTAP	15	192	2
NMTAP	15	192	4
NMTAP	15	240	5
NMTAP	15	264	3
NMTAP	15	312	3
NMTAP	15	336	5
NMHLD	16	0	4	48
NMHLD	16	0	6	48
NMHLD	16	96	4	48
NMHLD	16	96	6	48
NMTAP	16	192	5
NMTAP	16	192	7
NMTAP	16	264	4
NMTAP	16	264	6
NMTAP	16	336	3
NMTAP	16	336	5
NMTAP	17	0	3
NMSTR	17	0	5
NMSI_	17	0	5	96	48	2
NMTAP	17	96	2
NMSTR	17	192	1
BRSI_	17	192	1	96	48	6
BRTAP	17	288	4
NMTAP	18	0	5
NMTAP	18	48	5
NMTAP	18	96	4
NMTAP	18	144	3
NMTAP	18	192	2
NMTAP	18	240	2
NMTAP	18	288	3
NMTAP	18	336	3
NMTAP	19	0	4
NMTAP	19	48	5
NMTAP	19	96	3
NMTAP	19	144	2
NMSTR	19	192	1
NMSCR	19	192	1	96	48	3
NMTAP	19	240	0
NMTAP	19	288	7
NMTAP	20	0	4
NMTAP	20	48	3
NMTAP	20	96	2
NMTAP	20	144	4
NMTAP	20	192	5
NMTAP	20	240	5
NMTAP	20	288	3
NMTAP	20	336	2
NMHLD	21	0	1	96
NMHLD	21	96	0	96
NMHLD	21	192	2	96
EXTAP	21	288	7
NMTTP	21	336	1	E	0	M1
NMTTP	21	348	1	B	0	M1
NMTTP	21	360	2	B	0	M1
NMTTP	21	372	3	B	0	M1
NMTAP	22	0	6
NMTAP	22	48	5
NMTAP	22	96	4
NMTAP	22	144	3
NMTAP	22	192	2
NMTAP	22	240	3
NMTAP	22	288	4
NMTAP	22	336	5
NMTAP	23	0	6
NMTAP	23	0	7
NMTAP	23	48	7
NMTAP	23	96	0
NMTAP	23	96	1
NMTAP	23	144	0
NMTAP	23	192	2
NMTAP	23	192	3
NMTAP	23	240	1
NMTAP	23	240	4
NMHLD	23	288	0	96
NMTAP	23	288	5
NMSTR	24	0	7
NMSI_	24	0	7	96	48	4
NMTAP	24	48	7
NMTAP	24	96	1
NMSTR	24	192	0
NMSI_	24	192	0	96	48	3
NMTAP	24	240	0
NMSTR	24	288	6
NMSCL	24	288	6	96	48	4
EXTAP	25	0	6
NMTAP	25	96	2
NMTAP	25	96	3
BRTAP	25	144	1
NMTAP	25	192	0
NMTAP	25	192	7
NMTAP	25	240	1
NMTAP	25	240	6
NMTAP	25	288	2
NMHLD	25	288	5	48
NMTAP	25	336	3
NMHLD	26	0	2	72
NMTAP	26	0	4
NMTAP	26	72	4
NMTAP	26	144	1
NMTAP	26	144	4
NMHLD	26	192	1	72
NMTAP	26	192	3
NMTAP	26	264	3
NMTAP	26	336	1
NMTAP	26	336	3
NMSTR	27	0	0
NMSI_	27	0	0	96	48	3
NMTAP	27	0	4
NMTAP	27	72	5
NMTAP	27	144	6
NMSTR	27	192	7
NMSCL	27	192	7	96	48	4
NMTAP	27	240	7
NMTAP	27	288	3
NMTAP	27	336	2
NMHLD	28	0	1	288
NMTTP	28	96	0	E	0	M1
NMTTP	28	192	0	C	0	M1
NMTHO	28	288	4	96	E	0	M1
NMTTP	29	0	0	C	1	M1
NMTAP	29	192	6
NMTAP	29	240	7
NMTAP	29	288	0
NMTAP	29	336	1
NMHLD	30	0	1	72
NMHLD	30	72	3	72
NMTAP	30	144	2
NMTAP	30	192	2
NMTAP	30	192	3
NMTAP	30	264	3
NMTAP	30	264	5
NMTAP	30	336	4
NMTAP	30	336	6
NMSTR	31	0	7
NMSCL	31	0	7	96	48	5
NMSTR	31	96	7
NMSCL	31	96	7	96	48	4
NMSTR	31	192	7
NMSCL	31	192	7	96	48	3
NMTAP	31	288	7
NMTAP	32	0	1
NMTAP	32	48	1
NMTAP	32	96	2
NMTAP	32	96	4
NMTAP	32	144	3
NMTAP	32	144	5
NMTAP	32	192	2
NMTAP	32	192	6
NMTAP	32	264	0
NMTAP	32	264	7
NMTAP	32	336	2
NMHLD	32	336	5	144
NMSTR	33	96	1
NMSI_	33	96	1	96	48	5
NMSTR	33	192	3
NMSI_	33	192	3	96	48	7
NMTAP	33	288	5
EXTAP	34	0	6
NMTAP	34	24	7
NMTAP	34	48	6
NMTAP	34	96	4
NMTAP	34	96	5
NMTAP	34	144	3
NMTAP	34	144	4
NMTAP	34	192	2
NMTAP	34	192	3
NMTAP	34	240	2
NMTAP	34	264	3
NMSTR	34	288	2
NMSI_	34	288	2	96	48	5
NMTAP	34	336	5
NMSTR	35	0	7
NMSI_	35	0	7	96	48	4
NMTAP	35	48	7
NMSTR	35	96	0
NMSI_	35	96	0	96	48	3
NMTAP	35	144	0
NMSTR	35	192	5
NMSI_	35	192	5	96	48	2
NMTAP	35	240	5
BRTAP	35	288	3
NMTAP	36	0	0
NMTAP	36	48	1
NMTAP	36	72	7
NMTAP	36	96	1
NMTAP	36	144	0
NMTAP	36	144	6
NMTAP	36	192	1
NMTAP	36	192	5
NMTAP	36	264	2
NMTAP	36	264	3
NMHLD	36	336	4	144
NMTAP	36	336	5
NMSTR	37	96	7
NMSV_	37	96	7	96	48	4
NMSTR	37	192	3
NMSCL	37	192	3	96	48	0
NMTAP	37	288	7
EXTAP	38	0	1
NMTAP	38	24	0
NMTAP	38	48	1
NMTAP	38	96	2
NMTAP	38	96	3
NMTAP	38	144	3
NMTAP	38	144	4
NMTAP	38	192	4
NMTAP	38	192	5
NMTAP	38	240	6
NMTAP	38	264	7
NMSTR	38	288	5
NMSI_	38	288	5	96	48	2
NMTAP	38	336	2
NMSTR	39	0	0
NMSI_	39	0	0	96	48	3
NMTAP	39	48	0
NMSTR	39	96	7
NMSI_	39	96	7	96	48	4
NMTAP	39	144	7
NMSTR	39	192	2
NMSI_	39	192	2	96	48	5
NMTAP	39	240	2
BRTAP	39	288	4
NMTAP	40	0	4
NMSTR	40	0	7
NMSI_	40	0	7	96	48	3
NMSTR	40	96	3
NMSI_	40	96	3	96	48	7
NMTAP	40	192	2
NMHLD	40	264	1	72
BRTAP	40	336	7
NMTTP	41	24	6	E	0	M1
NMTTP	41	36	5	B	0	M1
NMTTP	41	48	4	B	0	M1
NMTTP	41	60	3	B	0	M1
EXTAP	41	96	0
NMTAP	41	144	0
NMTAP	41	192	0
NMTAP	41	192	1
NMTAP	41	240	0
NMTAP	41	240	7
NMTAP	41	288	6
NMSTR	41	288	7
NMSI_	41	288	7	96	48	2
NMSI_	41	288	7	96	48	4
NMTAP	41	336	5
NMTTP	42	0	7	A	1	M1
NMTAP	42	96	3
NMTAP	42	96	4
NMTAP	42	192	6
NMTAP	42	192	7
NMTAP	42	240	0
NMTAP	42	240	7
NMSTR	42	288	0
NMSI_	42	288	0	96	48	3
NMSI_	42	288	0	96	48	5
NMTAP	42	288	1
NMTAP	42	336	2
NMTTP	43	0	0	A	0	M1
NMTAP	43	96	3
NMTAP	43	96	4
NMSTR	43	192	0
NMSI_	43	192	0	96	48	3
NMTAP	43	240	0
NMSTR	43	288	7
NMSI_	43	288	7	96	48	4
NMTAP	43	336	7
NMSTR	44	0	3
NMSCL	44	0	3	96	48	0
NMTAP	44	96	4
NMTAP	44	192	0
NMTAP	44	192	5
NMTAP	44	264	1
NMTAP	44	264	6
NMTAP	44	336	2
NMTAP	44	336	7
NMTAP	45	48	3
NMTAP	45	48	4
NMTAP	45	96	3
NMTAP	45	96	4
NMTAP	45	192	0
NMTAP	45	192	1
NMTAP	45	240	0
NMTAP	45	240	7
NMTAP	45	288	6
NMSTR	45	288	7
NMSI_	45	288	7	96	48	2
NMSI_	45	288	7	96	48	4
NMTAP	45	336	5
NMTTP	46	0	7	A	1	M1
NMTAP	46	96	2
NMTAP	46	96	5
NMTAP	46	192	6
NMTAP	46	192	7
NMTAP	46	240	0
NMTAP	46	240	7
NMSTR	46	288	0
NMSI_	46	288	0	96	48	3
NMSI_	46	288	0	96	48	5
NMTAP	46	288	1
NMTAP	46	336	2
NMTTP	47	0	0	A	0	M1
NMTAP	47	96	2
NMTAP	47	96	5
NMHLD	47	192	5	48
NMHLD	47	240	4	48
NMHLD	47	288	3	48
NMHLD	47	336	2	48
NMSTR	48	0	7
NMSCL	48	0	7	96	48	4
NMSTR	48	96	3
NMSCL	48	96	3	96	48	0
NMTAP	48	192	4
NMTAP	48	264	6
NMSTR	48	336	0
NMSCR	48	336	0	96	96	4
NMTTP	49	96	0	C	0	M1
BRTAP	49	240	4
BRTAP	49	240	5
BRTAP	49	312	2
BRTAP	49	312	3
BRTAP	50	0	1
BRTAP	50	0	6
NMTAP	50	96	6
NMTAP	50	96	7
NMTAP	50	144	0
NMTAP	50	192	0
NMTAP	50	192	1
NMTAP	50	240	2
NMTAP	50	264	3
NMTAP	50	288	1
NMTAP	50	336	0
NMTAP	50	336	7
NMTAP	51	0	6
NMTAP	51	0	7
NMTAP	51	48	5
NMTAP	51	72	4
NMTAP	51	96	6
NMTAP	51	144	6
NMTAP	51	168	4
NMTAP	51	192	5
NMTAP	51	216	3
NMHLD	51	264	2	72
NMHLD	51	264	5	72
NMTAP	52	0	3
NMTAP	52	0	4
NMTAP	52	48	5
NMTAP	52	64	4
NMTAP	52	80	5
NMTAP	52	96	4
NMTAP	52	144	2
NMTAP	52	160	3
NMTAP	52	176	2
NMTAP	52	192	3
NMTAP	52	240	4
NMTAP	52	256	3
NMTAP	52	272	4
NMTAP	52	288	2
NMTAP	52	312	5
NMTAP	52	336	1
NMTAP	52	360	6
NMTAP	53	0	0
NMTAP	53	24	1
NMTAP	53	48	2
NMTAP	53	72	3
NMTAP	53	96	4
NMTAP	53	120	5
NMTAP	53	144	6
NMTAP	53	168	7
NMTAP	53	192	4
NMTAP	53	216	3
NMTAP	53	240	2
NMTAP	53	264	1
NMTAP	53	288	0
NMTAP	53	312	7
NMTAP	53	336	6
NMTAP	53	360	5
NMTAP	54	0	2
NMTAP	54	24	3
NMTAP	54	48	2
NMTAP	54	72	3
NMTAP	54	96	2
NMTAP	54	120	4
NMTAP	54	144	2
NMTAP	54	168	4
NMTAP	54	192	3
NMTAP	54	216	5
NMTAP	54	240	3
NMTAP	54	264	5
NMTAP	54	288	2
NMHLD	54	312	2	72
NMTAP	55	0	0
NMHLD	55	24	0	72
NMTAP	55	96	7
NMTAP	55	120	7
NMTAP	55	192	0
NMTAP	55	192	6
NMTAP	55	208	5
NMTAP	55	224	4
NMTAP	55	240	3
NMTAP	55	288	2
NMTAP	55	288	3
NMTAP	55	336	2
NMTAP	55	336	3
NMTAP	56	0	0
NMTAP	56	0	1
BRSTR	56	48	2
NMSCR	56	48	2	96	48	5
BRTAP	56	48	7
NMSTR	56	144	6
NMSI_	56	144	6	96	48	1
EXTAP	56	240	3
EXTAP	56	252	2
EXTAP	56	288	2
NMTAP	56	336	7
NMTTP	57	0	0	C	1	M1
BRTAP	57	144	0
BRTAP	57	144	7
NMTAP	57	192	0
NMTAP	57	216	7
NMTAP	57	264	7
NMTAP	57	288	0
NMTAP	57	336	2
NMTAP	57	336	5
NMTAP	58	0	1
NMTAP	58	24	3
NMTAP	58	48	1
NMTAP	58	96	2
NMTAP	58	144	4
NMHLD	58	192	6	72
NMHLD	58	264	5	72
NMSTR	58	336	4
NMSCR	58	336	4	96	144	7
NMTAP	59	48	0
NMTAP	59	96	0
NMTAP	59	144	0
NMTAP	59	192	1
NMTAP	59	240	2
NMSTR	59	288	3
NMSXL	59	288	3	96	288	1
NMTTP	60	0	5	E	0	M1
NMTAP	60	144	7
EXTAP	60	192	7
NMHLD	60	336	5	96
NMTAP	61	48	2
NMTAP	61	72	3
NMTAP	61	96	4
NMTAP	61	120	5
NMTAP	61	144	4
NMTAP	61	168	3
NMTAP	61	192	2
NMTAP	61	192	5
NMTAP	61	288	1
NMTAP	61	288	6
NMTAP	62	0	2
NMTAP	62	24	3
NMTAP	62	48	2
NMTAP	62	96	2
NMTAP	62	96	4
NMTAP	62	144	2
NMTAP	62	144	4
NMTAP	62	192	2
NMTAP	62	192	3
NMTAP	62	264	4
NMTAP	62	264	5
NMTAP	62	336	3
NMHLD	62	336	6	96
NMTAP	63	48	4
NMTAP	63	96	4
NMTAP	63	96	6
NMTAP	63	144	4
NMTAP	63	192	4
NMTAP	63	192	5
NMTAP	63	240	3
NMTAP	63	240	4
NMTAP	63	288	2
NMHLD	63	288	3	96
NMTAP	64	0	1
NMTAP	64	96	4
NMTAP	64	96	6
NMTAP	64	192	6
NMTAP	64	192	7
NMTAP	64	264	0
NMTAP	64	264	1
NMTAP	64	336	2
NMHLD	64	336	7	240
NMTAP	65	48	4
NMSTR	65	96	4
NMSLL	65	96	4	96	72	0
NMTAP	65	144	4
NMTAP	65	192	4
NMTAP	65	264	6
NMTAP	65	288	6
NMHLD	65	336	0	240
NMTAP	65	336	5
NMTAP	66	48	3
NMTAP	66	96	3
NMTAP	66	144	3
NMSTR	66	192	3
NMSI_	66	192	3	96	48	7
NMTAP	66	240	4
NMTAP	66	264	2
EXTAP	66	288	3
NMTAP	67	0	0
NMTAP	67	24	6
NMTAP	67	48	0
NMTAP	67	96	4
NMTAP	67	96	5
NMTAP	67	144	3
NMTAP	67	144	4
BRTAP	67	192	0
BRTAP	67	192	2
BRTAP	67	264	5
BRTAP	67	264	7
BRTAP	67	336	0
BRTAP	67	336	4
NMTAP	68	24	1
NMTAP	68	48	3
NMTAP	68	96	3
NMTAP	68	96	4
NMTAP	68	144	3
NMTAP	68	144	4
NMTAP	68	192	3
NMTAP	68	192	6
NMTAP	68	240	4
NMTAP	68	240	5
NMTAP	68	288	3
NMSTR	68	288	6
NMSI_	68	288	6	96	48	2
NMTAP	69	0	2
BRTAP	69	0	6
NMTAP	69	48	1
NMTAP	69	72	1
NMTAP	69	96	1
NMTAP	69	144	0
NMTAP	69	144	7
NMTAP	69	192	6
NMTAP	69	192	7
NMTAP	69	264	4
NMTAP	69	264	5
NMTAP	69	336	2
NMHLD	69	336	3	144
NMSTR	70	96	0
NMSCR	70	96	0	96	48	3
NMSTR	70	192	4
NMSV_	70	192	4	96	48	7
NMTAP	70	288	3
NMTAP	71	0	6
NMTAP	71	24	7
NMTAP	71	48	6
NMTAP	71	96	6
NMTAP	71	96	7
NMTAP	71	144	0
NMTAP	71	144	7
NMTAP	71	192	0
NMTAP	71	192	1
NMTAP	71	264	2
NMTAP	71	264	3
NMTAP	71	336	4
NMTAP	71	336	5
NMSTR	72	0	6
NMSI_	72	0	6	96	48	3
NMTAP	72	48	6
NMSTR	72	96	0
NMSI_	72	96	0	96	48	4
NMTAP	72	144	0
NMSTR	72	192	7
NMSI_	72	192	7	96	48	3
NMTAP	72	240	7
NMTAP	72	288	1
NMSTR	73	0	2
NMSCL	73	0	2	96	48	7
NMTAP	73	0	4
NMTAP	73	96	2
NMSTR	73	96	6
NMSCL	73	96	6	96	48	3
NMTAP	73	192	0
NMTAP	73	192	6
NMTAP	73	240	1
NMHLD	73	264	1	72
NMTTP	73	336	2	B	0	M1
NMTTP	73	336	3	B	0	M1
NMTTP	73	336	3	E	1	M1
NMTAP	74	48	0
NMTAP	74	64	7
NMTAP	74	80	0
BRTAP	74	96	7
NMTAP	74	192	4
NMTAP	74	192	5
NMTAP	74	240	4
NMTAP	74	240	5
NMSTR	74	288	3
NMSI_	74	288	3	96	48	0
NMSI_	74	288	3	96	48	6
NMTAP	74	288	4
NMTAP	74	336	2
NMTTP	75	0	3	A	1	M1
NMTAP	75	96	1
NMTAP	75	96	6
NMTAP	75	192	2
NMTAP	75	192	3
NMTAP	75	240	2
NMTAP	75	240	3
NMTAP	75	288	3
NMSTR	75	288	4
NMSI_	75	288	4	96	48	1
NMSI_	75	288	4	96	48	7
NMTAP	75	336	5
NMTTP	76	0	4	A	0	M1
NMTAP	76	96	1
NMTAP	76	96	6
NMSTR	76	192	4
NMSI_	76	192	4	96	48	7
NMTAP	76	240	4
NMSTR	76	288	3
NMSI_	76	288	3	96	48	0
NMTAP	76	336	3
NMSTR	77	0	7
NMSCL	77	0	7	96	48	4
NMTAP	77	96	0
NMTAP	77	192	1
NMTAP	77	192	4
NMTAP	77	264	2
NMTAP	77	264	5
NMTAP	77	336	3
NMTAP	77	336	6
NMTAP	78	48	0
NMTAP	78	48	7
NMTAP	78	96	0
NMTAP	78	96	7
NMTAP	78	192	4
NMTAP	78	192	5
NMTAP	78	240	4
NMTAP	78	240	5
NMSTR	78	288	3
NMSI_	78	288	3	96	48	0
NMSI_	78	288	3	96	48	6
NMTAP	78	288	4
NMTAP	78	336	2
NMTTP	79	0	3	A	1	M1
NMTAP	79	96	1
NMTAP	79	96	5
NMTAP	79	192	2
NMTAP	79	192	3
NMTAP	79	240	2
NMTAP	79	240	3
NMTAP	79	288	3
NMSTR	79	288	4
NMSI_	79	288	4	96	48	1
NMSI_	79	288	4	96	48	7
NMTAP	79	336	5
NMTTP	80	0	4	A	0	M1
NMTAP	80	96	1
NMTAP	80	96	6
NMHLD	80	192	2	48
NMHLD	80	240	0	48
NMHLD	80	288	7	48
NMHLD	80	336	5	48
NMSTR	81	0	4
NMSCL	81	0	4	96	48	1
NMSTR	81	96	7
NMSCL	81	96	7	96	48	4
NMTAP	81	192	0
NMTAP	81	264	2
NMSTR	81	336	4
NMSCR	81	336	4	96	96	0
BRTAP	82	96	2
NMTAP	82	192	2
NMTAP	82	208	3
NMTAP	82	224	4
NMTAP	82	240	5
NMTAP	82	288	6
NMTAP	82	312	6
NMTAP	82	312	7
NMTAP	82	360	1
NMTAP	83	0	0
NMTAP	83	0	1
NMTAP	83	48	2
NMTAP	83	96	3
NMTAP	83	96	5
NMTAP	83	144	3
NMTAP	83	144	5
NMTAP	83	192	2
NMTAP	83	192	6
NMTAP	83	240	1
NMTAP	83	264	0
NMTAP	83	312	6
NMTAP	83	336	7
NMTAP	84	0	0
NMTAP	84	24	0
NMTAP	84	36	1
NMTAP	84	48	2
NMTAP	84	96	2
NMTAP	84	96	4
NMTAP	84	144	3
NMTAP	84	144	5
NMTAP	84	192	2
NMTAP	84	192	6
NMTAP	84	240	1
NMTAP	84	264	0
NMTAP	84	312	6
NMTAP	84	336	6
NMTAP	84	348	5
NMTAP	84	360	4
NMTAP	84	372	3
NMTAP	85	0	2
NMTAP	85	48	0
NMTAP	85	96	6
NMTAP	85	144	4
NMTAP	85	192	3
NMTAP	85	192	5
NMTAP	85	240	1
NMTAP	85	264	3
NMTAP	85	312	6
NMTAP	85	336	4
NMTAP	86	0	3
NMTAP	86	24	4
NMTAP	86	36	2
NMTAP	86	48	4
BRTAP	86	96	0
NMTAP	86	144	7
BRTAP	86	192	1
BRTAP	86	192	6
NMTAP	86	240	2
NMTAP	86	240	5
BRTAP	86	288	3
BRTAP	86	288	4
BXTAP	86	336	5
NMTAP	86	352	3
NMTAP	86	368	5
NMTAP	87	0	3
NMTAP	87	16	5
NMTAP	87	32	3
NMTAP	87	48	5
NMTAP	87	64	3
NMTAP	87	80	5
NMTAP	87	96	2
NMTAP	87	112	6
NMTAP	87	128	2
NMTAP	87	144	6
NMTAP	87	160	2
NMTAP	87	176	6
NMTAP	87	192	1
NMTAP	87	208	7
NMTAP	87	224	1
NMTAP	87	240	7
NMTAP	87	256	1
NMTAP	87	272	7
NMTAP	87	288	1
BRTAP	87	336	0
NMTAP	87	352	0
NMTAP	87	368	0
NMTAP	88	0	0
NMTAP	88	16	0
NMTAP	88	32	0
NMTAP	88	48	0
NMTAP	88	64	0
NMTAP	88	80	0
NMTAP	88	96	0
NMTAP	88	112	0
NMTAP	88	128	0
NMTAP	88	144	0
NMTAP	88	160	0
NMTAP	88	176	0
NMTAP	88	192	0
NMTAP	88	208	0
NMTAP	88	224	0
NMTAP	88	240	0
NMTAP	88	256	0
NMTAP	88	272	0
NMTAP	88	288	0
NMTAP	88	336	2
NMHLD	88	336	6	336
NMTTP	89	48	2	E	0	M1
NMTTP	89	96	3	E	0	M1
NMTTP	89	144	4	E	0	M1
NMTTP	89	192	5	E	0	M1
NMTTP	89	240	6	E	0	M1
NMTAP	89	288	0
NMTAP	89	336	0
NMTAP	89	348	1
NMTAP	89	360	2
NMTAP	89	372	3
NMTAP	90	0	7
NMTAP	90	32	7
NMTAP	90	64	7
NMTAP	90	96	3
NMTAP	90	96	7
NMTAP	90	128	2
NMTAP	90	128	6
NMTAP	90	160	1
NMTAP	90	160	5
NMSTR	90	192	0
NMSCR	90	192	0	96	48	3
NMTAP	90	192	4
BRTAP	90	288	0
NMTHO	90	288	0	1248	C	0	M1

T_REC_TAP	677
T_REC_BRK	31
T_REC_XTP	12
T_REC_BXX	1
T_REC_HLD	51
T_REC_XHO	0
T_REC_BHO	0
T_REC_BXH	0
T_REC_STR	64
T_REC_BST	1
T_REC_XST	0
T_REC_XBS	0
T_REC_TTP	34
T_REC_THO	2
T_REC_SLD	72
T_REC_BSL	1
T_REC_ALL	946
T_NUM_TAP	787
T_NUM_BRK	34
T_NUM_HLD	53
T_NUM_SLD	72
T_NUM_ALL	946
T_JUDGE_TAP	820
T_JUDGE_HLD	131
T_JUDGE_SLD	73
T_JUDGE_ALL	1024
TTM_EACHPAIRS	193
TTM_SCR_TAP	393500
TTM_SCR_BRK	88400
TTM_SCR_HLD	53000
TTM_SCR_SLD	108000
TTM_SCR_ALL	642900
TTM_SCR_S	620350
TTM_SCR_SS	639500
TTM_RAT_ACV	10053

