VERSION	0.00.00	1.05.00
FES_MODE	0
BPM_DEF	150.000	150.000	150.000	150.000
MET_DEF	4	4
RESOLUTION	384
CLK_DEF	384
COMPATIBLE_CODE	MA2

BPM	0	0	150.000
MET	0	0	4	4

NMTAP	1	0	6
NMTAP	1	48	6
NMTAP	1	96	4
NMTAP	1	144	4
NMTAP	1	192	3
NMTAP	1	192	5
NMTAP	1	264	3
NMTAP	1	264	5
NMSTR	1	336	6
NMSI_	1	336	6	96	48	2
NMTAP	2	48	2
NMSTR	2	96	1
NMSI_	2	96	1	96	48	4
NMTAP	2	192	6
NMHLD	2	240	7	96
NMTAP	2	336	4
NMTAP	3	0	4
NMTAP	3	48	6
NMTAP	3	96	6
NMTAP	3	144	3
NMTAP	3	192	3
NMSTR	3	240	5
NMSI_	3	240	5	96	48	1
NMTAP	3	288	5
NMSTR	3	336	2
NMSI_	3	336	2	96	48	6
NMTAP	4	0	2
NMSTR	4	48	4
NMSI_	4	48	4	96	48	0
NMTAP	4	96	4
NMSTR	4	144	3
NMSI_	4	144	3	96	48	7
NMTAP	4	192	3
NMTAP	4	240	5
NMTAP	4	288	5
NMTAP	5	0	6
NMTAP	5	0	7
NMTAP	5	72	6
NMTAP	5	96	4
NMTAP	5	144	1
NMTAP	5	144	3
NMTAP	5	192	0
NMTAP	5	192	1
NMTAP	5	264	1
NMTAP	5	288	3
NMTAP	5	336	4
NMTAP	5	336	6
NMTAP	6	0	6
NMTAP	6	0	7
NMTAP	6	72	6
NMTAP	6	96	4
NMTAP	6	144	1
NMTAP	6	144	3
NMTAP	6	192	0
NMTAP	6	192	1
NMTAP	6	264	1
NMTAP	6	288	3
NMTAP	6	336	4
NMTAP	6	336	6
NMTAP	7	0	6
NMTAP	7	0	7
NMTAP	7	48	6
NMTAP	7	48	7
NMTAP	7	96	4
NMTAP	7	96	5
NMTAP	7	144	4
NMTAP	7	144	5
NMTAP	7	192	2
NMTAP	7	216	3
NMTAP	7	240	2
NMTAP	7	264	3
NMTAP	7	288	2
NMTAP	7	300	1
NMTAP	7	312	0
NMTAP	7	324	7
NMTAP	7	336	6
NMTAP	7	348	5
NMTAP	7	360	4
NMTAP	7	372	3
NMTAP	8	0	2
NMTTP	8	144	6	E	0	M1
NMTTP	8	192	5	E	0	M1
NMTTP	8	240	4	E	0	M1
NMTTP	8	288	3	E	0	M1
NMTTP	8	336	2	E	0	M1
NMHLD	9	0	0	72
NMHLD	9	72	2	72
NMTAP	9	144	3
NMTAP	9	192	3
NMTAP	9	240	5
NMTAP	9	288	4
NMTAP	9	336	6
NMHLD	10	0	6	72
NMHLD	10	72	4	72
NMTAP	10	144	3
NMTAP	10	192	3
NMTAP	10	240	1
NMTAP	10	288	2
NMTAP	10	336	0
NMHLD	11	0	0	72
NMHLD	11	72	2	72
NMTAP	11	144	3
NMTAP	11	192	3
NMTAP	11	240	5
NMTAP	11	288	4
NMTAP	11	336	6
NMHLD	12	0	7	72
NMHLD	12	72	5	72
NMTAP	12	144	4
NMTAP	12	192	4
NMTAP	12	240	2
NMTAP	12	288	3
NMTAP	12	336	1
NMTAP	13	0	1
NMTAP	13	0	3
NMTAP	13	72	4
NMTAP	13	72	6
NMTAP	13	144	1
NMTAP	13	144	7
NMTAP	13	192	0
NMTAP	13	216	1
NMTAP	13	240	2
NMTAP	13	264	3
BRTAP	13	288	7
NMTAP	13	312	6
NMTAP	13	336	5
NMTAP	13	360	4
NMHLD	14	0	1	48
NMTAP	14	0	3
NMTAP	14	72	3
NMHLD	14	96	1	48
NMTAP	14	144	3
NMHLD	14	192	3	48
NMTAP	14	192	4
NMTAP	14	240	4
NMTAP	14	288	3
NMHLD	14	288	4	48
NMTAP	14	336	3
NMTAP	15	0	4
NMHLD	15	0	6	48
NMTAP	15	72	4
NMHLD	15	96	6	48
NMTAP	15	144	4
NMHLD	15	192	3	48
NMTAP	15	192	4
NMTAP	15	240	4
NMTAP	15	288	3
NMHLD	15	288	4	48
NMTAP	15	336	3
NMTAP	16	0	0
NMHLD	16	0	2	48
NMTAP	16	72	0
NMHLD	16	96	2	48
NMTAP	16	144	0
NMHLD	16	192	0	48
NMTAP	16	192	7
NMTAP	16	240	7
NMTAP	16	288	0
NMHLD	16	288	7	48
NMTAP	16	336	0
NMHLD	17	0	5	48
NMTAP	17	0	7
NMTAP	17	72	7
NMHLD	17	96	5	48
NMTAP	17	144	7
NMHLD	17	192	0	192
NMTAP	17	192	7
NMTTP	17	288	0	C	1	M1
EXTAP	18	0	6
NMTAP	18	48	7
NMTAP	18	72	7
NMTAP	18	96	7
NMTAP	18	120	7
NMTAP	18	144	7
NMTAP	18	168	7
NMTAP	18	192	7
NMTAP	18	216	7
NMTAP	18	240	7
NMTAP	18	264	7
NMTAP	18	288	7
NMTAP	18	312	7
NMTAP	18	336	7
NMTAP	18	360	7
NMTAP	19	0	7
NMTAP	19	16	6
NMTAP	19	32	5
NMTAP	19	48	4
NMTAP	19	72	0
NMTAP	19	96	0
NMTAP	19	112	1
NMTAP	19	128	2
NMTAP	19	144	3
NMTAP	19	168	7
NMTAP	19	192	7
NMTAP	19	208	6
NMTAP	19	224	5
NMTAP	19	240	4
NMTAP	19	264	0
NMHLD	19	288	0	48
NMHLD	19	288	5	48
NMTAP	20	0	4
NMHLD	20	0	6	48
NMTAP	20	72	4
NMHLD	20	96	6	48
NMTAP	20	144	4
NMTAP	20	192	3
NMHLD	20	192	4	48
NMTAP	20	240	3
NMHLD	20	288	3	48
NMTAP	20	288	4
NMTAP	20	336	4
NMHLD	21	0	1	48
NMTAP	21	0	3
NMTAP	21	72	3
NMHLD	21	96	1	48
NMTAP	21	144	3
NMSTR	21	192	3
NMSLL	21	192	3	96	48	7
NMHLD	21	192	4	48
NMTAP	21	240	3
NMTAP	22	0	6
NMTAP	22	12	5
NMTAP	22	24	4
NMTAP	22	48	0
NMTAP	22	72	0
NMTAP	22	96	6
NMTAP	22	108	5
NMTAP	22	120	4
NMTAP	22	144	0
NMTAP	22	168	0
NMTAP	22	192	6
NMTAP	22	216	1
NMTAP	22	228	2
NMTAP	22	240	3
NMTAP	22	264	7
NMHLD	22	288	7	48
NMSTR	22	336	0
NMSI_	22	336	0	96	48	4
NMTAP	23	48	5
NMHLD	23	96	6	144
NMTAP	23	240	4
NMTAP	23	288	5
NMTAP	23	336	6
NMTAP	24	0	7
NMTAP	24	48	0
NMTAP	24	48	6
NMTAP	24	96	1
NMTAP	24	96	5
NMTAP	24	144	2
NMTAP	24	144	4
NMTAP	24	192	3
NMTAP	24	240	2
NMTAP	24	288	1
NMSTR	24	336	0
NMSI_	24	336	0	96	48	3
NMTAP	25	0	0
NMTAP	25	48	6
NMSTR	25	96	7
NMSCL	25	96	7	96	48	4
NMTAP	25	144	7
NMTAP	25	192	2
NMTAP	25	240	1
NMTTP	25	288	4	E	0	M1
NMTTP	25	312	5	E	0	M1
NMTTP	25	336	6	E	0	M1
NMTTP	25	360	7	E	0	M1
BRTAP	26	0	0
NMTAP	26	24	0
NMTAP	26	48	0
NMTAP	26	72	0
BRTAP	26	96	0
NMTAP	26	120	0
BRTAP	26	144	0
NMTAP	26	168	0
BRTAP	26	192	0
NMTAP	26	216	0
BRTAP	26	240	0
NMTAP	26	264	0
BRSTR	26	288	0
BRSI_	26	288	0	96	48	4
NMTAP	26	312	0
BRTAP	26	336	0
NMTAP	26	360	0
NMSTR	27	0	0
BRSF_	27	0	0	96	48	4
NMTAP	27	240	3
NMTAP	27	240	5
NMTAP	27	336	6
NMHLD	28	0	6	48
NMTAP	28	48	4
NMHLD	28	96	4	48
NMTAP	28	144	3
NMHLD	28	192	3	48
NMTAP	28	240	1
NMHLD	28	288	1	48
NMSTR	28	336	7
NMSCL	28	336	7	96	144	4
NMTAP	29	48	3
NMTAP	29	96	2
NMTAP	29	144	1
NMTAP	29	192	0
NMTAP	29	216	1
NMTAP	29	240	2
NMTAP	29	264	3
NMTAP	29	288	7
NMTAP	29	312	6
NMTAP	29	336	5
NMTAP	29	360	4
NMTAP	30	0	3
NMTAP	30	48	3
NMTAP	30	144	1
NMTAP	30	144	5
NMTAP	30	192	1
NMTAP	30	192	5
NMSTR	30	288	2
NMSCL	30	288	2	96	48	7
NMSTR	30	288	6
NMSCL	30	288	6	96	48	3
NMTAP	31	0	2
NMTAP	31	0	6
NMTAP	31	96	0
NMTAP	31	96	4
NMTAP	31	144	5
NMSTR	31	192	6
NMSI_	31	192	6	96	48	2
NMTAP	31	288	2
NMTAP	31	336	1
NMTAP	31	360	1
NMTAP	32	0	0
NMTAP	32	48	6
NMTAP	32	72	7
NMTAP	32	120	1
NMTAP	32	144	0
NMTAP	32	168	1
NMTAP	32	192	0
NMTAP	32	240	2
NMTAP	32	240	3
NMTAP	32	288	4
NMTAP	32	288	5
NMTAP	32	336	6
NMTAP	32	360	6
NMTAP	33	0	7
NMTAP	33	48	1
NMTAP	33	72	0
NMTAP	33	96	1
NMTAP	33	120	0
NMTAP	33	168	6
NMTAP	33	192	7
NMTAP	33	216	6
NMTAP	33	240	7
NMTAP	33	288	4
NMTAP	33	288	5
NMTAP	33	336	2
NMTAP	33	336	3
NMTAP	34	48	1
NMTAP	34	72	3
NMTAP	34	96	2
NMTAP	34	144	6
NMTAP	34	168	4
NMTAP	34	192	5
NMTAP	34	240	2
NMTAP	34	264	4
NMSTR	34	288	3
NMSCL	34	288	3	96	96	7
NMSUL	34	288	3	96	96	7
NMTAP	34	312	5
NMTAP	34	336	4
NMTAP	35	144	6
NMHLD	35	192	6	96
NMTAP	35	288	4
NMTAP	35	336	1
NMTAP	35	360	3
NMTAP	36	0	2
NMTAP	36	48	5
NMTAP	36	72	4
NMTAP	36	96	5
NMTAP	36	120	4
NMTAP	36	144	6
NMTAP	36	168	4
NMSTR	36	192	6
NMSI_	36	192	6	96	48	3
NMTAP	36	240	6
NMTAP	36	336	1
NMTAP	37	0	0
NMTAP	37	16	1
NMTAP	37	32	2
NMTAP	37	48	3
NMTAP	37	96	4
NMTAP	37	96	5
NMTAP	37	144	6
NMTAP	37	168	6
NMTAP	37	192	4
NMTAP	37	216	4
NMTAP	37	240	7
NMTAP	37	264	0
NMTAP	37	288	7
NMTAP	37	300	6
NMTAP	37	312	5
NMTAP	37	324	4
NMTAP	37	336	3
NMTAP	37	348	2
NMTAP	37	360	1
NMTAP	37	372	0
NMTTP	38	0	0	C	1	M1
NMTAP	38	0	7
NMSTR	38	288	0
NMSCR	38	288	0	96	48	3
NMSTR	39	0	7
NMSCL	39	0	7	96	48	4
NMSTR	39	144	3
NMSCL	39	144	3	96	48	0
NMSTR	39	288	4
NMSCR	39	288	4	96	48	7
NMSTR	40	0	0
NMSI_	40	0	0	96	48	4
NMSTR	40	144	6
NMSI_	40	144	6	96	48	1
NMSTR	40	288	2
NMSI_	40	288	2	96	48	5
NMHLD	41	0	7	288
NMTTP	41	96	4	E	0	M1
NMTTP	41	192	3	E	0	M1
NMTTP	41	288	5	E	0	M1
NMTAP	42	0	6
NMTAP	42	48	4
NMTAP	42	48	5
NMTAP	42	96	1
NMTAP	42	120	3
NMTAP	42	144	2
NMTAP	42	192	6
NMTAP	42	216	6
NMTAP	42	240	4
NMTAP	42	264	5
NMTAP	42	288	3
NMTAP	42	312	4
NMTAP	42	336	2
NMTAP	43	0	1
NMTAP	43	48	2
NMTAP	43	48	3
NMTAP	43	96	6
NMTAP	43	120	4
NMTAP	43	144	5
NMTAP	43	192	1
NMTAP	43	216	1
NMTAP	43	240	3
NMTAP	43	264	2
NMTAP	43	288	4
NMTAP	43	312	3
NMTAP	43	336	5
NMTAP	44	0	6
NMTAP	44	48	4
NMTAP	44	48	5
NMTAP	44	96	1
NMTAP	44	120	3
NMTAP	44	144	2
NMTAP	44	192	6
NMTAP	44	216	6
NMTAP	44	240	4
NMTAP	44	264	5
NMSTR	44	288	3
NMSCR	44	288	3	96	192	2
NMTAP	44	312	4
NMTAP	44	336	2
NMTTP	45	288	4	E	0	M1
BRTAP	46	0	2
BRTAP	46	0	5
NMTAP	46	144	6
NMTAP	46	168	6
NMTAP	46	192	7
NMTAP	46	240	5
NMTAP	46	264	4
NMTAP	46	312	2
NMTAP	46	336	3
NMTAP	47	48	1
NMTAP	47	48	4
NMTAP	47	96	2
NMTAP	47	96	5
NMTAP	47	144	3
NMTAP	47	144	6
NMTAP	47	192	6
NMTAP	47	216	4
NMTAP	47	264	1
NMTAP	47	288	3
NMSTR	48	0	0
NMSCR	48	0	0	96	48	3
NMSTR	48	0	4
NMSCR	48	0	4	96	48	7
NMTAP	48	192	2
NMHLD	48	192	6	48
NMTAP	48	240	2
NMTAP	48	264	4
NMHLD	48	288	1	48
NMTAP	48	288	5
NMTAP	48	336	5
NMSTR	49	0	7
NMSCL	49	0	7	96	48	4
NMTAP	49	48	7
NMSTR	49	96	0
NMSCR	49	96	0	96	48	3
NMTAP	49	144	0
NMHLD	49	192	7	24
NMHLD	49	240	5	24
NMHLD	49	288	3	24
NMHLD	49	336	1	24
NMSTR	50	0	7
NMSI_	50	0	7	96	48	3
BRTAP	50	96	7
NMTTP	50	192	1	E	0	M1
NMTTP	50	216	2	E	0	M1
NMTTP	50	240	3	E	0	M1
NMTTP	50	264	4	E	0	M1
NMTTP	50	288	5	E	0	M1
NMTTP	50	312	6	E	0	M1
NMHLD	50	336	7	96
NMTAP	51	48	4
NMTAP	51	72	4
NMTAP	51	120	2
NMTAP	51	168	0
NMTAP	51	192	0
NMTAP	51	192	3
NMTAP	51	264	5
NMTAP	51	288	3
NMTAP	51	336	4
NMTAP	51	336	7
NMTAP	52	0	4
NMTAP	52	0	7
NMTAP	52	72	5
NMTAP	52	72	6
NMTTP	52	144	4	E	0	M1
NMSTR	52	192	1
NMSI_	52	192	1	96	48	6
NMSTR	52	192	2
NMSI_	52	192	2	96	48	5
BRTAP	52	288	1
BRTAP	52	288	2
NMTAP	53	0	7
NMTAP	53	48	4
NMTAP	53	48	6
NMTAP	53	96	4
NMTAP	53	96	6
NMTAP	53	144	3
NMTAP	53	192	3
NMTAP	53	240	2
NMTAP	53	264	4
NMTAP	53	288	2
NMTAP	53	336	1
NMTAP	54	0	1
NMTAP	54	48	6
NMTAP	54	72	6
NMTAP	54	96	4
NMTAP	54	144	1
NMTAP	54	168	1
NMTAP	54	192	3
NMTAP	54	240	5
NMTAP	54	264	4
NMTAP	54	312	2
NMTAP	54	336	3
NMTAP	55	0	5
NMTAP	55	48	6
NMTAP	55	96	7
NMTAP	55	144	0
NMTAP	55	192	1
NMTAP	55	240	2
NMTAP	55	264	2
NMTAP	55	288	1
NMTAP	55	288	3
NMTAP	55	320	1
NMTAP	55	320	3
NMTAP	55	352	1
NMTAP	55	352	3
NMSTR	56	0	0
NMSI_	56	0	0	96	48	3
NMTAP	56	48	1
NMSTR	56	96	7
NMSI_	56	96	7	96	48	4
NMTAP	56	144	6
NMTAP	56	192	0
NMTAP	56	240	0
NMTAP	56	256	1
NMTAP	56	272	2
NMTAP	56	288	3
NMTAP	56	336	1
NMTAP	57	0	5
NMTAP	57	24	4
NMTAP	57	72	6
NMSTR	57	96	6
NMSI_	57	96	6	96	48	1
NMTAP	57	144	7
NMSTR	57	192	3
NMSCL	57	192	3	96	48	0
NMTAP	57	240	4
EXTAP	58	0	0
EXTAP	58	0	7
NMTAP	58	48	6
NMTAP	58	72	6
EXTAP	58	96	4
NMTAP	58	120	5
NMTAP	58	144	3
NMTAP	58	168	4
EXHLD	58	192	2	144
NMTAP	58	264	0
EXTAP	58	288	0
NMHLD	58	336	5	144
EXTAP	59	0	7
NMTAP	59	24	7
EXHLD	59	96	2	144
NMTAP	59	168	0
EXTAP	59	192	0
NMHLD	59	240	5	144
EXTAP	59	288	7
NMTAP	59	312	7
EXTAP	60	0	3
NMTAP	60	48	3
NMTAP	60	48	5
EXTAP	60	96	2
EXTAP	60	96	6
NMTAP	60	144	2
NMTAP	60	144	6
EXTAP	60	192	1
EXTAP	60	192	7
NMTAP	60	240	1
NMTAP	60	240	7
EXTAP	60	288	0
EXTAP	60	288	6
NMTAP	60	336	0
NMTAP	60	336	6
EXTAP	61	0	1
NMTAP	61	24	5
EXTAP	61	48	1
NMTAP	61	72	5
EXTAP	61	96	2
NMTAP	61	120	4
EXTAP	61	144	2
NMTAP	61	168	4
NMTAP	61	192	3
NMTAP	61	204	2
NMTAP	61	216	1
NMTAP	61	228	0
NMTAP	61	240	7
NMTAP	61	252	6
NMTAP	61	264	5
NMTAP	61	276	4
NMTAP	61	288	3
NMTAP	61	300	2
NMTAP	61	312	1
NMTAP	61	324	0
NMTAP	61	336	7
NMTAP	61	348	6
NMTAP	61	360	5
NMTAP	61	372	4
NMSTR	62	0	3
NMSI_	62	0	3	96	48	7
NMTAP	62	96	1
BRTAP	62	96	3
NMTAP	62	144	0
NMHLD	62	192	7	72
NMHLD	62	264	5	72
NMTAP	62	336	4
NMTAP	63	48	3
NMTAP	63	48	6
NMTAP	63	96	3
NMTAP	63	96	6
NMTAP	63	144	2
NMTAP	63	144	5
NMTAP	63	192	2
NMTAP	63	192	5
NMTAP	63	240	1
NMTAP	63	264	3
NMTAP	63	288	2
NMTAP	63	336	0
NMSTR	64	0	0
NMSCR	64	0	0	96	48	3
NMTAP	64	48	0
NMTAP	64	96	5
NMTAP	64	144	6
NMSTR	64	192	7
NMSCL	64	192	7	96	48	4
NMTAP	64	240	7
NMTAP	64	288	2
NMTAP	64	336	1
NMSTR	65	0	0
NMSI_	65	0	0	96	48	2
NMTAP	65	48	4
NMSTR	65	96	0
NMSI_	65	96	0	96	48	6
NMTAP	65	144	4
NMSTR	65	192	0
NMSI_	65	192	0	96	48	4
NMTAP	65	240	3
NMTAP	65	288	0
NMTAP	65	336	5
NMSTR	66	0	6
NMSCL	66	0	6	96	48	2
NMTAP	66	48	7
NMTAP	66	96	0
NMTAP	66	144	0
NMTAP	66	192	1
NMTAP	66	192	3
NMTAP	66	240	4
NMTAP	66	264	3
NMSTR	66	288	5
NMSCR	66	288	5	96	96	1
NMTAP	66	336	5
NMSTR	67	0	1
NMSCL	67	0	1	96	96	5
NMTAP	67	48	2
NMTAP	67	96	3
NMTAP	67	192	3
NMTAP	67	240	2
NMTAP	67	264	3
NMSTR	67	288	0
NMSI_	67	288	0	96	48	3
NMTAP	67	336	0
NMSTR	68	0	7
NMSI_	68	0	7	96	48	4
NMTAP	68	48	7
NMSTR	68	96	0
NMSCR	68	96	0	96	48	3
NMTAP	68	144	0
NMSTR	68	192	7
NMSCL	68	192	7	96	48	4
NMTAP	68	240	7
NMSTR	68	288	3
NMSCL	68	288	3	96	48	0
NMTAP	68	336	3
NMSTR	69	0	4
NMSCR	69	0	4	96	48	7
NMTAP	69	48	4
NMTAP	69	96	1
NMTAP	69	144	1
NMTAP	69	192	5
NMTAP	69	240	5
NMTAP	69	264	3
NMTAP	69	288	4
NMTAP	69	336	2
NMTAP	69	336	6
BRTAP	70	48	0
BRTAP	70	48	2
BRTAP	70	96	5
BRTAP	70	96	7
BRTAP	70	144	1
BRTAP	70	144	3
BRSTR	70	192	4
BRSI_	70	192	4	96	48	0
BRTAP	70	192	6
BRTAP	70	288	4
BRTAP	71	0	2
BRTAP	71	0	6
NMTAP	71	96	1
NMTAP	71	96	5
NMTAP	71	144	6
NMTAP	71	192	6
NMTAP	71	240	0
NMTAP	71	264	7
NMTAP	71	288	0
NMTAP	71	336	1
NMTAP	71	360	0
NMTAP	72	0	2
NMTAP	72	48	6
NMTAP	72	72	7
NMTAP	72	96	6
NMTAP	72	120	7
NMTAP	72	168	1
NMTAP	72	192	3
NMTAP	72	240	5
NMTAP	72	264	4
NMTAP	72	288	5
NMTAP	72	336	6
NMTAP	72	360	7
NMTAP	73	0	5
NMTAP	73	48	1
NMTAP	73	72	0
NMTAP	73	96	1
NMTAP	73	120	0
NMTAP	73	168	2
NMTAP	73	192	3
NMTAP	73	240	6
NMTAP	73	264	4
NMTAP	73	288	6
NMTAP	73	336	3
NMTAP	73	336	7
BRTAP	74	48	4
BRTAP	74	48	6
BRTAP	74	72	4
BRTAP	74	72	6
BRTAP	74	96	4
BRTAP	74	96	6
BRTAP	74	144	0
BRTAP	74	144	2
BRTAP	74	168	0
BRTAP	74	168	2
BRTAP	74	192	0
BRTAP	74	192	2
BRTAP	74	240	5
BRTAP	74	240	7
BRTAP	74	264	5
BRTAP	74	264	7
BRSTR	74	312	1
NMSI_	74	312	1	96	24	5
BRSTR	74	312	3
NMSI_	74	312	3	96	24	7
BRTAP	74	336	1
BRTAP	74	336	3
BRTAP	75	0	1
BRTAP	75	0	3
EXTAP	75	96	5
EXTAP	75	96	7
NMTAP	75	192	4
NMTAP	75	192	6
NMTAP	75	240	2
NMTAP	75	264	3
NMTAP	75	288	1
NMTAP	75	336	0
NMTAP	75	336	7
NMTAP	76	0	0
NMTAP	76	0	7
NMTAP	76	48	5
NMTAP	76	72	4
NMTAP	76	96	6
NMTAP	76	120	4
NMTAP	76	144	6
NMTAP	76	192	0
NMTAP	76	192	7
NMTAP	76	240	6
NMTAP	76	264	7
NMTAP	76	288	6
NMTAP	76	336	1
NMTAP	76	360	0
NMTAP	77	0	1
NMTAP	77	48	2
NMTAP	77	72	3
NMTAP	77	96	1
NMTAP	77	120	3
NMTAP	77	144	1
NMTAP	77	168	3
NMTAP	77	192	2
NMTAP	77	240	1
NMTAP	77	264	7
NMSTR	77	288	0
BRSCL	77	288	0	96	192	4
BRSUL	77	288	0	96	192	4
NMTAP	77	336	2
NMTAP	77	336	3
NMTTP	78	288	3	B	0	M1
NMTTP	78	288	3	E	0	M1
NMTTP	78	288	3	A	0	M1
NMTTP	78	288	3	D	0	M1
NMTTP	78	288	4	B	0	M1
NMTTP	78	288	4	E	0	M1
NMTTP	78	288	4	A	0	M1
NMTTP	78	288	4	D	0	M1
NMTTP	78	288	5	E	0	M1
NMTTP	78	288	5	D	0	M1
NMHLD	79	0	6	48
NMHLD	79	0	7	48
NMTAP	79	96	6
NMTAP	79	96	7
NMTAP	79	144	6
NMTAP	79	144	7
NMTAP	79	168	0
NMTAP	79	168	7
NMSTR	79	192	0
NMSUR	79	192	0	96	96	7
NMSTR	79	192	1
NMSCR	79	192	1	96	96	6
NMTAP	79	240	7
NMTAP	80	96	6
NMTAP	80	96	7
NMTAP	80	144	6
NMTAP	80	144	7
NMTAP	80	192	4
NMTAP	80	192	5
EXTAP	80	240	4
EXTAP	80	240	5
NMTAP	80	288	2
NMTAP	80	288	3
NMTAP	80	336	2
NMTAP	80	336	3
NMHLD	81	0	0	48
NMHLD	81	0	1	48
NMTAP	81	96	0
NMTAP	81	96	1
NMTAP	81	144	0
NMTAP	81	144	1
NMTAP	81	168	0
NMTAP	81	168	7
NMSTR	81	192	6
NMSCL	81	192	6	96	96	1
NMSTR	81	192	7
NMSUL	81	192	7	96	96	0
NMTAP	81	240	0
NMTAP	82	96	0
NMTAP	82	96	1
NMTAP	82	144	0
NMTAP	82	144	1
NMTAP	82	192	2
NMTAP	82	192	3
EXTAP	82	240	2
EXTAP	82	240	3
NMTAP	82	288	4
NMTAP	82	288	5
NMTAP	82	336	4
NMTAP	82	336	5
NMHLD	83	0	6	48
NMHLD	83	0	7	48
NMTAP	83	96	6
NMTAP	83	96	7
NMTAP	83	144	6
NMTAP	83	144	7
NMTAP	83	168	0
NMTAP	83	168	7
NMSTR	83	192	0
NMSUR	83	192	0	96	96	7
NMSTR	83	192	1
NMSCR	83	192	1	96	96	6
NMTAP	83	240	7
NMTAP	84	96	6
NMTAP	84	96	7
NMTAP	84	144	6
NMTAP	84	144	7
NMHLD	84	192	4	48
NMHLD	84	192	5	48
NMTAP	84	288	2
NMTAP	84	288	3
NMTAP	84	336	2
NMTAP	84	336	3
NMHLD	85	0	0	48
NMHLD	85	0	1	48
NMTAP	85	96	0
NMTAP	85	96	1
NMTAP	85	144	0
NMTAP	85	144	1
NMTAP	85	168	0
NMTAP	85	168	7
NMSTR	85	192	6
NMSCL	85	192	6	96	96	1
NMSTR	85	192	7
NMSUL	85	192	7	96	96	0
NMTAP	85	240	0
NMTAP	86	96	0
NMTAP	86	96	1
NMTAP	86	144	0
NMTAP	86	144	1
NMTAP	86	192	2
NMTAP	86	192	3
NMTAP	86	240	2
NMTAP	86	240	3
NMTAP	86	288	4
NMTAP	86	288	5
NMTAP	86	336	4
NMTAP	86	336	5
NMHLD	87	0	6	48
NMHLD	87	0	7	48
NMTAP	87	96	6
NMTAP	87	128	4
NMTAP	87	160	5
NMTAP	87	192	1
NMTAP	87	224	3
NMTAP	87	256	2
NMHLD	87	288	5	96
NMHLD	87	320	3	64
NMTAP	88	96	1
NMTAP	88	128	3
NMTAP	88	160	2
NMTAP	88	192	6
NMTAP	88	224	4
NMTAP	88	256	5
NMTAP	88	288	1
NMTAP	88	320	3
NMTAP	89	0	1
NMTAP	89	24	0
NMTAP	89	48	1
NMTAP	89	72	0
NMTAP	89	96	2
NMTAP	89	120	7
NMTAP	89	144	2
NMTAP	89	168	7
NMTAP	89	192	3
NMTAP	89	216	6
NMTAP	89	240	3
NMTAP	89	264	6
NMTAP	89	288	4
NMTAP	89	312	5
NMTAP	89	336	4
NMTAP	89	360	5
NMTAP	90	0	3
NMTAP	90	24	4
NMTAP	90	48	3
NMTAP	90	72	4
NMTAP	90	96	2
NMTAP	90	120	3
NMTAP	90	144	2
NMTAP	90	168	3
NMTAP	90	192	1
NMTAP	90	216	4
NMTAP	90	240	1
NMTAP	90	264	4
NMSTR	90	288	0
NMSI_	90	288	0	96	48	3
NMTAP	90	312	0
BRTAP	91	0	0
BRTAP	91	0	3
NMTAP	91	96	1
NMTAP	91	128	3
NMTAP	91	160	2
NMTAP	91	192	6
NMTAP	91	224	4
NMTAP	91	256	5
NMHLD	91	288	2	96
NMHLD	91	320	4	64
NMTAP	92	96	6
NMTAP	92	128	4
NMTAP	92	160	5
NMTAP	92	192	1
NMTAP	92	224	3
NMTAP	92	256	2
NMTAP	92	288	6
NMTAP	92	320	4
NMTAP	93	0	6
NMTAP	93	24	7
NMTAP	93	48	6
NMTAP	93	72	7
NMTAP	93	96	5
NMTAP	93	120	0
NMTAP	93	144	5
NMTAP	93	168	0
NMTAP	93	192	4
NMTAP	93	216	1
NMTAP	93	240	4
NMTAP	93	264	1
NMTAP	93	288	3
NMTAP	93	312	2
NMTAP	93	336	3
NMTAP	93	360	2
NMTAP	94	0	4
NMTAP	94	24	3
NMTAP	94	48	4
NMTAP	94	72	3
NMTAP	94	96	5
NMTAP	94	120	4
NMTAP	94	144	5
NMTAP	94	168	4
NMTAP	94	192	6
NMTAP	94	216	3
NMTAP	94	240	6
NMTAP	94	264	3
NMSTR	94	288	7
NMSI_	94	288	7	96	48	2
NMSI_	94	288	7	96	48	3
NMTAP	94	336	4
NMTAP	94	336	6
BRTAP	95	0	7

T_REC_TAP	744
T_REC_BRK	46
T_REC_XTP	25
T_REC_BXX	0
T_REC_HLD	68
T_REC_XHO	2
T_REC_BHO	0
T_REC_BXH	0
T_REC_STR	62
T_REC_BST	4
T_REC_XST	0
T_REC_XBS	0
T_REC_TTP	32
T_REC_THO	0
T_REC_SLD	64
T_REC_BSL	5
T_REC_ALL	1052
T_NUM_TAP	863
T_NUM_BRK	55
T_NUM_HLD	70
T_NUM_SLD	64
T_NUM_ALL	1052
T_JUDGE_TAP	913
T_JUDGE_HLD	105
T_JUDGE_SLD	69
T_JUDGE_ALL	1087
TTM_EACHPAIRS	154
TTM_SCR_TAP	431500
TTM_SCR_BRK	143000
TTM_SCR_HLD	70000
TTM_SCR_SLD	96000
TTM_SCR_ALL	740500
TTM_SCR_S	712950
TTM_SCR_SS	735000
TTM_RAT_ACV	10074

