VERSION	0.00.00	1.04.00
FES_MODE	1
BPM_DEF	150.000	150.000	150.000	150.000
MET_DEF	4	4
RESOLUTION	384
CLK_DEF	384
COMPATIBLE_CODE	MA2

BPM	0	0	150.000
MET	0	0	4	4

NMTTP	3	0	2	B	0	M1
NMTTP	3	0	2	A	0	M1
NMTTP	3	0	2	D	0	M1
NMTTP	3	0	3	B	0	M1
NMTTP	3	0	3	E	0	M1
NMTTP	3	0	3	A	0	M1
NMTTP	3	0	3	D	0	M1
NMTTP	3	0	4	B	0	M1
NMTTP	3	0	4	E	1	M1
NMTTP	3	0	4	A	0	M1
NMTTP	3	0	4	D	0	M1
NMTTP	3	0	5	B	0	M1
NMTTP	3	0	5	E	0	M1
NMTTP	3	0	5	A	0	M1
NMTTP	3	0	5	D	0	M1
NMTTP	3	0	6	D	0	M1
NMSTR	3	96	7
NMSI_	3	96	7	96	48	3
NMSTR	3	144	0
NMSI_	3	144	0	96	48	4
NMSTR	3	192	7
NMSCL	3	192	7	96	48	3
NMTAP	3	240	0
NMTTP	3	288	7	A	1	M1
BRSTR	4	0	0
NMSI_	4	0	0	96	48	3
BRTAP	4	0	1
BRTAP	4	96	0
BRSTR	4	96	7
NMSI_	4	96	7	96	48	4
BRSTR	4	192	6
BRSCR	4	192	6	96	48	7
BRTAP	4	192	7
BRTAP	4	288	1
BRTAP	4	336	0
CNSI_	4	336	7	0	24	3
BRTAP	5	0	0
NMTAP	5	48	5
NMTAP	5	72	3
NMTAP	5	96	4
NMTAP	5	144	4
NMHLD	5	192	2	48
NMTAP	5	192	4
NMTAP	5	240	4
NMTAP	5	288	4
NMHLD	5	288	5	48
NMHLD	5	336	4	48
NMTTP	6	0	0	B	0	M1
NMTTP	6	0	6	B	0	M1
NMTTP	6	0	7	B	0	M1
NMTTP	6	0	7	A	0	M1
NMTAP	6	48	4
NMTTP	6	96	1	B	0	M1
NMTTP	6	96	2	B	0	M1
NMTTP	6	96	2	A	0	M1
NMTTP	6	96	3	B	0	M1
NMTAP	6	96	4
NMTAP	6	144	4
NMTTP	6	192	0	B	0	M1
NMTAP	6	192	4
NMTTP	6	192	6	B	0	M1
NMTTP	6	192	7	B	0	M1
NMTTP	6	192	7	A	0	M1
NMTAP	6	240	4
NMTTP	6	288	1	B	0	M1
NMTTP	6	288	2	B	0	M1
NMTTP	6	288	2	A	0	M1
NMTTP	6	288	3	B	0	M1
NMHLD	6	288	4	48
NMTAP	7	0	4
NMTAP	7	0	5
NMTAP	7	48	6
NMTAP	7	72	0
NMTAP	7	96	7
NMTAP	7	144	7
NMHLD	7	192	1	48
NMTAP	7	192	7
NMTAP	7	240	7
NMHLD	7	288	3	48
NMTAP	7	288	7
NMTAP	7	336	7
NMTTP	8	0	1	B	0	M1
NMTTP	8	0	2	B	0	M1
NMTTP	8	0	2	A	0	M1
NMTTP	8	0	3	B	0	M1
NMTAP	8	0	7
NMTAP	8	48	7
NMTTP	8	96	4	B	0	M1
NMTTP	8	96	5	B	0	M1
NMTTP	8	96	5	A	0	M1
NMTTP	8	96	6	B	0	M1
NMTAP	8	96	7
NMTAP	8	144	7
NMTAP	8	192	2
NMSTR	8	192	7
BRSXL	8	192	7	96	48	1
NMSTR	8	240	1
BRSV_	8	240	1	96	48	4
BXTAP	9	0	0
NMTAP	9	48	2
NMTAP	9	72	4
NMTAP	9	96	3
NMTAP	9	144	3
NMTAP	9	192	3
NMHLD	9	192	5	48
NMTAP	9	240	3
NMHLD	9	288	2	48
NMTAP	9	288	3
NMHLD	9	336	3	48
NMTTP	10	0	0	B	0	M1
NMTTP	10	0	0	A	0	M1
NMTTP	10	0	1	B	0	M1
NMTTP	10	0	7	B	0	M1
NMTAP	10	48	3
NMTAP	10	96	3
NMTTP	10	96	4	B	0	M1
NMTTP	10	96	5	B	0	M1
NMTTP	10	96	5	A	0	M1
NMTTP	10	96	6	B	0	M1
NMTAP	10	144	3
NMTTP	10	192	0	B	0	M1
NMTTP	10	192	0	A	0	M1
NMTTP	10	192	1	B	0	M1
NMTAP	10	192	3
NMTTP	10	192	7	B	0	M1
NMTAP	10	240	3
NMHLD	10	288	3	48
NMTTP	10	288	4	B	0	M1
NMTTP	10	288	5	B	0	M1
NMTTP	10	288	5	A	0	M1
NMTTP	10	288	6	B	0	M1
NMTAP	11	0	2
NMTAP	11	0	3
NMTAP	11	48	1
NMTAP	11	72	7
NMTAP	11	96	0
NMTAP	11	144	0
NMTAP	11	192	0
NMHLD	11	192	6	48
NMTAP	11	240	0
NMTAP	11	288	0
NMHLD	11	288	3	48
NMTAP	11	336	0
NMHLD	12	0	0	48
BRHLD	12	0	4	48
BRHLD	12	96	2	48
NMHLD	12	96	7	48
NMSTR	12	192	3
BRSCR	12	192	3	96	48	5
NMSTR	12	192	6
BRSV_	12	192	6	96	48	7
NMTAP	12	240	2
NMTAP	12	240	7
NMTAP	13	0	6
NMTAP	13	24	5
NMTAP	13	48	6
NMTAP	13	72	5
NMTAP	13	96	6
NMTAP	13	120	5
NMTAP	13	144	6
NMTAP	13	168	5
NMTAP	13	192	6
NMTAP	13	208	5
NMTAP	13	224	6
NMTAP	13	240	5
NMTAP	13	256	6
NMTAP	13	272	5
NMTAP	13	288	6
NMTAP	13	304	5
NMTAP	13	320	6
NMTAP	13	336	5
NMTAP	13	352	6
NMTAP	13	368	5
NMTAP	14	0	6
NMTAP	14	24	5
NMTAP	14	48	6
NMTAP	14	72	5
NMTAP	14	96	6
NMTAP	14	120	5
NMTAP	14	144	6
NMTAP	14	168	5
NMTAP	14	192	6
NMTAP	14	208	5
NMTAP	14	224	6
NMTAP	14	240	5
NMTAP	14	256	6
NMTAP	14	272	5
NMTAP	14	288	6
NMTAP	14	304	5
NMTAP	14	320	6
NMTAP	14	336	5
NMTAP	14	352	6
NMTAP	14	368	5
NMTAP	15	0	1
NMTAP	15	0	6
NMTAP	15	24	2
NMTAP	15	24	5
NMTAP	15	48	1
NMTAP	15	48	6
NMTAP	15	72	2
NMTAP	15	72	5
NMTAP	15	96	1
NMTAP	15	96	6
NMTAP	15	120	2
NMTAP	15	120	5
NMTAP	15	144	1
NMTAP	15	144	6
NMTAP	15	168	2
NMTAP	15	168	5
NMTAP	15	192	1
NMTAP	15	192	6
NMTAP	15	208	2
NMTAP	15	208	5
NMTAP	15	224	1
NMTAP	15	224	6
NMTAP	15	240	2
NMTAP	15	240	5
NMTAP	15	256	1
NMTAP	15	256	6
NMTAP	15	272	2
NMTAP	15	272	5
NMTAP	15	288	1
NMTAP	15	288	6
NMTAP	15	304	2
NMTAP	15	304	5
NMTAP	15	320	1
NMTAP	15	320	6
NMTAP	15	336	2
NMTAP	15	336	5
NMTAP	15	352	1
NMTAP	15	352	6
NMTAP	15	368	2
NMTAP	15	368	5
NMTHO	16	0	0	288	C	1	M1
EXSTR	16	192	0
NMSI_	16	192	0	96	48	4
NMTTP	17	0	1	B	0	M1
NMTTP	17	0	2	B	0	M1
NMTTP	17	0	2	A	1	M1
NMTTP	17	0	3	B	0	M1
NMTTP	17	96	4	B	0	M1
NMTTP	17	96	5	B	0	M1
NMTTP	17	96	5	A	1	M1
NMTTP	17	96	6	B	0	M1
NMHLD	17	192	1	96
NMHLD	17	192	2	96
NMSTR	18	0	0
NMSCL	18	0	0	96	48	4
NMSCR	18	0	0	96	48	4
NMSTR	18	192	7
NMSCL	18	192	7	96	48	3
NMSCR	18	192	7	96	48	3
EXSTR	19	0	3
NMSXL	19	0	3	96	96	3
NMSTR	19	96	3
NMSI_	19	96	3	96	48	0
NMSI_	19	96	3	96	48	7
NMSTR	19	288	6
NMSI_	19	288	6	96	24	4
NMTAP	20	0	1
CNSV_	20	24	4	0	48	3
CNSI_	20	72	3	0	24	1
BRHLD	20	96	0	96
NMSTR	20	192	1
NMSI_	20	192	1	96	24	3
CNSI_	20	312	3	0	48	7
CNSI_	20	360	7	0	24	5
BRTAP	21	288	0
BRTAP	22	240	1
BRTAP	22	288	1
NMSTR	23	0	5
NMSCR	23	0	5	96	48	0
NMSTR	23	96	2
NMSCL	23	96	2	96	48	7
NMSTR	23	192	4
NMSUR	23	192	4	96	48	1
NMSTR	23	288	3
NMSUL	23	288	3	96	48	6
NMSTR	24	0	4
NMSXL	24	0	4	96	144	3
NMTTP	24	240	2	B	0	M1
NMTTP	24	256	1	B	0	M1
NMTTP	24	272	0	B	0	M1
NMTTP	24	288	0	E	0	M1
NMSTR	25	0	3
NMSXL	25	0	3	96	48	5
NMSXR	25	0	3	96	48	1
NMSTR	25	192	3
NMSI_	25	192	3	96	24	7
NMSI_	25	192	3	96	36	7
CNSCL	25	312	7	0	24	5
CNSCR	25	324	7	0	12	1
EXSTR	26	0	4
NMSXL	26	0	4	96	48	6
NMSXR	26	0	4	96	48	2
EXTAP	26	48	4
NMSTR	26	192	0
NMSCL	26	192	0	96	48	5
NMSCR	26	192	0	96	48	3
EXTAP	26	240	0
EXTAP	27	0	2
EXTAP	27	24	0
EXTAP	27	48	7
EXTAP	27	72	5
EXTAP	27	96	5
EXTAP	27	120	7
EXTAP	27	144	0
EXTAP	27	168	2
EXTAP	27	192	2
EXTAP	27	216	0
EXTAP	27	240	7
EXTAP	27	264	5
EXTAP	27	288	5
EXTAP	27	312	7
EXTAP	27	336	0
EXTAP	27	360	2
NMTTP	28	0	0	C	1	M1
NMTAP	28	96	7
NMTAP	28	168	0
NMSTR	28	192	7
BRSF_	28	192	7	96	48	3
NMTAP	28	240	7
NMTTP	28	288	7	A	1	M1
BRSTR	29	0	0
NMSI_	29	0	0	96	48	3
BRSTR	29	0	7
NMSI_	29	0	7	96	48	2
BRTAP	29	48	1
BRTAP	29	48	6
BRSTR	29	96	0
NMSI_	29	96	0	96	48	5
BRSTR	29	96	7
NMSI_	29	96	7	96	48	4
BRTAP	29	192	0
BRTAP	29	192	7
NMTAP	29	288	3
NMTAP	30	0	2
NMTAP	30	96	1
NMHLD	30	192	0	96
NMTTP	31	0	3	B	0	M1
NMTTP	31	0	3	E	0	M1
NMTTP	31	0	3	A	0	M1
NMTTP	31	0	3	D	0	M1
NMTTP	31	0	4	B	0	M1
NMTTP	31	0	4	E	1	M1
NMTTP	31	0	4	A	0	M1
NMTTP	31	0	4	D	0	M1
NMTTP	31	0	5	E	0	M1
NMTTP	31	0	5	D	0	M1
NMTTP	31	96	1	B	1	M1
NMTTP	31	96	1	E	0	M1
NMTTP	31	96	1	A	0	M1
NMTTP	31	96	1	D	0	M1
NMTTP	31	96	2	E	0	M1
NMTTP	31	96	2	D	0	M1
NMTTP	31	192	0	E	1	M1
NMTTP	31	192	0	D	0	M1
NMTTP	31	192	7	A	0	M1
NMTTP	31	288	6	E	1	M1
NMTAP	32	0	4
NMSTR	32	0	5
NMSI_	32	0	5	96	48	7
NMSTR	32	96	2
NMSCL	32	96	2	96	96	5
NMSTR	32	192	5
NMSCR	32	192	5	96	96	2
NMTAP	32	288	4
NMTTP	33	0	4	E	1	M1
NMSTR	33	96	5
NMSI_	33	96	5	96	48	2
NMHLD	33	144	5	240
CNSI_	33	240	2	0	48	7
CNSI_	33	288	7	0	48	4
NMTAP	34	0	3
NMTAP	34	48	2
NMSTR	34	96	1
NMSI_	34	96	1	96	48	6
NMHLD	34	144	1	240
CNSI_	34	240	6	0	48	3
CNSI_	34	288	3	0	48	0
EXTAP	35	0	7
EXTAP	35	48	7
EXSTR	35	96	2
NMSI_	35	96	2	96	48	7
EXSTR	35	96	6
NMSI_	35	96	6	96	48	3
EXTAP	35	144	2
EXTAP	35	144	6
EXTAP	35	192	2
EXTAP	35	192	6
EXTAP	35	288	0
EXTAP	35	336	0
NMTTP	36	48	0	E	0	M1
NMTTP	36	68	7	A	0	M1
NMTTP	36	72	0	A	0	M1
NMTTP	36	88	7	D	0	M1
NMTTP	36	92	1	D	0	M1
NMTTP	36	108	6	A	0	M1
NMTTP	36	112	1	A	0	M1
NMTTP	36	128	6	E	0	M1
NMTTP	36	132	2	E	0	M1
NMTTP	36	148	5	B	0	M1
NMTTP	36	152	2	B	0	M1
NMTTP	36	168	4	B	0	M1
NMTTP	36	172	3	B	0	M1
NMTTP	36	192	4	E	0	M1
NMSTR	36	288	0
NMSUL	36	288	0	96	48	4
NMHLD	37	0	6	48
NMHLD	37	96	2	48
NMHLD	37	96	3	48
NMHLD	37	192	4	48
NMHLD	37	192	7	48
NMHLD	37	288	5	48
NMHLD	37	288	6	48
NMHLD	38	0	1	48
NMHLD	38	0	7	48
NMHLD	38	96	2	48
NMHLD	38	96	4	48
NMTAP	38	192	0
NMTAP	38	192	6
NMTAP	38	240	5
NMTAP	38	264	5
EXTAP	38	288	3
NMTAP	38	336	2
EXTAP	39	0	1
NMTAP	39	24	5
NMTAP	39	48	3
NMTAP	39	72	4
NMTAP	39	96	1
NMTAP	39	120	3
NMTAP	39	144	2
NMTAP	39	168	5
BRTAP	39	192	3
BRTAP	39	208	4
BRTAP	39	224	3
BRTAP	39	240	4
BRHLD	39	288	2	288
BRSTR	39	288	5
NMSI_	39	288	5	96	48	1
BRSTR	40	0	5
NMSI_	40	0	5	96	48	3
BRSTR	40	96	5
NMSLR	40	96	5	96	48	1
BRTAP	40	192	5
NMTTP	40	288	0	C	0	M1
NMTTP	40	288	2	B	0	M1
NMTTP	40	288	2	A	0	M1
NMTTP	40	288	3	B	0	M1
NMTTP	40	288	3	E	0	M1
NMTTP	40	288	3	A	0	M1
NMTTP	40	288	3	D	0	M1
NMTTP	40	288	4	B	0	M1
NMTTP	40	288	4	E	1	M1
NMTTP	40	288	4	A	0	M1
NMTTP	40	288	4	D	0	M1
NMTTP	40	288	5	B	0	M1
NMTTP	40	288	5	E	0	M1
NMTTP	40	288	5	A	0	M1
NMTTP	40	288	5	D	0	M1
BRTAP	41	0	0
BRTAP	41	0	7
NMSTR	41	288	3
NMSV_	41	288	3	96	48	6
CNSCL	42	48	6	0	48	5
CNSI_	42	96	5	0	48	3
CNSXR	42	144	3	0	48	1
CNSI_	42	192	1	0	48	3
CNSCR	42	240	3	0	48	4
NMSTR	43	0	3
BRSV_	43	0	3	96	48	6
CNSCL	43	144	6	0	48	5
CNSI_	43	192	5	0	48	3
CNSXR	43	240	3	0	48	1
CNSI_	43	288	1	0	48	3
CNSCR	43	336	3	0	48	4
NMSTR	44	96	1
BRSI_	44	96	1	96	48	5
NMSTR	44	96	7
NMSI_	44	96	7	96	48	3
NMSTR	45	0	6
NMSI_	45	0	6	96	384	2
BRHLD	46	0	5	192
NMSTR	47	0	1
NMSI_	47	0	1	96	384	5
BRTAP	47	96	1
BRHLD	48	0	2	0
BRHLD	48	96	0	48
NMSTR	48	192	4
BRSV_	48	192	4	96	48	1
NMSTR	48	192	6
BRSI_	48	192	6	96	48	1
NMTTP	48	288	4	A	1	M1
EXSTR	49	0	1
NMSI_	49	0	1	96	192	6
EXSTR	49	0	2
NMSI_	49	0	2	96	96	5
NMSTR	49	288	2
NMSI_	49	288	2	96	288	5
NMSTR	50	0	1
NMSI_	50	0	1	96	96	6
NMSTR	50	288	1
NMSI_	50	288	1	96	192	6
NMSTR	51	0	2
NMSI_	51	0	2	96	192	5
NMSTR	51	288	1
NMSI_	51	288	1	96	96	6
NMSTR	52	0	2
NMSUR	52	0	2	96	192	5
NMHLD	53	0	6	96
NMSTR	53	0	7
NMSI_	53	0	7	96	48	4
NMHLD	53	192	2	96
NMSTR	53	192	3
NMSI_	53	192	3	96	48	0
BRHLD	54	0	6	96
NMSTR	54	0	7
BRSI_	54	0	7	96	48	4
BRHLD	54	192	2	96
NMSTR	54	192	3
BRSI_	54	192	3	96	48	0
EXTAP	55	0	1
EXTAP	55	24	3
EXTAP	55	48	4
EXTAP	55	72	6
EXTAP	55	96	6
EXTAP	55	120	4
EXTAP	55	144	3
EXTAP	55	168	1
EXTAP	55	192	1
EXTAP	55	216	3
EXTAP	55	240	4
EXTAP	55	264	6
EXTAP	55	288	6
EXTAP	55	312	4
EXTAP	55	336	3
EXTAP	55	360	1
NMHLD	56	0	1	384
NMTTP	56	96	1	B	0	M1
NMTTP	56	120	1	B	0	M1
NMTTP	56	144	1	B	0	M1
NMTTP	56	168	1	B	0	M1
NMTTP	56	192	1	B	0	M1
NMTTP	56	216	1	B	0	M1
NMTTP	56	240	1	B	0	M1
NMTTP	56	264	1	B	0	M1
NMTTP	56	288	1	B	0	M1
BRTAP	57	0	7
BRTAP	58	0	2
NMTTP	58	0	5	B	0	M1
NMTTP	58	0	5	E	0	M1
NMTTP	58	0	5	D	1	M1
BRTAP	58	48	1
NMTTP	58	48	4	B	0	M1
NMTTP	58	48	4	E	0	M1
NMTTP	58	48	4	D	1	M1
BRTAP	58	96	0
NMTTP	58	96	3	B	0	M1
NMTTP	58	96	3	E	0	M1
NMTTP	58	96	3	D	1	M1
NMTTP	58	144	2	B	0	M1
NMTTP	58	144	2	E	0	M1
NMTTP	58	144	2	D	1	M1
BRTAP	58	144	7
NMTTP	58	192	1	B	0	M1
NMTTP	58	192	1	E	0	M1
NMTTP	58	192	1	D	1	M1
BRTAP	58	192	6
NMTTP	58	240	0	B	0	M1
NMTTP	58	240	0	E	0	M1
NMTTP	58	240	0	D	1	M1
BRTAP	58	240	5
NMTAP	58	288	4
NMTTP	58	288	7	B	0	M1
NMTTP	58	288	7	E	0	M1
NMTTP	58	288	7	D	1	M1
NMHLD	59	0	1	72
NMHLD	59	0	3	72
NMHLD	59	96	4	36
NMHLD	59	96	6	36
NMHLD	59	192	1	12
NMHLD	59	192	3	12
NMHLD	59	288	4	0
NMHLD	59	288	6	0
NMSTR	60	0	2
NMSI_	60	0	2	96	48	0
NMTAP	60	96	2
NMSTR	60	96	5
NMSCR	60	96	5	96	96	2
NMSTR	60	192	2
NMSCL	60	192	2	96	96	5
NMTAP	60	288	3
NMTTP	61	0	4	E	1	M1
NMSTR	61	96	2
NMSV_	61	96	2	96	48	5
NMHLD	61	144	2	240
CNSCR	61	240	5	0	48	0
CNSUR	61	288	0	0	48	4
EXTAP	62	0	5
NMTAP	62	48	5
NMSTR	62	96	6
NMSCL	62	96	6	96	48	4
NMHLD	62	144	6	192
CNSV_	62	240	4	0	48	1
CNSUR	62	288	1	0	24	6
CNSCR	62	312	6	0	24	7
EXTAP	63	0	0
EXTAP	63	48	0
EXSTR	63	96	1
BRSI_	63	96	1	96	48	6
EXSTR	63	96	5
BRSI_	63	96	5	96	48	2
EXTAP	63	144	1
EXTAP	63	144	5
EXTAP	63	192	1
EXTAP	63	192	5
EXTAP	63	288	3
EXTAP	63	336	3
NMTTP	64	48	4	E	0	M1
NMTTP	64	68	3	B	0	M1
NMTTP	64	72	4	B	0	M1
NMTTP	64	88	2	B	0	M1
NMTTP	64	92	5	B	0	M1
NMTTP	64	108	2	E	0	M1
NMTTP	64	112	6	E	0	M1
NMTTP	64	128	1	A	0	M1
NMTTP	64	132	6	A	0	M1
NMTTP	64	148	1	D	0	M1
NMTTP	64	152	7	D	0	M1
NMTTP	64	168	0	A	0	M1
NMTTP	64	172	7	A	0	M1
NMTTP	64	192	0	E	0	M1
NMSTR	64	288	3
NMSUL	64	288	3	96	48	7
NMSTR	64	288	7
NMSUR	64	288	7	96	48	3
EXTAP	65	96	4
EXTAP	65	96	6
NMTAP	65	168	3
NMTAP	65	168	7
NMSTR	65	192	3
NMSUR	65	192	3	96	48	7
NMSTR	65	192	7
NMSUL	65	192	7	96	48	3
BRTAP	66	0	2
BRTAP	66	24	0
BRTAP	66	48	4
NMTAP	66	96	5
NMTAP	66	144	5
BRTAP	66	192	0
BRHLD	66	192	3	48
BRTAP	66	240	0
BRTAP	66	288	4
BRHLD	66	288	7	48
BRTAP	66	336	4
NMSTR	67	0	3
NMSCL	67	0	3	96	48	7
NMTAP	67	48	6
NMTAP	67	72	6
NMSTR	67	96	3
NMSUL	67	96	3	96	48	6
NMTAP	67	144	5
NMTAP	67	168	5
NMSTR	67	192	3
NMSXL	67	192	3	96	48	5
NMTAP	67	240	4
NMTAP	67	264	4
NMTAP	67	288	3
NMSTR	68	0	6
NMSUL	68	0	6	96	48	1
NMSTR	68	0	7
NMSV_	68	0	7	96	48	1
NMTAP	68	48	0
NMTAP	68	48	5
NMTAP	68	96	6
NMTAP	68	96	7
BRSTR	68	192	6
BRSUL	68	192	6	96	48	1
BRSTR	68	192	7
BRSV_	68	192	7	96	48	1
BRTAP	68	216	6
BRTAP	68	216	7
BRTAP	68	240	6
BRTAP	68	240	7
BRTAP	68	264	6
BRTAP	68	264	7
BRTAP	68	288	6
BRTAP	68	288	7
NMTAP	69	0	0
NMTAP	69	12	1
NMTAP	69	24	2
NMTAP	69	36	3
NMTAP	69	48	4
NMTAP	69	60	5
NMTAP	69	72	6
NMTAP	69	84	7
BRTAP	69	96	0
BRTAP	69	96	4
NMTTP	69	192	1	B	0	M1
NMTTP	69	192	2	B	0	M1
NMTTP	69	192	2	A	0	M1
NMTTP	69	192	3	B	0	M1
NMTAP	69	192	7
NMTAP	69	240	0
NMTAP	69	288	0
NMTTP	69	288	4	B	0	M1
NMTTP	69	288	5	B	0	M1
NMTTP	69	288	5	A	0	M1
NMTTP	69	288	6	B	0	M1
NMTAP	69	336	7
NMTTP	70	0	1	B	0	M1
NMTTP	70	0	2	B	0	M1
NMTTP	70	0	2	A	0	M1
NMTTP	70	0	3	B	0	M1
NMTAP	70	0	7
NMTAP	70	48	0
NMTAP	70	96	0
NMTTP	70	96	4	B	0	M1
NMTTP	70	96	5	B	0	M1
NMTTP	70	96	5	A	0	M1
NMTTP	70	96	6	B	0	M1
NMTAP	70	144	7
NMTTP	70	192	1	B	0	M1
NMTTP	70	192	2	B	0	M1
NMTTP	70	192	2	A	0	M1
NMTTP	70	192	3	B	0	M1
NMTAP	70	192	7
NMTAP	70	240	0
NMSTR	70	288	0
NMSV_	70	288	0	96	48	3
NMTTP	70	288	4	B	0	M1
NMTTP	70	288	5	B	0	M1
NMTTP	70	288	5	A	0	M1
NMTTP	70	288	6	B	0	M1
NMSTR	71	0	0
NMSV_	71	0	0	96	48	5
NMTAP	71	96	0
NMHLD	71	192	3	144
NMTTP	71	192	6	A	0	M1
NMTTP	71	208	7	E	0	M1
NMTTP	71	224	7	B	0	M1
NMTTP	71	240	0	B	0	M1
NMTTP	71	256	1	E	0	M1
NMTTP	71	272	1	A	0	M1
NMTTP	71	288	2	E	0	M1
NMTTP	71	304	2	B	0	M1
NMTTP	71	320	3	B	0	M1
NMTAP	72	48	4
NMTAP	72	48	7
NMSTR	72	96	5
NMSI_	72	96	5	96	48	2
NMSTR	72	96	6
NMSI_	72	96	6	96	48	1
NMSTR	72	288	3
NMSV_	72	288	3	96	192	0
BRHLD	73	0	0	768
CNSI_	73	192	0	0	288	6
NMTAP	75	0	4
NMTAP	75	16	5
NMTAP	75	32	6
NMTAP	75	48	7
NMTAP	75	64	0
NMTAP	75	80	1
NMTAP	75	96	2
NMTAP	75	96	4
NMTAP	75	112	5
NMTAP	75	128	6
NMTAP	75	144	7
NMTAP	75	160	0
NMTAP	75	176	1
NMTAP	75	192	2
NMTTP	75	192	4	A	1	M1
NMTAP	75	288	3
NMTAP	75	304	2
NMTAP	75	320	1
NMTAP	75	336	0
NMTAP	75	352	7
NMTAP	75	368	6
NMTAP	76	0	3
NMTAP	76	0	5
NMTAP	76	16	2
NMTAP	76	32	1
NMTAP	76	48	0
NMTAP	76	64	7
NMTAP	76	80	6
NMTAP	76	96	3
NMTAP	76	96	5
NMTAP	76	112	2
NMTAP	76	128	1
NMTAP	76	144	0
NMTAP	76	160	7
NMTAP	76	176	6
NMTTP	76	192	3	A	1	M1
NMTAP	76	192	5
NMTAP	76	264	2
NMTAP	76	264	6
NMTAP	76	336	1
NMTAP	76	336	7
NMTTP	77	0	4	B	1	M1
NMTTP	77	0	5	B	0	M1
NMTTP	77	0	5	A	0	M1
NMTTP	77	0	6	B	0	M1
NMTTP	77	48	1	B	0	M1
NMTTP	77	48	2	B	0	M1
NMTTP	77	48	2	A	0	M1
NMTTP	77	48	3	B	1	M1
NMTTP	77	96	0	B	0	M1
NMTTP	77	96	0	E	0	M1
NMTTP	77	96	0	D	1	M1
NMTTP	77	96	7	B	0	M1
NMHLD	77	192	6	480
NMTTP	77	288	4	E	0	M1
NMTHO	77	336	0	384	C	0	M1
NMTTP	78	48	1	B	0	M1
NMTTP	78	96	2	B	0	M1
NMTTP	78	144	3	B	0	M1
NMTTP	78	192	4	B	0	M1
NMTTP	78	240	5	B	0	M1
NMTTP	78	288	6	B	0	M1
NMTTP	78	336	0	B	0	M1
NMTTP	78	336	0	E	0	M1
NMTTP	78	336	0	A	0	M1
NMTTP	78	336	0	D	0	M1
NMTTP	78	336	3	A	0	M1
NMTTP	78	336	4	A	0	M1
NMTTP	78	336	4	D	0	M1
NMTTP	78	336	7	B	0	M1
NMTTP	78	336	7	A	0	M1

T_REC_TAP	234
T_REC_BRK	45
T_REC_XTP	55
T_REC_BXX	1
T_REC_HLD	45
T_REC_XHO	0
T_REC_BHO	12
T_REC_BXH	0
T_REC_STR	64
T_REC_BST	12
T_REC_XST	9
T_REC_XBS	0
T_REC_TTP	230
T_REC_THO	2
T_REC_SLD	76
T_REC_BSL	16
T_REC_ALL	801
T_NUM_TAP	592
T_NUM_BRK	86
T_NUM_HLD	47
T_NUM_SLD	76
T_NUM_ALL	801
T_JUDGE_TAP	650
T_JUDGE_HLD	137
T_JUDGE_SLD	92
T_JUDGE_ALL	879
TTM_EACHPAIRS	92
TTM_SCR_TAP	296000
TTM_SCR_BRK	223600
TTM_SCR_HLD	47000
TTM_SCR_SLD	114000
TTM_SCR_ALL	680600
TTM_SCR_S	651850
TTM_SCR_SS	672000
TTM_RAT_ACV	10127

